[ Сегодня идет свободное скачивание без начисления Download ]


Статистика раздачи
Нет
 
   
 
Top  
 
 
-Похождения призрака / Promocion fantasma (2012) BDRip- Русское название: Похождения призрака
Оригинальное название: Promocion fantasma
Год выпуска: 2012
Производство: Испания | Televisi?n Espa?ola (TVE), Canal+ Espa?a, TVC
Жанр: Фэнтези, Комедия, Приключения
Перевод: Многоголосый закадровый, профессиональный "ТНТ"
Субтитры: Отсутствуют
Дата мировой премьеры: 3 февраля 2012
Режиссер: Хавьер Руис
Актеры: Рауль Аревало, Александра Хименес, Хавьер Гонзалез, Анна Кастилло, Андреа Дуро, Аура Гарридо, Алекс Маруни, Хайме Олиас, Карлос Аресес, Сильвия Абрил
Описание фильма:
Обладающий паранормальными способностями заурядный учитель Модесто может видеть мертвых людей. Это не принесло ему никаких успехов в жизни, скорее наоборот, из-за этого его каждый раз увольняют с работы. Однажды ему таки улыбается удача, и он устраивается работать в очень престижную элитную школу. Там его задачей становится обеспечить успешное окончание школы пяти трудным ученикам. Проблема лишь в том, что все они уже двадцать лет как мертвы, погибнув при охватившем школу пожаре. Для измученной пятеркой призраков директрисы школы единственной надеждой на долгожданное избавление от них становится неудачник Модесто.

Продолжительность: 01:28:20
Контейнер: MKV
Качество видео: BDRip
Видеокодек: MPEG-4 AVC/H.264
Видео: ~5570 kbps, 1280х 536 / 23,976 fps
Аудиокодек: AC3
Аудио# 1: Русский: AC3, 2.0 ch, ~192 kb/s |Многоголосый закадровый, "ТНТ"|
Аудио# 2: Испанский: AC3, 5.1ch, 48 kHz, ~1509 kb/s
Сэмпл: Скачать

MediaInfo:

Формат : Matroska
Версия формата : Version 2
Размер файла : 4,49 Гбайт
Продолжительность : 1 ч. 28 м.
Общий поток : 7273 Кбит/сек
Дата кодирования : UTC 2013-03-03 06:40:24
Программа кодирования : mkvmerge v5.8.0 ('No Sleep / Pillow') built on Sep 2 2012 15:37:04
Библиотека кодирования : libebml v1.2.3 + libmatroska v1.3.0
Видео
Идентификатор : 1
Формат : AVC
Формат/Информация : Advanced Video Codec
Профиль формата : High@L4.1
Параметр CABAC формата : Да
Параметр ReFrames формата : 8 кадров
Идентификатор кодека : V_MPEG4/ISO/AVC
Продолжительность : 1 ч. 28 м.
Битрейт : 5570 Кбит/сек
Ширина : 1280 пикселей
Высота : 536 пикселей
Соотношение сторон : 2,40:1
Режим частоты кадров : Постоянный
Частота кадров : 23,976 кадра/сек
Цветовое пространство : YUV
Субдискретизация насыщенности : 4:2:0
Битовая глубина : 8 бит
Тип развёртки : Прогрессивная
Бит/(Пиксели*Кадры) : 0.339
Размер потока : 3,35 Гбайт (75%)
Библиотека кодирования : x264 core 125 r2208 d9d2288
Настройки программы : cabac=1 / ref=8 / deblock=1:-3:-3 / analyse=0x3:0x113 / me=umh / subme=9 / psy=1 / psy_rd=1.10:0.00 / mixed_ref=1 / me_range=32 / chroma_me=1 / trellis=2 / 8x8dct=1 / cqm=0 / deadzone=21,11 / fast_pskip=0 / chroma_qp_offset=-4 / threads=12 / lookahead_threads=2 / sliced_threads=0 / nr=0 / decimate=0 / interlaced=0 / bluray_compat=0 / constrained_intra=0 / bframes=6 / b_pyramid=2 / b_adapt=2 / b_bias=0 / direct=3 / weightb=1 / open_gop=0 / weightp=2 / keyint=250 / keyint_min=23 / scenecut=40 / intra_refresh=0 / rc_lookahead=48 / rc=2pass / mbtree=1 / bitrate=5570 / ratetol=1.0 / qcomp=0.60 / qpmin=0 / qpmax=69 / qpstep=4 / cplxblur=20.0 / qblur=0.5 / ip_ratio=1.40 / aq=1:0.80
Язык : English
Default : Да
Forced : Нет
Аудио #1
Идентификатор : 2
Формат : AC-3
Формат/Информация : Audio Coding 3
Расширение режима : CM (complete main)
Параметр Endianness формата : Big
Идентификатор кодека : A_AC3
Продолжительность : 1 ч. 28 м.
Вид битрейта : Постоянный
Битрейт : 192 Кбит/сек
Каналы : 2 канала
Расположение каналов : Front: L R
Частота : 48,0 КГц
Битовая глубина : 16 бит
Метод сжатия : С потерями
Размер потока : 121 Мбайт (3%)
Язык : Russian
Default : Да
Forced : Нет
Аудио #2
Идентификатор : 3
Формат : DTS
Формат/Информация : Digital Theater Systems
Режим : 16
Параметр Endianness формата : Big
Идентификатор кодека : A_DTS
Продолжительность : 1 ч. 28 м.
Вид битрейта : Постоянный
Битрейт : 1509 Кбит/сек
Каналы : 6 каналов
Расположение каналов : Front: L C R, Side: L R, LFE
Частота : 48,0 КГц
Битовая глубина : 16 бит
Метод сжатия : С потерями
Размер потока : 953 Мбайт (21%)
Язык : Spanish
Default : Нет
Forced : Нет
Скриншоты:


Время раздачи: Круглосуточно 24/7 (до 10 скачавших)

[Цитировать]



Показать сообщения:    

Текущее время: 08-Дек 08:54

Часовой пояс: UTC + 3


Вы не можете начинать темы
Вы не можете отвечать на сообщения
Вы не можете редактировать свои сообщения
Вы не можете удалять свои сообщения
Вы не можете голосовать в опросах
Вы не можете прикреплять файлы к сообщениям
Вы не можете скачивать файлы

!ВНИМАНИЕ!
Сайт не предоставляет электронные версии произведений, а занимается лишь коллекционированием и каталогизацией ссылок, присылаемых и публикуемых на форуме нашими читателями. Если вы являетесь правообладателем какого-либо представленного материала и не желаете, чтобы ссылка на него находилась в нашем каталоге, свяжитесь с нами, и мы незамедлительно удалим ее. Файлы для обмена на трекере предоставлены пользователями сайта, и администрация не несет ответственности за их содержание. Просьба не заливать файлы, защищенные авторскими правами, а также файлы нелегального содержания!