[ Сегодня идет свободное скачивание без начисления Download ]


Статистика раздачи
Нет
 
   
 
Top  
 
 
-VA - Horizon Plasma Searching - Trance (2013)- Год: 2013
Жанр: Trance
Продолжительность:03:06:43
Кодек: MP3
Битрейт: 320 кб/с
Тип битрейта: CBR
Трек лист:
01. Kiholm - Fragile 2011 (Digital Horizon Remix) 07:54
02. Erick Strong - Italian 06:30
03. Elfsong - Eta Carinae 07:36
04. John O'callaghan - Centurion 07:27
05. Fast Distance Feat Stine Grove - Another Life (Original Mix) 08:12
06. D-Tane - Plasma (Original Mix) 06:56
07. Dj Dima June - Barracuda (Original Mix) 05:38
08. Kiva Feat. Lady Nalan - My Star (Original Mix) 07:13

Продолжение

09. Jose Amnesia - No Regrets (Original Mix) 08:38
10. Dj Feel Feat. Melissa Loretta - 4 U 2 C (Original Mix) 06:49
11. Daniel Kandi - Soul Searchin' 07:01
12. Ferrit - Galaxy (Original Mix) 05:12
13. Dennis Sheperd - Cocoon (Original Mix) 06:23
14. Genix - Cut Above 06:36
15. Farhad Mahdavi - Pasargadae (Original Mix) 08:44
16. Dimension - Coral Reef (Original Mix) 08:06
17. Jaden Merrick - Split (Original Mix) 08:09
18. I-Vision - Everyday 07:20
19. Heart Of Stone - Infinity (Orginal Mix) 07:41
20. Emvy - Strut (Original Mix) 06:32
21. Luke Terry Feat. Helen Sylk - Cloudbreak (Original Mix) 06:36
22. Tm Project - Imigration (Original Mix) 08:00
23. Groove Coverage - Innocent (Cristian Poow Remix) 06:54
24. Dr Willis - Sumatra (Original Mix) 07:47
25. Digital Dropouts - Here We Are (Mark Sherry & James Allan Mix) 06:00
26. Ernesto Vs. Bastian - The Incredible Apollo 06:50
-

MI

Общее
Полное имя : E:\VA-Horizon Plasma Searching - Trance\01. Kiholm - Fragile 2011 (Digital Horizon Remix).mp3
Формат : MPEG Audio
Размер файла : 18,1 Мбайт
Продолжительность : 7 м. 54 с.
Режим общего битрейта : Постоянный
Общий поток : 320 Кбит/сек
Альбом : Horizon Plasma Searching
Трек : Fragile 2011 (Digital Horizon Remix)
Трек/Положение : 01
Исполнитель : Kiholm
Кодирование произвёл : Team TraX
Издатель : Neuroscience Recordings
Жанр : Trance
Дата записи : 2013-31-05
Библиотека кодирования : LAME3.97
Примечание : Plasma Searching - Trance / / 2011 - 2012
Rip date : 2011-00-00
Оригинал : WEB
Supplier : Team TraX
Release type : NORMAL RELEASE
Catalog # : NEURO064
Аудио
Формат : MPEG Audio
Версия формата : Version 1
Профиль формата : Layer 3
Продолжительность : 7 м. 55 с.
Вид битрейта : Постоянный
Битрейт : 320 Кбит/сек
Каналы : 2 канала
Частота : 44,1 КГц
Метод сжатия : С потерями
Размер потока : 18,1 Мбайт (100%)
Библиотека кодирования : LAME3.97
Настройки программы : -m s -V 4 -q 3 -lowpass 20.5
Язык : English
Общее
Полное имя : E:\VA-Horizon Plasma Searching - Trance\02. Erick Strong - Italian.mp3
Формат : MPEG Audio
Размер файла : 14,9 Мбайт
Продолжительность : 6 м. 30 с.
Режим общего битрейта : Постоянный
Общий поток : 320 Кбит/сек
Альбом : Horizon Plasma Searching
Трек : Italian
Трек/Положение : 02
Исполнитель : Erick Strong
Издатель : Doorn
Жанр : Trance
Дата записи : 2013-00-00
Библиотека кодирования : LAME3.97
Примечание : Plasma Searching - Trance / / 2011 - 2012
Rip date : 2011-00-00
Оригинал : WEB
Release type : Normal
Catalog # : DOORN061
Аудио
Формат : MPEG Audio
Версия формата : Version 1
Профиль формата : Layer 3
Продолжительность : 6 м. 31 с.
Вид битрейта : Постоянный
Битрейт : 320 Кбит/сек
Каналы : 2 канала
Частота : 44,1 КГц
Метод сжатия : С потерями
Размер потока : 14,9 Мбайт (100%)
Библиотека кодирования : LAME3.97
Настройки программы : -m s -V 4 -q 3 -lowpass 20.5
Язык : English
Общее
Полное имя : E:\VA-Horizon Plasma Searching - Trance\03. Elfsong - Eta Carinae.mp3
Формат : MPEG Audio
Размер файла : 17,4 Мбайт
Продолжительность : 7 м. 36 с.
Режим общего битрейта : Постоянный
Общий поток : 320 Кбит/сек
Альбом : Horizon Plasma Searching
Трек : Eta Carinae
Трек/Положение : 03
Исполнитель : Elfsong
Издатель : Solaris Recordings
Жанр : Trance
Дата выпуска : 2011
Дата записи : 2013-00-00
Библиотека кодирования : LAME3.96
Примечание : Plasma Searching - Trance / / 2011 - 2012
Rip date : 2011-00-00
Оригинал : WEB
Release type : Normal
Catalog # : SLRS052
Аудио
Формат : MPEG Audio
Версия формата : Version 1
Профиль формата : Layer 3
Продолжительность : 7 м. 37 с.
Вид битрейта : Постоянный
Битрейт : 320 Кбит/сек
Каналы : 2 канала
Частота : 44,1 КГц
Метод сжатия : С потерями
Размер потока : 17,4 Мбайт (100%)
Библиотека кодирования : LAME3.96
Язык : English
Общее
Полное имя : E:\VA-Horizon Plasma Searching - Trance\04. John O'callaghan - Centurion.mp3
Формат : MPEG Audio
Размер файла : 17,1 Мбайт
Продолжительность : 7 м. 27 с.
Режим общего битрейта : Постоянный
Общий поток : 320 Кбит/сек
Альбом : Horizon Plasma Searching
Трек : Centurion
Трек/Положение : 04
Исполнитель : John O'Callaghan
Издатель : Captivating Sounds
Жанр : Trance
Дата выпуска : 2011
Дата записи : 2013-00-00
Библиотека кодирования : LAME3.98
Примечание : Plasma Searching - Trance / / 2011 - 2012
Rip date : 2011-00-00
Оригинал : WEB
Release type : Normal
Catalog # : CVSA133
Аудио
Формат : MPEG Audio
Версия формата : Version 1
Профиль формата : Layer 3
Режим : Joint stereo
Продолжительность : 7 м. 28 с.
Вид битрейта : Постоянный
Битрейт : 320 Кбит/сек
Каналы : 2 канала
Частота : 44,1 КГц
Метод сжатия : С потерями
Размер потока : 17,1 Мбайт (100%)
Библиотека кодирования : LAME3.98
Настройки программы : -m j -V 4 -q 3 -lowpass 20.5
Язык : English
Общее
Полное имя : E:\VA-Horizon Plasma Searching - Trance\05. Fast Distance Feat Stine Grove - Another Life (Original Mix).mp3
Формат : MPEG Audio
Размер файла : 18,8 Мбайт
Продолжительность : 8 м. 12 с.
Режим общего битрейта : Постоянный
Общий поток : 320 Кбит/сек
Альбом : Horizon Plasma Searching
Трек : Another Life (Original Mix)
Трек/Положение : 05
Исполнитель : Fast Distance Feat Stine Grove
Жанр : Trance
Дата записи : 2013
Библиотека кодирования : LAME3.97
Примечание : Plasma Searching - Trance / / 2011 - 2012
Аудио
Формат : MPEG Audio
Версия формата : Version 1
Профиль формата : Layer 3
Продолжительность : 8 м. 13 с.
Вид битрейта : Постоянный
Битрейт : 320 Кбит/сек
Каналы : 2 канала
Частота : 44,1 КГц
Метод сжатия : С потерями
Размер потока : 18,8 Мбайт (100%)
Библиотека кодирования : LAME3.97
Настройки программы : -m s -V 4 -q 3 -lowpass 20.5
Язык : English
Общее
Полное имя : E:\VA-Horizon Plasma Searching - Trance\06. D-Tane - Plasma (Original Mix).mp3
Формат : MPEG Audio
Размер файла : 15,9 Мбайт
Продолжительность : 6 м. 56 с.
Режим общего битрейта : Постоянный
Общий поток : 320 Кбит/сек
Альбом : Horizon Plasma Searching
Трек : plasma (original mix)
Трек/Положение : 06
Исполнитель : d-tane
Кодирование произвёл : Lame 3.98
Жанр : Trance
Дата записи : 2013
Библиотека кодирования : LAME3.98r
Примечание : Plasma Searching - Trance / / 2011 - 2012
Аудио
Формат : MPEG Audio
Версия формата : Version 1
Профиль формата : Layer 3
Режим : Joint stereo
Расширение режима : MS Stereo
Продолжительность : 6 м. 56 с.
Вид битрейта : Постоянный
Битрейт : 320 Кбит/сек
Каналы : 2 канала
Частота : 44,1 КГц
Метод сжатия : С потерями
Размер потока : 15,9 Мбайт (100%)
Библиотека кодирования : LAME3.98r
Настройки программы : -m j -V 4 -q 4 -lowpass 20.5
Язык : English
Общее
Полное имя : E:\VA-Horizon Plasma Searching - Trance\07. Dj Dima June - Barracuda (Original Mix).mp3
Формат : MPEG Audio
Размер файла : 12,9 Мбайт
Продолжительность : 5 м. 38 с.
Режим общего битрейта : Постоянный
Общий поток : 320 Кбит/сек
Альбом : Horizon Plasma Searching
Трек : barracuda (original mix)
Трек/Положение : 07
Исполнитель : dj dima june
Кодирование произвёл : Lame 3.98
Жанр : Trance
Дата записи : 2013
Библиотека кодирования : LAME3.98r
Примечание : Plasma Searching - Trance / / 2011 - 2012
Аудио
Формат : MPEG Audio
Версия формата : Version 1
Профиль формата : Layer 3
Режим : Joint stereo
Продолжительность : 5 м. 38 с.
Вид битрейта : Постоянный
Битрейт : 320 Кбит/сек
Каналы : 2 канала
Частота : 44,1 КГц
Метод сжатия : С потерями
Размер потока : 12,9 Мбайт (100%)
Библиотека кодирования : LAME3.98r
Настройки программы : -m j -V 4 -q 4 -lowpass 20.5
Язык : English
Общее
Полное имя : E:\VA-Horizon Plasma Searching - Trance\08. Kiva Feat. Lady Nalan - My Star (Original Mix).mp3
Формат : MPEG Audio
Размер файла : 16,6 Мбайт
Продолжительность : 7 м. 13 с.
Режим общего битрейта : Постоянный
Общий поток : 320 Кбит/сек
Альбом : Horizon Plasma Searching
Трек : My Star (Original Mix)
Трек/Положение : 08
Исполнитель : Kiva Feat. Lady Nalan
Кодирование произвёл : Team ZzZz
Издатель : Time Circle Recordings
Жанр : Trance
Дата записи : 2013-20-05
Библиотека кодирования : LAME3.98r
Примечание : Plasma Searching - Trance / / 2011 - 2012
Rip date : 2011-05-26
Оригинал : WEB Store
Supplier : Team ZzZz
Ripping tool : EAC
Release type : Normal Release
Catalog # : TMCR 035
Аудио
Формат : MPEG Audio
Версия формата : Version 1
Профиль формата : Layer 3
Режим : Joint stereo
Продолжительность : 7 м. 13 с.
Вид битрейта : Постоянный
Битрейт : 320 Кбит/сек
Каналы : 2 канала
Частота : 44,1 КГц
Метод сжатия : С потерями
Размер потока : 16,5 Мбайт (100%)
Библиотека кодирования : LAME3.98r
Настройки программы : -m j -V 4 -q 4 -lowpass 20.5
Язык : English
Общее
Полное имя : E:\VA-Horizon Plasma Searching - Trance\09. Jose Amnesia - No Regrets (Original Mix).mp3
Формат : MPEG Audio
Размер файла : 19,8 Мбайт
Продолжительность : 8 м. 38 с.
Режим общего битрейта : Постоянный
Общий поток : 320 Кбит/сек
Альбом : Horizon Plasma Searching
Трек : No Regrets (Original Mix)
Трек/Положение : 09
Исполнитель : Jose Amnesia
Издатель : Milk Records
Жанр : Trance
Дата выпуска : 2011
Дата записи : 2013-26-05
Библиотека кодирования : LAME3.98r
Примечание : Plasma Searching - Trance / / 2011 - 2012
Rip date : 2011-05-26
Оригинал : WEB
Ripping tool : EAC
Release type : Normal release
Catalog # : MLK006
VA Artist : Jose Amnesia
Аудио
Формат : MPEG Audio
Версия формата : Version 1
Профиль формата : Layer 3
Режим : Joint stereo
Расширение режима : MS Stereo
Продолжительность : 8 м. 39 с.
Вид битрейта : Постоянный
Битрейт : 320 Кбит/сек
Каналы : 2 канала
Частота : 44,1 КГц
Метод сжатия : С потерями
Размер потока : 19,8 Мбайт (100%)
Библиотека кодирования : LAME3.98r
Настройки программы : -m j -V 4 -q 2 -lowpass 20.5
Язык : English
Общее
Полное имя : E:\VA-Horizon Plasma Searching - Trance\10. Dj Feel Feat. Melissa Loretta - 4 U 2 C (Original Mix).mp3
Формат : MPEG Audio
Размер файла : 15,6 Мбайт
Продолжительность : 6 м. 49 с.
Режим общего битрейта : Постоянный
Общий поток : 320 Кбит/сек
Альбом : Horizon Plasma Searching
Трек : 4 U 2 C (Original Mix)
Трек/Положение : 10
Исполнитель : DJ Feel feat. Melissa Loretta
Издатель : 2 Play Records
Жанр : Trance
Дата записи : 2013-23-05
Библиотека кодирования : LAME3.97
Примечание : Plasma Searching - Trance / / 2011 - 2012
Rip date : 2011-05-23
Оригинал : WEB
Ripping tool : EAC
Release type : Normal release
Catalog # : 2PLAY110
Аудио
Формат : MPEG Audio
Версия формата : Version 1
Профиль формата : Layer 3
Продолжительность : 6 м. 49 с.
Вид битрейта : Постоянный
Битрейт : 320 Кбит/сек
Каналы : 2 канала
Частота : 44,1 КГц
Метод сжатия : С потерями
Размер потока : 15,6 Мбайт (100%)
Библиотека кодирования : LAME3.97
Настройки программы : -m s -V 4 -q 3 -lowpass 20.5
Язык : English
Общее
Полное имя : E:\VA-Horizon Plasma Searching - Trance\11. Daniel Kandi - Soul Searchin'.mp3
Формат : MPEG Audio
Размер файла : 16,1 Мбайт
Продолжительность : 7 м. 1 с.
Режим общего битрейта : Постоянный
Общий поток : 320 Кбит/сек
Альбом : Horizon Plasma Searching
Трек : Soul Searchin'
Трек/Ещё : Original Mix
Трек/Положение : 11
Исполнитель : Daniel Kandi
Издатель : Anjunabeats
Жанр : Trance
Дата записи : 2013-00-00
Библиотека кодирования : LAME3.98
Примечание : Plasma Searching - Trance / / 2011 - 2012
Rip date : 2011-00-00
Оригинал : WEB
Release type : Normal
Catalog # : ANJ202D
Аудио
Формат : MPEG Audio
Версия формата : Version 1
Профиль формата : Layer 3
Режим : Joint stereo
Продолжительность : 7 м. 1 с.
Вид битрейта : Постоянный
Битрейт : 320 Кбит/сек
Каналы : 2 канала
Частота : 44,1 КГц
Метод сжатия : С потерями
Размер потока : 16,1 Мбайт (100%)
Библиотека кодирования : LAME3.98
Настройки программы : -m j -V 4 -q 3 -lowpass 20.5
Язык : English
Общее
Полное имя : E:\VA-Horizon Plasma Searching - Trance\12. Ferrit - Galaxy (Original Mix).mp3
Формат : MPEG Audio
Размер файла : 11,9 Мбайт
Продолжительность : 5 м. 12 с.
Режим общего битрейта : Постоянный
Общий поток : 320 Кбит/сек
Альбом : Horizon Plasma Searching
Трек : Galaxy (Original Mix)
Трек/Положение : 12
Исполнитель : Ferrit
Жанр : Trance
Дата записи : 2013
Библиотека кодирования : LAME3.97
Примечание : Plasma Searching - Trance / / 2011 - 2012
Аудио
Формат : MPEG Audio
Версия формата : Version 1
Профиль формата : Layer 3
Продолжительность : 5 м. 12 с.
Вид битрейта : Постоянный
Битрейт : 320 Кбит/сек
Каналы : 2 канала
Частота : 44,1 КГц
Метод сжатия : С потерями
Размер потока : 11,9 Мбайт (100%)
Библиотека кодирования : LAME3.97
Настройки программы : -m s -V 4 -q 3 -lowpass 20.5
Язык : English
Общее
Полное имя : E:\VA-Horizon Plasma Searching - Trance\13. Dennis Sheperd - Cocoon (Original Mix).mp3
Формат : MPEG Audio
Размер файла : 14,6 Мбайт
Продолжительность : 6 м. 23 с.
Режим общего битрейта : Постоянный
Общий поток : 320 Кбит/сек
Альбом : Horizon Plasma Searching
Трек : Cocoon (Original Mix)
Трек/Положение : 13
Исполнитель : Dennis Sheperd
Жанр : Trance
Дата записи : 2013
Библиотека кодирования : LAME3.97
Примечание : Plasma Searching - Trance / / 2011 - 2012
Аудио
Формат : MPEG Audio
Версия формата : Version 1
Профиль формата : Layer 3
Продолжительность : 6 м. 23 с.
Вид битрейта : Постоянный
Битрейт : 320 Кбит/сек
Каналы : 2 канала
Частота : 44,1 КГц
Метод сжатия : С потерями
Размер потока : 14,6 Мбайт (100%)
Библиотека кодирования : LAME3.97
Настройки программы : -m s -V 4 -q 3 -lowpass 20.5
Язык : English
Общее
Полное имя : E:\VA-Horizon Plasma Searching - Trance\14. Genix - Cut Above.mp3
Формат : MPEG Audio
Размер файла : 15,2 Мбайт
Продолжительность : 6 м. 36 с.
Режим общего битрейта : Постоянный
Общий поток : 320 Кбит/сек
Альбом : Horizon Plasma Searching
Трек : Cut Above
Трек/Положение : 14
Исполнитель : Genix
Издатель : Reset Records
Жанр : Trance
Дата записи : 2013-00-00
Библиотека кодирования : LAME3.97
Примечание : Plasma Searching - Trance / / 2011 - 2012
Rip date : 2011-00-00
Оригинал : WEB
Release type : Normal
Catalog # : RS149
Аудио
Формат : MPEG Audio
Версия формата : Version 1
Профиль формата : Layer 3
Продолжительность : 6 м. 37 с.
Вид битрейта : Постоянный
Битрейт : 320 Кбит/сек
Каналы : 2 канала
Частота : 44,1 КГц
Метод сжатия : С потерями
Размер потока : 15,1 Мбайт (100%)
Библиотека кодирования : LAME3.97
Настройки программы : -m s -V 4 -q 3 -lowpass 20.5
Язык : English
Общее
Полное имя : E:\VA-Horizon Plasma Searching - Trance\15. Farhad Mahdavi - Pasargadae (Original Mix).mp3
Формат : MPEG Audio
Размер файла : 20,0 Мбайт
Продолжительность : 8 м. 44 с.
Режим общего битрейта : Постоянный
Общий поток : 320 Кбит/сек
Альбом : Horizon Plasma Searching
Трек : Pasargadae (Original Mix)
Трек/Положение : 15
Исполнитель : Farhad Mahdavi
Кодирование произвёл : Team TraX
Издатель : Terminal 01 Recordings
Жанр : Trance
Дата записи : 2013-23-05
Библиотека кодирования : LAME3.98r
Примечание : Plasma Searching - Trance / / 2011 - 2012
Rip date : 2011-00-00
Оригинал : WEB
Supplier : Team TraX
Release type : NORMAL RELEASE
Catalog # : TERM049
Аудио
Формат : MPEG Audio
Версия формата : Version 1
Профиль формата : Layer 3
Режим : Joint stereo
Продолжительность : 8 м. 44 с.
Вид битрейта : Постоянный
Битрейт : 320 Кбит/сек
Каналы : 2 канала
Частота : 44,1 КГц
Метод сжатия : С потерями
Размер потока : 20,0 Мбайт (100%)
Библиотека кодирования : LAME3.98r
Настройки программы : -m j -V 4 -q 3 -lowpass 20.5
Язык : English
Общее
Полное имя : E:\VA-Horizon Plasma Searching - Trance\16. Dimension - Coral Reef (Original Mix).mp3
Формат : MPEG Audio
Размер файла : 18,6 Мбайт
Продолжительность : 8 м. 6 с.
Режим общего битрейта : Постоянный
Общий поток : 320 Кбит/сек
Альбом : Horizon Plasma Searching
Трек : Coral Reef (Original Mix)
Трек/Положение : 16
Исполнитель : Dimension
Жанр : Trance
Дата записи : 2013
Библиотека кодирования : LAME3.97
Примечание : Plasma Searching - Trance / / 2011 - 2012
Аудио
Формат : MPEG Audio
Версия формата : Version 1
Профиль формата : Layer 3
Продолжительность : 8 м. 6 с.
Вид битрейта : Постоянный
Битрейт : 320 Кбит/сек
Каналы : 2 канала
Частота : 44,1 КГц
Метод сжатия : С потерями
Размер потока : 18,6 Мбайт (100%)
Библиотека кодирования : LAME3.97
Настройки программы : -m s -V 4 -q 3 -lowpass 20.5
Язык : English
Общее
Полное имя : E:\VA-Horizon Plasma Searching - Trance\17. Jaden Merrick - Split (Original Mix).mp3
Формат : MPEG Audio
Размер файла : 18,7 Мбайт
Продолжительность : 8 м. 9 с.
Режим общего битрейта : Постоянный
Общий поток : 320 Кбит/сек
Альбом : Horizon Plasma Searching
Трек : Split (Original Mix)
Трек/Положение : 17
Исполнитель : Jaden Merrick
Жанр : Trance
Дата записи : 2013
Библиотека кодирования : LAME3.97
Примечание : Plasma Searching - Trance / / 2011 - 2012
Аудио
Формат : MPEG Audio
Версия формата : Version 1
Профиль формата : Layer 3
Продолжительность : 8 м. 10 с.
Вид битрейта : Постоянный
Битрейт : 320 Кбит/сек
Каналы : 2 канала
Частота : 44,1 КГц
Метод сжатия : С потерями
Размер потока : 18,7 Мбайт (100%)
Библиотека кодирования : LAME3.97
Настройки программы : -m s -V 4 -q 3 -lowpass 20.5
Язык : English
Общее
Полное имя : E:\VA-Horizon Plasma Searching - Trance\18. I-Vision - Everyday.mp3
Формат : MPEG Audio
Размер файла : 16,8 Мбайт
Продолжительность : 7 м. 20 с.
Режим общего битрейта : Постоянный
Общий поток : 320 Кбит/сек
Альбом : Horizon Plasma Searching
Трек : Everyday
Трек/Положение : 18
Исполнитель : I-Vision
Издатель : Perceptive Deep
Жанр : Trance
Дата выпуска : 2011
Дата записи : 2013-00-00
Библиотека кодирования : LAME3.98r
Примечание : Plasma Searching - Trance / / 2011 - 2012
TAGGINGTIME : 2011-05-07T09:17:11
Rip date : 2011-00-00
Оригинал : WEB
Release type : Normal
Catalog # : PD016
Аудио
Формат : MPEG Audio
Версия формата : Version 1
Профиль формата : Layer 3
Режим : Joint stereo
Продолжительность : 7 м. 20 с.
Вид битрейта : Постоянный
Битрейт : 320 Кбит/сек
Каналы : 2 канала
Частота : 44,1 КГц
Метод сжатия : С потерями
Размер потока : 16,8 Мбайт (100%)
Библиотека кодирования : LAME3.98r
Настройки программы : -m j -V 4 -q 3 -lowpass 20.5
Язык : English
Общее
Полное имя : E:\VA-Horizon Plasma Searching - Trance\19. Heart Of Stone - Infinity (Orginal Mix).mp3
Формат : MPEG Audio
Размер файла : 17,6 Мбайт
Продолжительность : 7 м. 41 с.
Режим общего битрейта : Постоянный
Общий поток : 320 Кбит/сек
Альбом : Horizon Plasma Searching
Трек : Infinity (Orginal Mix)
Трек/Положение : 19
Исполнитель : Heart Of Stone
Кодирование произвёл : Team TraX
Издатель : Refuge Records
Жанр : Trance
Дата записи : 2013-09-11
Библиотека кодирования : LAME3.98
Примечание : Plasma Searching - Trance / / 2011 - 2012
Rip date : 2011-00-00
Оригинал : WEB
Supplier : Team TraX
Release type : NORMAL RELEASE
Catalog # : HFD10275
Аудио
Формат : MPEG Audio
Версия формата : Version 1
Профиль формата : Layer 3
Режим : Joint stereo
Расширение режима : MS Stereo
Продолжительность : 7 м. 41 с.
Вид битрейта : Постоянный
Битрейт : 320 Кбит/сек
Каналы : 2 канала
Частота : 44,1 КГц
Метод сжатия : С потерями
Размер потока : 17,6 Мбайт (100%)
Библиотека кодирования : LAME3.98
Настройки программы : -m j -V 4 -q 3 -lowpass 20.5
Язык : English
Общее
Полное имя : E:\VA-Horizon Plasma Searching - Trance\20. Emvy - Strut (Original Mix).mp3
Формат : MPEG Audio
Размер файла : 15,0 Мбайт
Продолжительность : 6 м. 32 с.
Режим общего битрейта : Постоянный
Общий поток : 320 Кбит/сек
Альбом : Horizon Plasma Searching
Трек : Strut (Original Mix)
Трек/Положение : 20
Исполнитель : Emvy
Жанр : Trance
Дата записи : 2013
Библиотека кодирования : LAME3.97
Примечание : Plasma Searching - Trance / / 2011 - 2012
Аудио
Формат : MPEG Audio
Версия формата : Version 1
Профиль формата : Layer 3
Продолжительность : 6 м. 33 с.
Вид битрейта : Постоянный
Битрейт : 320 Кбит/сек
Каналы : 2 канала
Частота : 44,1 КГц
Метод сжатия : С потерями
Размер потока : 15,0 Мбайт (100%)
Библиотека кодирования : LAME3.97
Настройки программы : -m s -V 4 -q 3 -lowpass 20.5
Язык : English
Общее
Полное имя : E:\VA-Horizon Plasma Searching - Trance\21. Luke Terry Feat. Helen Sylk - Cloudbreak (Original Mix).mp3
Формат : MPEG Audio
Размер файла : 15,1 Мбайт
Продолжительность : 6 м. 36 с.
Режим общего битрейта : Постоянный
Общий поток : 320 Кбит/сек
Альбом : Horizon Plasma Searching
Трек : Cloudbreak (Original Mix)
Трек/Положение : 21
Исполнитель : Luke Terry Feat. Helen Sylk
Кодирование произвёл : Team TraX
Издатель : Unearthed Records
Жанр : Trance
Дата записи : 2013-18-04
Библиотека кодирования : LAME3.97
Примечание : Plasma Searching - Trance / / 2011 - 2012
Rip date : 2011-00-00
Оригинал : WEB
Supplier : Team TraX
Release type : NORMAL RELEASE
Catalog # : UNERED034
Аудио
Формат : MPEG Audio
Версия формата : Version 1
Профиль формата : Layer 3
Продолжительность : 6 м. 36 с.
Вид битрейта : Постоянный
Битрейт : 320 Кбит/сек
Каналы : 2 канала
Частота : 44,1 КГц
Метод сжатия : С потерями
Размер потока : 15,1 Мбайт (100%)
Библиотека кодирования : LAME3.97
Настройки программы : -m s -V 4 -q 3 -lowpass 20.5
Язык : English
Общее
Полное имя : E:\VA-Horizon Plasma Searching - Trance\22. Tm Project - Imigration (Original Mix).mp3
Формат : MPEG Audio
Размер файла : 18,3 Мбайт
Продолжительность : 8 м. 0 с.
Режим общего битрейта : Постоянный
Общий поток : 320 Кбит/сек
Альбом : Horizon Plasma Searching
Трек : Imigration (Original Mix)
Трек/Положение : 22
Исполнитель : TM Project
Жанр : Trance
Дата записи : 2013
Примечание : Plasma Searching - Trance / / 2011 - 2012
Аудио
Формат : MPEG Audio
Версия формата : Version 1
Профиль формата : Layer 3
Режим : Joint stereo
Продолжительность : 8 м. 0 с.
Вид битрейта : Постоянный
Битрейт : 320 Кбит/сек
Каналы : 2 канала
Частота : 44,1 КГц
Метод сжатия : С потерями
Размер потока : 18,3 Мбайт (100%)
Общее
Полное имя : E:\VA-Horizon Plasma Searching - Trance\23. Groove Coverage - Innocent (Cristian Poow Remix).mp3
Формат : MPEG Audio
Размер файла : 15,8 Мбайт
Продолжительность : 6 м. 54 с.
Режим общего битрейта : Постоянный
Общий поток : 320 Кбит/сек
Альбом : Horizon Plasma Searching
Трек : Innocent (Cristian Poow Remix)
Трек/Положение : 23
Исполнитель : Groove Coverage
Жанр : Trance
Дата записи : 2013
Библиотека кодирования : LAME3.92
Примечание : Plasma Searching - Trance / / 2011 - 2012
Аудио
Формат : MPEG Audio
Версия формата : Version 1
Профиль формата : Layer 3
Продолжительность : 6 м. 55 с.
Вид битрейта : Постоянный
Битрейт : 320 Кбит/сек
Каналы : 2 канала
Частота : 44,1 КГц
Метод сжатия : С потерями
Размер потока : 15,8 Мбайт (100%)
Библиотека кодирования : LAME3.92
Общее
Полное имя : E:\VA-Horizon Plasma Searching - Trance\24. Dr Willis - Sumatra (Original Mix).mp3
Формат : MPEG Audio
Размер файла : 17,8 Мбайт
Продолжительность : 7 м. 47 с.
Режим общего битрейта : Постоянный
Общий поток : 320 Кбит/сек
Альбом : Horizon Plasma Searching
Трек : Sumatra (Original Mix)
Трек/Положение : 24
Исполнитель : Dr Willis
Кодирование произвёл : Team TraX
Издатель : Freefall
Жанр : Trance
Дата записи : 2013-19-04
Библиотека кодирования : LAME3.97
Примечание : Plasma Searching - Trance / / 2011 - 2012
Rip date : 2011-00-00
Оригинал : WEB
Supplier : Team TraX
Release type : NORMAL RELEASE
Catalog # : FF028
Аудио
Формат : MPEG Audio
Версия формата : Version 1
Профиль формата : Layer 3
Продолжительность : 7 м. 47 с.
Вид битрейта : Постоянный
Битрейт : 320 Кбит/сек
Каналы : 2 канала
Частота : 44,1 КГц
Метод сжатия : С потерями
Размер потока : 17,8 Мбайт (100%)
Библиотека кодирования : LAME3.97
Настройки программы : -m s -V 4 -q 3 -lowpass 20.5
Язык : English
Общее
Полное имя : E:\VA-Horizon Plasma Searching - Trance\25. Digital Dropouts - Here We Are (Mark Sherry & James Allan Mix).mp3
Формат : MPEG Audio
Размер файла : 13,8 Мбайт
Продолжительность : 6 м. 0 с.
Режим общего битрейта : Постоянный
Общий поток : 320 Кбит/сек
Альбом : Horizon Plasma Searching
Трек : Here We Are (Mark Sherry & James Allan Mix)
Трек/Положение : 25
Исполнитель : Digital Dropouts
Издатель : 2 Play Records
Жанр : Trance
Дата записи : 2013-00-00
Библиотека кодирования : LAME3.97
Примечание : Plasma Searching - Trance / / 2011 - 2012
Rip date : 2011-00-00
Оригинал : WEB
Release type : Normal
Catalog # : 2PLAY101
Аудио
Формат : MPEG Audio
Версия формата : Version 1
Профиль формата : Layer 3
Продолжительность : 6 м. 0 с.
Вид битрейта : Постоянный
Битрейт : 320 Кбит/сек
Каналы : 2 канала
Частота : 44,1 КГц
Метод сжатия : С потерями
Размер потока : 13,7 Мбайт (100%)
Библиотека кодирования : LAME3.97
Настройки программы : -m s -V 4 -q 3 -lowpass 20.5
Язык : English
Общее
Полное имя : E:\VA-Horizon Plasma Searching - Trance\26. Ernesto Vs. Bastian - The Incredible Apollo.mp3
Формат : MPEG Audio
Размер файла : 15,7 Мбайт
Продолжительность : 6 м. 50 с.
Режим общего битрейта : Постоянный
Общий поток : 320 Кбит/сек
Альбом : Horizon Plasma Searching
Трек : The Incredible Apollo
Трек/Положение : 26
Исполнитель : Ernesto vs. Bastian
Издатель : Captivating Sounds
Жанр : Trance
Дата записи : 2013-01-05
Библиотека кодирования : LAME3.98
Примечание : Plasma Searching - Trance / / 2011 - 2012
Rip date : 2011-05-01
Оригинал : WEB
Ripping tool : EAC
Release type : Normal release
Catalog # : CVSA132
Аудио
Формат : MPEG Audio
Версия формата : Version 1
Профиль формата : Layer 3
Режим : Joint stereo
Продолжительность : 6 м. 50 с.
Вид битрейта : Постоянный
Битрейт : 320 Кбит/сек
Каналы : 2 канала
Частота : 44,1 КГц
Метод сжатия : С потерями
Размер потока : 15,6 Мбайт (100%)
Библиотека кодирования : LAME3.98
Настройки программы : -m j -V 4 -q 3 -lowpass 20.5
Язык : English
Время раздачи: До 10 сидов.

[Цитировать]

О май щет. Вижу косячееек))) И даже в описание MI, это чистой воды копипаст? ДЫк в оформлении двоеточия рядом стоят, а в МИ как попало! :qu:

[Цитировать]



Показать сообщения:    

Текущее время: 10-Дек 11:58

Часовой пояс: UTC + 3


Вы не можете начинать темы
Вы не можете отвечать на сообщения
Вы не можете редактировать свои сообщения
Вы не можете удалять свои сообщения
Вы не можете голосовать в опросах
Вы не можете прикреплять файлы к сообщениям
Вы не можете скачивать файлы

!ВНИМАНИЕ!
Сайт не предоставляет электронные версии произведений, а занимается лишь коллекционированием и каталогизацией ссылок, присылаемых и публикуемых на форуме нашими читателями. Если вы являетесь правообладателем какого-либо представленного материала и не желаете, чтобы ссылка на него находилась в нашем каталоге, свяжитесь с нами, и мы незамедлительно удалим ее. Файлы для обмена на трекере предоставлены пользователями сайта, и администрация не несет ответственности за их содержание. Просьба не заливать файлы, защищенные авторскими правами, а также файлы нелегального содержания!