[ Сегодня идет свободное скачивание без начисления Download ]


Статистика раздачи
Нет
 
   
 
Top  
 
 
-VA - Drizzly Trance Sessions Vol.10 (The Best in Vocal and Progressive Club Anthems) (2013)- Год: 2013
Жанр: Trance
Продолжительность: 03:19:51
Кодек: MP3
Битрейт: 320 кб/с
Тип битрейта: CBR
Трек лист:
01. Rubbi - The Roll (Original Extended Mix)
02. Solid Sleep - Club Attack (Tpod Mix By Paul Van Dyk)
03. Komo - Keep On Moving On (Radio Edit)
04. Andy Hawk - Where Are You (Club Mix)
05. Wavetraxx - Das Boot 2K13 (Alternative 303 Mix)
06. Kukuzenko - In the Name of Broken Hearts (Vocal Mix)
07. Timbor - Cascade Highway (Timbor Edit)
08. Jason Knight - Deep Forest (Derek Ryan Remix)

Продолжение

09. Junk Project - Miralaca
10. Sequenza - Cycles (Club Mix)
11. Michael Thomas - We Stood in Flames (Original Radio Mix)
12. DJ Sequenza - Rhythm of Love (Original Mix)
13. Denga - Ear to Brain (Riot 303 vs Observer Mix)
14. Michael Thomas - Back to Life (DJ Sequenza Remix)
15. Ryan Riva - This Could Be Love (Axel Coon Remix)
16. DJ Sequenza - Follow Me Tonight (Axel Coon Remix)
17. Junk Project - Disciple
18. Busted - La Cobra Negra (Summer Sins Mix)
19. Wavetraxx - Nightingale (Edit)
20. Patrice Milan - One Moment (Original Mix)
21. DJ Sequenza - C U 2nite (Venice Beach Club Mix)
22. Attention Seekers - Heartbeat (Extended Mix)
23. Ari Kyle - Yasmine (Audioscape Remix)
24. Denga - The Prophecy (Volition Mix)
25. Junk Project - Composure (Solar Stone Remix)
26. Rainbow Warrior - La Musique (Vocal Mix)
27. Wavetraxx - Armageddon (Wavetraxx Mix Edit)
28. Mike NRG - Lost in Dreams (Alpha2 Remix)
29. Sequenza - Feels Like Love (Axel Coon Remix Radio Edit)
30. Peter Wibe - Only Time Will Tell (Vocal Mix)
31. Denga - First Union (Riot 303 vs Observer Mix)
32. Attention Seekers - Gypsy Rock (Akato Remix)
33. Patrice Milan - Eternal Spirit (Get Away Mix) (Original Mix)
-

MI

Общее
Полное имя : E:\VA-Drizzly Trance Sessions Vol.10 (The Best in Vocal and Progressive Club Anthems)\01_Rubbi_-_The_Roll_Original_Extended_Mix.mp3
Формат : MPEG Audio
Размер файла : 18,1 Мбайт
Продолжительность : 7 м. 53 с.
Режим общего битрейта : Постоянный
Общий поток : 320 Кбит/сек
Альбом : Drizzly Trance Sessions Vol.10 (The Best in Vocal and Progressive Club Anthems)
Трек : The Roll - Original Extended Mix
Трек/Положение : 01
Трек/Всего : 33
Исполнитель : Rubbi
Жанр :
Библиотека кодирования : LAME3.99r
Обложка : Yes
Тип обложки : Cover (front)
MIME-тип обложки : image/jpeg
Аудио
Формат : MPEG Audio
Версия формата : Version 1
Профиль формата : Layer 3
Режим : Joint stereo
Расширение режима : MS Stereo
Продолжительность : 7 м. 54 с.
Вид битрейта : Постоянный
Битрейт : 320 Кбит/сек
Каналы : 2 канала
Частота : 44,1 КГц
Метод сжатия : С потерями
Размер потока : 18,1 Мбайт (100%)
Библиотека кодирования : LAME3.99r
Настройки программы : -m j -V 4 -q 3 -lowpass 20.5
Общее
Полное имя : E:\VA-Drizzly Trance Sessions Vol.10 (The Best in Vocal and Progressive Club Anthems)\02_Solid_Sleep_-_Club_Attack_Tpod_Mix_By_Paul_Van_Dyk.mp3
Формат : MPEG Audio
Размер файла : 18,1 Мбайт
Продолжительность : 7 м. 53 с.
Режим общего битрейта : Постоянный
Общий поток : 320 Кбит/сек
Альбом : Drizzly Trance Sessions Vol.10 (The Best in Vocal and Progressive Club Anthems)
Трек : Club Attack - Tpod Mix By Paul Van Dyk
Трек/Положение : 02
Трек/Всего : 33
Исполнитель : Solid Sleep
Жанр :
Библиотека кодирования : LAME3.99r
Обложка : Yes
Тип обложки : Cover (front)
MIME-тип обложки : image/jpeg
Аудио
Формат : MPEG Audio
Версия формата : Version 1
Профиль формата : Layer 3
Режим : Joint stereo
Продолжительность : 7 м. 54 с.
Вид битрейта : Постоянный
Битрейт : 320 Кбит/сек
Каналы : 2 канала
Частота : 44,1 КГц
Метод сжатия : С потерями
Размер потока : 18,1 Мбайт (100%)
Библиотека кодирования : LAME3.99r
Настройки программы : -m j -V 4 -q 3 -lowpass 20.5
Общее
Полное имя : E:\VA-Drizzly Trance Sessions Vol.10 (The Best in Vocal and Progressive Club Anthems)\03_Komo_-_Keep_On_Moving_On_Radio_Edit.mp3
Формат : MPEG Audio
Размер файла : 7,86 Мбайт
Продолжительность : 3 м. 24 с.
Режим общего битрейта : Постоянный
Общий поток : 320 Кбит/сек
Альбом : Drizzly Trance Sessions Vol.10 (The Best in Vocal and Progressive Club Anthems)
Трек : Keep On Moving On - Radio Edit
Трек/Положение : 03
Трек/Всего : 33
Исполнитель : Komo
Жанр :
Библиотека кодирования : LAME3.99r
Обложка : Yes
Тип обложки : Cover (front)
MIME-тип обложки : image/jpeg
Аудио
Формат : MPEG Audio
Версия формата : Version 1
Профиль формата : Layer 3
Режим : Joint stereo
Продолжительность : 3 м. 24 с.
Вид битрейта : Постоянный
Битрейт : 320 Кбит/сек
Каналы : 2 канала
Частота : 44,1 КГц
Метод сжатия : С потерями
Размер потока : 7,80 Мбайт (99%)
Библиотека кодирования : LAME3.99r
Настройки программы : -m j -V 4 -q 3 -lowpass 20.5
Общее
Полное имя : E:\VA-Drizzly Trance Sessions Vol.10 (The Best in Vocal and Progressive Club Anthems)\04_Andy_Hawk_-_Where_Are_You_Club_Mix.mp3
Формат : MPEG Audio
Размер файла : 18,1 Мбайт
Продолжительность : 3 м. 34 с.
Режим общего битрейта : Постоянный
Общий поток : 320 Кбит/сек
Альбом : Drizzly Trance Sessions Vol.10 (The Best in Vocal and Progressive Club Anthems)
Трек : Where Are You - Club Mix
Трек/Положение : 04
Трек/Всего : 33
Исполнитель : Andy Hawk
Библиотека кодирования : LAME3.99r
Обложка : Yes
Тип обложки : Cover (front)
MIME-тип обложки : image/jpeg
Аудио
Формат : MPEG Audio
Версия формата : Version 1
Профиль формата : Layer 3
Режим : Joint stereo
Продолжительность : 3 м. 35 с.
Вид битрейта : Постоянный
Битрейт : 320 Кбит/сек
Каналы : 2 канала
Частота : 44,1 КГц
Метод сжатия : С потерями
Размер потока : 8,20 Мбайт (45%)
Библиотека кодирования : LAME3.99r
Настройки программы : -m j -V 4 -q 3 -lowpass 20.5
Общее
Полное имя : E:\VA-Drizzly Trance Sessions Vol.10 (The Best in Vocal and Progressive Club Anthems)\05_Wavetraxx_-_Das_Boot_2K13_Alternative_303_Mix.mp3
Формат : MPEG Audio
Размер файла : 15,2 Мбайт
Продолжительность : 6 м. 36 с.
Режим общего битрейта : Постоянный
Общий поток : 320 Кбит/сек
Альбом : Drizzly Trance Sessions Vol.10 (The Best in Vocal and Progressive Club Anthems)
Трек : Das Boot 2K13 - Alternative 303 Mix
Трек/Положение : 05
Трек/Всего : 33
Исполнитель : Wavetraxx
Жанр :
Библиотека кодирования : LAME3.99r
Обложка : Yes
Тип обложки : Cover (front)
MIME-тип обложки : image/jpeg
Аудио
Формат : MPEG Audio
Версия формата : Version 1
Профиль формата : Layer 3
Режим : Joint stereo
Продолжительность : 6 м. 36 с.
Вид битрейта : Постоянный
Битрейт : 320 Кбит/сек
Каналы : 2 канала
Частота : 44,1 КГц
Метод сжатия : С потерями
Размер потока : 15,1 Мбайт (100%)
Библиотека кодирования : LAME3.99r
Настройки программы : -m j -V 4 -q 3 -lowpass 20.5
Общее
Полное имя : E:\VA-Drizzly Trance Sessions Vol.10 (The Best in Vocal and Progressive Club Anthems)\06_Kukuzenko_-_In_the_Name_of_Broken_Hearts_Vocal_Mix.mp3
Формат : MPEG Audio
Размер файла : 16,5 Мбайт
Продолжительность : 7 м. 11 с.
Режим общего битрейта : Постоянный
Общий поток : 320 Кбит/сек
Альбом : Drizzly Trance Sessions Vol.10 (The Best in Vocal and Progressive Club Anthems)
Трек : In the Name of Broken Hearts - Vocal Mix
Трек/Положение : 06
Трек/Всего : 33
Исполнитель : Kukuzenko
Жанр :
Библиотека кодирования : LAME3.99r
Обложка : Yes
Тип обложки : Cover (front)
MIME-тип обложки : image/jpeg
Аудио
Формат : MPEG Audio
Версия формата : Version 1
Профиль формата : Layer 3
Режим : Joint stereo
Продолжительность : 7 м. 12 с.
Вид битрейта : Постоянный
Битрейт : 320 Кбит/сек
Каналы : 2 канала
Частота : 44,1 КГц
Метод сжатия : С потерями
Размер потока : 16,5 Мбайт (100%)
Библиотека кодирования : LAME3.99r
Настройки программы : -m j -V 4 -q 3 -lowpass 20.5
Общее
Полное имя : E:\VA-Drizzly Trance Sessions Vol.10 (The Best in Vocal and Progressive Club Anthems)\07_Timbor_-_Cascade_Highway_Timbor_Edit.mp3
Формат : MPEG Audio
Размер файла : 9,39 Мбайт
Продолжительность : 4 м. 4 с.
Режим общего битрейта : Постоянный
Общий поток : 320 Кбит/сек
Альбом : Drizzly Trance Sessions Vol.10 (The Best in Vocal and Progressive Club Anthems)
Трек : Cascade Highway - Timbor Edit
Трек/Положение : 07
Трек/Всего : 33
Исполнитель : Timbor
Жанр :
Библиотека кодирования : LAME3.99rН
Обложка : Yes
Тип обложки : Cover (front)
MIME-тип обложки : image/jpeg
Аудио
Формат : MPEG Audio
Версия формата : Version 1
Профиль формата : Layer 3
Режим : Joint stereo
Продолжительность : 4 м. 4 с.
Вид битрейта : Постоянный
Битрейт : 320 Кбит/сек
Каналы : 2 канала
Частота : 44,1 КГц
Метод сжатия : С потерями
Размер потока : 9,33 Мбайт (99%)
Библиотека кодирования : LAME3.99rН
Общее
Полное имя : E:\VA-Drizzly Trance Sessions Vol.10 (The Best in Vocal and Progressive Club Anthems)\08_Jason_Knight_-_Deep_Forest_Derek_Ryan_Remix.mp3
Формат : MPEG Audio
Размер файла : 17,4 Мбайт
Продолжительность : 7 м. 34 с.
Режим общего битрейта : Постоянный
Общий поток : 320 Кбит/сек
Альбом : Drizzly Trance Sessions Vol.10 (The Best in Vocal and Progressive Club Anthems)
Трек : Deep Forest - Derek Ryan Remix
Трек/Положение : 08
Трек/Всего : 33
Исполнитель : Jason Knight
Жанр :
Библиотека кодирования : LAME3.99rН
Обложка : Yes
Тип обложки : Cover (front)
MIME-тип обложки : image/jpeg
Аудио
Формат : MPEG Audio
Версия формата : Version 1
Профиль формата : Layer 3
Режим : Joint stereo
Продолжительность : 7 м. 35 с.
Вид битрейта : Постоянный
Битрейт : 320 Кбит/сек
Каналы : 2 канала
Частота : 44,1 КГц
Метод сжатия : С потерями
Размер потока : 17,4 Мбайт (100%)
Библиотека кодирования : LAME3.99rН
Общее
Полное имя : E:\VA-Drizzly Trance Sessions Vol.10 (The Best in Vocal and Progressive Club Anthems)\09_Junk_Project_-_Miralaca.mp3
Формат : MPEG Audio
Размер файла : 16,3 Мбайт
Продолжительность : 7 м. 6 с.
Режим общего битрейта : Постоянный
Общий поток : 320 Кбит/сек
Альбом : Drizzly Trance Sessions Vol.10 (The Best in Vocal and Progressive Club Anthems)
Трек : Miralaca
Трек/Положение : 09
Трек/Всего : 33
Исполнитель : Junk Project
Жанр :
Библиотека кодирования : LAME3.99r
Обложка : Yes
Тип обложки : Cover (front)
MIME-тип обложки : image/jpeg
Аудио
Формат : MPEG Audio
Версия формата : Version 1
Профиль формата : Layer 3
Режим : Joint stereo
Продолжительность : 7 м. 7 с.
Вид битрейта : Постоянный
Битрейт : 320 Кбит/сек
Каналы : 2 канала
Частота : 44,1 КГц
Метод сжатия : С потерями
Размер потока : 16,3 Мбайт (100%)
Библиотека кодирования : LAME3.99r
Настройки программы : -m j -V 4 -q 3 -lowpass 20.5
Общее
Полное имя : E:\VA-Drizzly Trance Sessions Vol.10 (The Best in Vocal and Progressive Club Anthems)\10_Sequenza_-_Cycles_Club_Mix.mp3
Формат : MPEG Audio
Размер файла : 11,5 Мбайт
Продолжительность : 5 м. 1 с.
Режим общего битрейта : Постоянный
Общий поток : 320 Кбит/сек
Альбом : Drizzly Trance Sessions Vol.10 (The Best in Vocal and Progressive Club Anthems)
Трек : Cycles - Club Mix
Трек/Положение : 10
Трек/Всего : 33
Исполнитель : Sequenza
Жанр :
Библиотека кодирования : LAME3.99r
Обложка : Yes
Тип обложки : Cover (front)
MIME-тип обложки : image/jpeg
Аудио
Формат : MPEG Audio
Версия формата : Version 1
Профиль формата : Layer 3
Режим : Joint stereo
Продолжительность : 5 м. 1 с.
Вид битрейта : Постоянный
Битрейт : 320 Кбит/сек
Каналы : 2 канала
Частота : 44,1 КГц
Метод сжатия : С потерями
Размер потока : 11,5 Мбайт (99%)
Библиотека кодирования : LAME3.99r
Настройки программы : -m j -V 4 -q 3 -lowpass 20.5
Общее
Полное имя : E:\VA-Drizzly Trance Sessions Vol.10 (The Best in Vocal and Progressive Club Anthems)\11_Michael_Thomas_-_We_Stood_in_Flames_Original_Radio_Mix.mp3
Формат : MPEG Audio
Размер файла : 7,39 Мбайт
Продолжительность : 3 м. 12 с.
Режим общего битрейта : Постоянный
Общий поток : 320 Кбит/сек
Альбом : Drizzly Trance Sessions Vol.10 (The Best in Vocal and Progressive Club Anthems)
Трек : We Stood in Flames - Original Radio Mix
Трек/Положение : 11
Трек/Всего : 33
Исполнитель : Michael Thomas
Жанр :
Библиотека кодирования : LAME3.99r
Обложка : Yes
Тип обложки : Cover (front)
MIME-тип обложки : image/jpeg
Аудио
Формат : MPEG Audio
Версия формата : Version 1
Профиль формата : Layer 3
Режим : Joint stereo
Продолжительность : 3 м. 12 с.
Вид битрейта : Постоянный
Битрейт : 320 Кбит/сек
Каналы : 2 канала
Частота : 44,1 КГц
Метод сжатия : С потерями
Размер потока : 7,33 Мбайт (99%)
Библиотека кодирования : LAME3.99r
Настройки программы : -m j -V 4 -q 3 -lowpass 20.5
Общее
Полное имя : E:\VA-Drizzly Trance Sessions Vol.10 (The Best in Vocal and Progressive Club Anthems)\12_DJ_Sequenza_-_Rhythm_of_Love_Original_Mix.mp3
Формат : MPEG Audio
Размер файла : 10,1 Мбайт
Продолжительность : 4 м. 22 с.
Режим общего битрейта : Постоянный
Общий поток : 320 Кбит/сек
Альбом : Drizzly Trance Sessions Vol.10 (The Best in Vocal and Progressive Club Anthems)
Трек : Rhythm of Love - Original Mix
Трек/Положение : 12
Трек/Всего : 33
Исполнитель : DJ Sequenza
Жанр :
Библиотека кодирования : LAME3.99r
Обложка : Yes
Тип обложки : Cover (front)
MIME-тип обложки : image/jpeg
Аудио
Формат : MPEG Audio
Версия формата : Version 1
Профиль формата : Layer 3
Режим : Joint stereo
Расширение режима : MS Stereo
Продолжительность : 4 м. 22 с.
Вид битрейта : Постоянный
Битрейт : 320 Кбит/сек
Каналы : 2 канала
Частота : 44,1 КГц
Метод сжатия : С потерями
Размер потока : 10,0 Мбайт (99%)
Библиотека кодирования : LAME3.99r
Настройки программы : -m j -V 4 -q 3 -lowpass 20.5
Общее
Полное имя : E:\VA-Drizzly Trance Sessions Vol.10 (The Best in Vocal and Progressive Club Anthems)\13_Denga_-_Ear_to_Brain_Riot_303_vs_Observer_Mix.mp3
Формат : MPEG Audio
Размер файла : 14,3 Мбайт
Продолжительность : 6 м. 14 с.
Режим общего битрейта : Постоянный
Общий поток : 320 Кбит/сек
Альбом : Drizzly Trance Sessions Vol.10 (The Best in Vocal and Progressive Club Anthems)
Трек : Ear to Brain - Riot 303 vs Observer Mix
Трек/Положение : 13
Трек/Всего : 33
Исполнитель : Denga
Жанр :
Библиотека кодирования : LAME3.99r
Обложка : Yes
Тип обложки : Cover (front)
MIME-тип обложки : image/jpeg
Аудио
Формат : MPEG Audio
Версия формата : Version 1
Профиль формата : Layer 3
Режим : Joint stereo
Продолжительность : 6 м. 14 с.
Вид битрейта : Постоянный
Битрейт : 320 Кбит/сек
Каналы : 2 канала
Частота : 44,1 КГц
Метод сжатия : С потерями
Размер потока : 14,3 Мбайт (100%)
Библиотека кодирования : LAME3.99r
Настройки программы : -m j -V 4 -q 3 -lowpass 20.5
Общее
Полное имя : E:\VA-Drizzly Trance Sessions Vol.10 (The Best in Vocal and Progressive Club Anthems)\14_Michael_Thomas_-_Back_to_Life_DJ_Sequenza_Remix.mp3
Формат : MPEG Audio
Размер файла : 10,5 Мбайт
Продолжительность : 4 м. 34 с.
Режим общего битрейта : Постоянный
Общий поток : 320 Кбит/сек
Альбом : Drizzly Trance Sessions Vol.10 (The Best in Vocal and Progressive Club Anthems)
Трек : Back to Life - DJ Sequenza Remix
Трек/Положение : 14
Трек/Всего : 33
Исполнитель : Michael Thomas
Жанр :
Библиотека кодирования : LAME3.99r
Обложка : Yes
Тип обложки : Cover (front)
MIME-тип обложки : image/jpeg
Аудио
Формат : MPEG Audio
Версия формата : Version 1
Профиль формата : Layer 3
Режим : Joint stereo
Продолжительность : 4 м. 34 с.
Вид битрейта : Постоянный
Битрейт : 320 Кбит/сек
Каналы : 2 канала
Частота : 44,1 КГц
Метод сжатия : С потерями
Размер потока : 10,5 Мбайт (99%)
Библиотека кодирования : LAME3.99r
Настройки программы : -m j -V 4 -q 3 -lowpass 20.5
Общее
Полное имя : E:\VA-Drizzly Trance Sessions Vol.10 (The Best in Vocal and Progressive Club Anthems)\15_Ryan_Riva_-_This_Could_Be_Love_Axel_Coon_Remix.mp3
Формат : MPEG Audio
Размер файла : 12,3 Мбайт
Продолжительность : 5 м. 20 с.
Режим общего битрейта : Постоянный
Общий поток : 320 Кбит/сек
Альбом : Drizzly Trance Sessions Vol.10 (The Best in Vocal and Progressive Club Anthems)
Трек : This Could Be Love - Axel Coon Remix
Трек/Положение : 15
Трек/Всего : 33
Исполнитель : Ryan Riva
Жанр :
Библиотека кодирования : LAME3.99rН
Обложка : Yes
Тип обложки : Cover (front)
MIME-тип обложки : image/jpeg
Аудио
Формат : MPEG Audio
Версия формата : Version 1
Профиль формата : Layer 3
Режим : Joint stereo
Продолжительность : 5 м. 20 с.
Вид битрейта : Постоянный
Битрейт : 320 Кбит/сек
Каналы : 2 канала
Частота : 44,1 КГц
Метод сжатия : С потерями
Размер потока : 12,2 Мбайт (100%)
Библиотека кодирования : LAME3.99rН
Общее
Полное имя : E:\VA-Drizzly Trance Sessions Vol.10 (The Best in Vocal and Progressive Club Anthems)\16_DJ_Sequenza_-_Follow_Me_Tonight_Axel_Coon_Remix.mp3
Формат : MPEG Audio
Размер файла : 12,9 Мбайт
Продолжительность : 5 м. 37 с.
Режим общего битрейта : Постоянный
Общий поток : 320 Кбит/сек
Альбом : Drizzly Trance Sessions Vol.10 (The Best in Vocal and Progressive Club Anthems)
Трек : Follow Me Tonight - Axel Coon Remix
Трек/Положение : 16
Трек/Всего : 33
Исполнитель : DJ Sequenza
Жанр :
Библиотека кодирования : LAME3.99rН
Обложка : Yes
Тип обложки : Cover (front)
MIME-тип обложки : image/jpeg
Аудио
Формат : MPEG Audio
Версия формата : Version 1
Профиль формата : Layer 3
Режим : Joint stereo
Расширение режима : MS Stereo
Продолжительность : 5 м. 37 с.
Вид битрейта : Постоянный
Битрейт : 320 Кбит/сек
Каналы : 2 канала
Частота : 44,1 КГц
Метод сжатия : С потерями
Размер потока : 12,9 Мбайт (100%)
Библиотека кодирования : LAME3.99rН
Общее
Полное имя : E:\VA-Drizzly Trance Sessions Vol.10 (The Best in Vocal and Progressive Club Anthems)\17_Junk_Project_-_Disciple.mp3
Формат : MPEG Audio
Размер файла : 13,2 Мбайт
Продолжительность : 5 м. 44 с.
Режим общего битрейта : Постоянный
Общий поток : 320 Кбит/сек
Альбом : Drizzly Trance Sessions Vol.10 (The Best in Vocal and Progressive Club Anthems)
Трек : Disciple
Трек/Положение : 17
Трек/Всего : 33
Исполнитель : Junk Project
Жанр :
Библиотека кодирования : LAME3.99r
Обложка : Yes
Тип обложки : Cover (front)
MIME-тип обложки : image/jpeg
Аудио
Формат : MPEG Audio
Версия формата : Version 1
Профиль формата : Layer 3
Режим : Joint stereo
Продолжительность : 5 м. 44 с.
Вид битрейта : Постоянный
Битрейт : 320 Кбит/сек
Каналы : 2 канала
Частота : 44,1 КГц
Метод сжатия : С потерями
Размер потока : 13,1 Мбайт (100%)
Библиотека кодирования : LAME3.99r
Настройки программы : -m j -V 4 -q 3 -lowpass 20.5
Общее
Полное имя : E:\VA-Drizzly Trance Sessions Vol.10 (The Best in Vocal and Progressive Club Anthems)\18_Busted_-_La_Cobra_Negra_Summer_Sins_Mix.mp3
Формат : MPEG Audio
Размер файла : 9,29 Мбайт
Продолжительность : 4 м. 1 с.
Режим общего битрейта : Постоянный
Общий поток : 320 Кбит/сек
Альбом : Drizzly Trance Sessions Vol.10 (The Best in Vocal and Progressive Club Anthems)
Трек : La Cobra Negra - Summer Sins Mix
Трек/Положение : 18
Трек/Всего : 33
Исполнитель : Busted
Жанр :
Библиотека кодирования : LAME3.99r
Обложка : Yes
Тип обложки : Cover (front)
MIME-тип обложки : image/jpeg
Аудио
Формат : MPEG Audio
Версия формата : Version 1
Профиль формата : Layer 3
Режим : Joint stereo
Продолжительность : 4 м. 2 с.
Вид битрейта : Постоянный
Битрейт : 320 Кбит/сек
Каналы : 2 канала
Частота : 44,1 КГц
Метод сжатия : С потерями
Размер потока : 9,23 Мбайт (99%)
Библиотека кодирования : LAME3.99r
Настройки программы : -m j -V 4 -q 3 -lowpass 20.5
Общее
Полное имя : E:\VA-Drizzly Trance Sessions Vol.10 (The Best in Vocal and Progressive Club Anthems)\19_Wavetraxx_-_Nightingale_Edit.mp3
Формат : MPEG Audio
Размер файла : 6,99 Мбайт
Продолжительность : 3 м. 1 с.
Режим общего битрейта : Постоянный
Общий поток : 320 Кбит/сек
Альбом : Drizzly Trance Sessions Vol.10 (The Best in Vocal and Progressive Club Anthems)
Трек : Nightingale - Edit
Трек/Положение : 19
Трек/Всего : 33
Исполнитель : Wavetraxx
Жанр :
Библиотека кодирования : LAME3.99r
Обложка : Yes
Тип обложки : Cover (front)
MIME-тип обложки : image/jpeg
Аудио
Формат : MPEG Audio
Версия формата : Version 1
Профиль формата : Layer 3
Режим : Joint stereo
Продолжительность : 3 м. 1 с.
Вид битрейта : Постоянный
Битрейт : 320 Кбит/сек
Каналы : 2 канала
Частота : 44,1 КГц
Метод сжатия : С потерями
Размер потока : 6,93 Мбайт (99%)
Библиотека кодирования : LAME3.99r
Настройки программы : -m j -V 4 -q 3 -lowpass 20.5
Общее
Полное имя : E:\VA-Drizzly Trance Sessions Vol.10 (The Best in Vocal and Progressive Club Anthems)\20_Patrice_Milan_-_One_Moment_Original_Mix.mp3
Формат : MPEG Audio
Размер файла : 23,2 Мбайт
Продолжительность : 10 м.
Режим общего битрейта : Постоянный
Общий поток : 320 Кбит/сек
Альбом : Drizzly Trance Sessions Vol.10 (The Best in Vocal and Progressive Club Anthems)
Трек : One Moment - Original Mix
Трек/Положение : 20
Трек/Всего : 33
Исполнитель : Patrice Milan
Жанр :
Библиотека кодирования : LAME3.99r
Обложка : Yes
Тип обложки : Cover (front)
MIME-тип обложки : image/jpeg
Аудио
Формат : MPEG Audio
Версия формата : Version 1
Профиль формата : Layer 3
Режим : Joint stereo
Продолжительность : 10 м.
Вид битрейта : Постоянный
Битрейт : 320 Кбит/сек
Каналы : 2 канала
Частота : 44,1 КГц
Метод сжатия : С потерями
Размер потока : 23,2 Мбайт (100%)
Библиотека кодирования : LAME3.99r
Настройки программы : -m j -V 4 -q 3 -lowpass 20.5
Общее
Полное имя : E:\VA-Drizzly Trance Sessions Vol.10 (The Best in Vocal and Progressive Club Anthems)\21_DJ_Sequenza_-_C_U_2nite_Venice_Beach_Club_Mix.mp3
Формат : MPEG Audio
Размер файла : 10,4 Мбайт
Продолжительность : 4 м. 31 с.
Режим общего битрейта : Постоянный
Общий поток : 320 Кбит/сек
Альбом : Drizzly Trance Sessions Vol.10 (The Best in Vocal and Progressive Club Anthems)
Трек : C U 2nite - Venice Beach Club Mix
Трек/Положение : 21
Трек/Всего : 33
Исполнитель : DJ Sequenza
Жанр :
Библиотека кодирования : LAME3.99r
Обложка : Yes
Тип обложки : Cover (front)
MIME-тип обложки : image/jpeg
Аудио
Формат : MPEG Audio
Версия формата : Version 1
Профиль формата : Layer 3
Режим : Joint stereo
Продолжительность : 4 м. 31 с.
Вид битрейта : Постоянный
Битрейт : 320 Кбит/сек
Каналы : 2 канала
Частота : 44,1 КГц
Метод сжатия : С потерями
Размер потока : 10,4 Мбайт (99%)
Библиотека кодирования : LAME3.99r
Настройки программы : -m j -V 4 -q 3 -lowpass 20.5
Общее
Полное имя : E:\VA-Drizzly Trance Sessions Vol.10 (The Best in Vocal and Progressive Club Anthems)\22_Attention_Seekers_-_Heartbeat_Extended_Mix.mp3
Формат : MPEG Audio
Размер файла : 12,3 Мбайт
Продолжительность : 5 м. 19 с.
Режим общего битрейта : Постоянный
Общий поток : 320 Кбит/сек
Альбом : Drizzly Trance Sessions Vol.10 (The Best in Vocal and Progressive Club Anthems)
Трек : Heartbeat - Extended Mix
Трек/Положение : 22
Трек/Всего : 33
Исполнитель : Attention Seekers
Жанр :
Библиотека кодирования : LAME3.99r
Обложка : Yes
Тип обложки : Cover (front)
MIME-тип обложки : image/jpeg
Аудио
Формат : MPEG Audio
Версия формата : Version 1
Профиль формата : Layer 3
Режим : Joint stereo
Продолжительность : 5 м. 19 с.
Вид битрейта : Постоянный
Битрейт : 320 Кбит/сек
Каналы : 2 канала
Частота : 44,1 КГц
Метод сжатия : С потерями
Размер потока : 12,2 Мбайт (100%)
Библиотека кодирования : LAME3.99r
Настройки программы : -m j -V 4 -q 3 -lowpass 20.5
Общее
Полное имя : E:\VA-Drizzly Trance Sessions Vol.10 (The Best in Vocal and Progressive Club Anthems)\23_Ari_Kyle_-_Yasmine_Audioscape_Remix.mp3
Формат : MPEG Audio
Размер файла : 16,6 Мбайт
Продолжительность : 7 м. 14 с.
Режим общего битрейта : Постоянный
Общий поток : 320 Кбит/сек
Альбом : Drizzly Trance Sessions Vol.10 (The Best in Vocal and Progressive Club Anthems)
Трек : Yasmine - Audioscape Remix
Трек/Положение : 23
Трек/Всего : 33
Исполнитель : Ari Kyle
Жанр :
Библиотека кодирования : LAME3.99r
Обложка : Yes
Тип обложки : Cover (front)
MIME-тип обложки : image/jpeg
Аудио
Формат : MPEG Audio
Версия формата : Version 1
Профиль формата : Layer 3
Режим : Joint stereo
Продолжительность : 7 м. 14 с.
Вид битрейта : Постоянный
Битрейт : 320 Кбит/сек
Каналы : 2 канала
Частота : 44,1 КГц
Метод сжатия : С потерями
Размер потока : 16,6 Мбайт (100%)
Библиотека кодирования : LAME3.99r
Настройки программы : -m j -V 4 -q 3 -lowpass 20.5
Общее
Полное имя : E:\VA-Drizzly Trance Sessions Vol.10 (The Best in Vocal and Progressive Club Anthems)\24_Denga_-_The_Prophecy_Volition_Mix.mp3
Формат : MPEG Audio
Размер файла : 16,5 Мбайт
Продолжительность : 7 м. 9 с.
Режим общего битрейта : Постоянный
Общий поток : 320 Кбит/сек
Альбом : Drizzly Trance Sessions Vol.10 (The Best in Vocal and Progressive Club Anthems)
Трек : The Prophecy - Volition Mix
Трек/Положение : 24
Трек/Всего : 33
Исполнитель : Denga
Жанр :
Библиотека кодирования : LAME3.99r
Обложка : Yes
Тип обложки : Cover (front)
MIME-тип обложки : image/jpeg
Аудио
Формат : MPEG Audio
Версия формата : Version 1
Профиль формата : Layer 3
Режим : Joint stereo
Продолжительность : 7 м. 10 с.
Вид битрейта : Постоянный
Битрейт : 320 Кбит/сек
Каналы : 2 канала
Частота : 44,1 КГц
Метод сжатия : С потерями
Размер потока : 16,4 Мбайт (100%)
Библиотека кодирования : LAME3.99r
Настройки программы : -m j -V 4 -q 3 -lowpass 20.5
Общее
Полное имя : E:\VA-Drizzly Trance Sessions Vol.10 (The Best in Vocal and Progressive Club Anthems)\25_Junk_Project_-_Composure_Solar_Stone_Remix.mp3
Формат : MPEG Audio
Размер файла : 19,8 Мбайт
Продолжительность : 8 м. 36 с.
Режим общего битрейта : Постоянный
Общий поток : 320 Кбит/сек
Альбом : Drizzly Trance Sessions Vol.10 (The Best in Vocal and Progressive Club Anthems)
Трек : Composure - Solar Stone Remix
Трек/Положение : 25
Трек/Всего : 33
Исполнитель : Junk Project
Жанр :
Библиотека кодирования : LAME3.99r
Обложка : Yes
Тип обложки : Cover (front)
MIME-тип обложки : image/jpeg
Аудио
Формат : MPEG Audio
Версия формата : Version 1
Профиль формата : Layer 3
Режим : Joint stereo
Продолжительность : 8 м. 37 с.
Вид битрейта : Постоянный
Битрейт : 320 Кбит/сек
Каналы : 2 канала
Частота : 44,1 КГц
Метод сжатия : С потерями
Размер потока : 19,7 Мбайт (100%)
Библиотека кодирования : LAME3.99r
Настройки программы : -m j -V 4 -q 3 -lowpass 20.5
Общее
Полное имя : E:\VA-Drizzly Trance Sessions Vol.10 (The Best in Vocal and Progressive Club Anthems)\26_Rainbow_Warrior_-_La_Musique_Vocal_Mix.mp3
Формат : MPEG Audio
Размер файла : 17,7 Мбайт
Продолжительность : 7 м. 43 с.
Режим общего битрейта : Постоянный
Общий поток : 320 Кбит/сек
Альбом : Drizzly Trance Sessions Vol.10 (The Best in Vocal and Progressive Club Anthems)
Трек : La Musique - Vocal Mix
Трек/Положение : 26
Трек/Всего : 33
Исполнитель : Rainbow Warrior
Жанр :
Библиотека кодирования : LAME3.99r
Обложка : Yes
Тип обложки : Cover (front)
MIME-тип обложки : image/jpeg
Аудио
Формат : MPEG Audio
Версия формата : Version 1
Профиль формата : Layer 3
Режим : Joint stereo
Продолжительность : 7 м. 44 с.
Вид битрейта : Постоянный
Битрейт : 320 Кбит/сек
Каналы : 2 канала
Частота : 44,1 КГц
Метод сжатия : С потерями
Размер потока : 17,7 Мбайт (100%)
Библиотека кодирования : LAME3.99r
Настройки программы : -m j -V 4 -q 3 -lowpass 20.5
Общее
Полное имя : E:\VA-Drizzly Trance Sessions Vol.10 (The Best in Vocal and Progressive Club Anthems)\27_Wavetraxx_-_Armageddon_Wavetraxx_Mix_Edit.mp3
Формат : MPEG Audio
Размер файла : 8,44 Мбайт
Продолжительность : 3 м. 39 с.
Режим общего битрейта : Постоянный
Общий поток : 320 Кбит/сек
Альбом : Drizzly Trance Sessions Vol.10 (The Best in Vocal and Progressive Club Anthems)
Трек : Armageddon - Wavetraxx Mix Edit
Трек/Положение : 27
Трек/Всего : 33
Исполнитель : Wavetraxx
Жанр :
Библиотека кодирования : LAME3.99r
Обложка : Yes
Тип обложки : Cover (front)
MIME-тип обложки : image/jpeg
Аудио
Формат : MPEG Audio
Версия формата : Version 1
Профиль формата : Layer 3
Режим : Joint stereo
Продолжительность : 3 м. 39 с.
Вид битрейта : Постоянный
Битрейт : 320 Кбит/сек
Каналы : 2 канала
Частота : 44,1 КГц
Метод сжатия : С потерями
Размер потока : 8,38 Мбайт (99%)
Библиотека кодирования : LAME3.99r
Настройки программы : -m j -V 4 -q 3 -lowpass 20.5
Общее
Полное имя : E:\VA-Drizzly Trance Sessions Vol.10 (The Best in Vocal and Progressive Club Anthems)\28_Mike_NRG_-_Lost_in_Dreams_Alpha2_Remix.mp3
Формат : MPEG Audio
Размер файла : 13,3 Мбайт
Продолжительность : 5 м. 47 с.
Режим общего битрейта : Постоянный
Общий поток : 320 Кбит/сек
Альбом : Drizzly Trance Sessions Vol.10 (The Best in Vocal and Progressive Club Anthems)
Трек : Lost in Dreams - Alpha2 Remix
Трек/Положение : 28
Трек/Всего : 33
Исполнитель : Mike NRG
Жанр :
Библиотека кодирования : LAME3.99rН
Обложка : Yes
Тип обложки : Cover (front)
MIME-тип обложки : image/jpeg
Аудио
Формат : MPEG Audio
Версия формата : Version 1
Профиль формата : Layer 3
Режим : Joint stereo
Продолжительность : 5 м. 47 с.
Вид битрейта : Постоянный
Битрейт : 320 Кбит/сек
Каналы : 2 канала
Частота : 44,1 КГц
Метод сжатия : С потерями
Размер потока : 13,3 Мбайт (100%)
Библиотека кодирования : LAME3.99rН
Общее
Полное имя : E:\VA-Drizzly Trance Sessions Vol.10 (The Best in Vocal and Progressive Club Anthems)\29_Sequenza_-_Feels_Like_Love_Axel_Coon_Remix_Radio_Edit.mp3
Формат : MPEG Audio
Размер файла : 8,53 Мбайт
Продолжительность : 3 м. 42 с.
Режим общего битрейта : Постоянный
Общий поток : 320 Кбит/сек
Альбом : Drizzly Trance Sessions Vol.10 (The Best in Vocal and Progressive Club Anthems)
Трек : Feels Like Love - Axel Coon Remix Radio Edit
Трек/Положение : 29
Трек/Всего : 33
Исполнитель : Sequenza
Жанр :
Библиотека кодирования : LAME3.99rН
Обложка : Yes
Тип обложки : Cover (front)
MIME-тип обложки : image/jpeg
Аудио
Формат : MPEG Audio
Версия формата : Version 1
Профиль формата : Layer 3
Режим : Joint stereo
Расширение режима : MS Stereo
Продолжительность : 3 м. 42 с.
Вид битрейта : Постоянный
Битрейт : 320 Кбит/сек
Каналы : 2 канала
Частота : 44,1 КГц
Метод сжатия : С потерями
Размер потока : 8,47 Мбайт (99%)
Библиотека кодирования : LAME3.99rН
Общее
Полное имя : E:\VA-Drizzly Trance Sessions Vol.10 (The Best in Vocal and Progressive Club Anthems)\30_Peter_Wibe_-_Only_Time_Will_Tell_Vocal_Mix.mp3
Формат : MPEG Audio
Размер файла : 18,7 Мбайт
Продолжительность : 8 м. 7 с.
Режим общего битрейта : Постоянный
Общий поток : 320 Кбит/сек
Альбом : Drizzly Trance Sessions Vol.10 (The Best in Vocal and Progressive Club Anthems)
Трек : Only Time Will Tell - Vocal Mix
Трек/Положение : 30
Трек/Всего : 33
Исполнитель : Peter Wibe
Жанр :
Библиотека кодирования : LAME3.99r
Обложка : Yes
Тип обложки : Cover (front)
MIME-тип обложки : image/jpeg
Аудио
Формат : MPEG Audio
Версия формата : Version 1
Профиль формата : Layer 3
Режим : Joint stereo
Продолжительность : 8 м. 8 с.
Вид битрейта : Постоянный
Битрейт : 320 Кбит/сек
Каналы : 2 канала
Частота : 44,1 КГц
Метод сжатия : С потерями
Размер потока : 18,6 Мбайт (100%)
Библиотека кодирования : LAME3.99r
Настройки программы : -m j -V 4 -q 3 -lowpass 20.5
Общее
Полное имя : E:\VA-Drizzly Trance Sessions Vol.10 (The Best in Vocal and Progressive Club Anthems)\31_Denga_-_First_Union_Riot_303_vs_Observer_Mix.mp3
Формат : MPEG Audio
Размер файла : 15,7 Мбайт
Продолжительность : 6 м. 49 с.
Режим общего битрейта : Постоянный
Общий поток : 320 Кбит/сек
Альбом : Drizzly Trance Sessions Vol.10 (The Best in Vocal and Progressive Club Anthems)
Трек : First Union - Riot 303 vs Observer Mix
Трек/Положение : 31
Трек/Всего : 33
Исполнитель : Denga
Жанр :
Библиотека кодирования : LAME3.99r
Обложка : Yes
Тип обложки : Cover (front)
MIME-тип обложки : image/jpeg
Аудио
Формат : MPEG Audio
Версия формата : Version 1
Профиль формата : Layer 3
Режим : Joint stereo
Продолжительность : 6 м. 49 с.
Вид битрейта : Постоянный
Битрейт : 320 Кбит/сек
Каналы : 2 канала
Частота : 44,1 КГц
Метод сжатия : С потерями
Размер потока : 15,6 Мбайт (100%)
Библиотека кодирования : LAME3.99r
Настройки программы : -m j -V 4 -q 3 -lowpass 20.5
Общее
Полное имя : E:\VA-Drizzly Trance Sessions Vol.10 (The Best in Vocal and Progressive Club Anthems)\32_Attention_Seekers_-_Gypsy_Rock_Akato_Remix.mp3
Формат : MPEG Audio
Размер файла : 13,5 Мбайт
Продолжительность : 5 м. 52 с.
Режим общего битрейта : Постоянный
Общий поток : 320 Кбит/сек
Альбом : Drizzly Trance Sessions Vol.10 (The Best in Vocal and Progressive Club Anthems)
Трек : Gypsy Rock - Akato Remix
Трек/Положение : 32
Трек/Всего : 33
Исполнитель : Attention Seekers
Жанр :
Библиотека кодирования : LAME3.99r
Обложка : Yes
Тип обложки : Cover (front)
MIME-тип обложки : image/jpeg
Аудио
Формат : MPEG Audio
Версия формата : Version 1
Профиль формата : Layer 3
Режим : Joint stereo
Расширение режима : MS Stereo
Продолжительность : 5 м. 52 с.
Вид битрейта : Постоянный
Битрейт : 320 Кбит/сек
Каналы : 2 канала
Частота : 44,1 КГц
Метод сжатия : С потерями
Размер потока : 13,4 Мбайт (100%)
Библиотека кодирования : LAME3.99r
Настройки программы : -m j -V 4 -q 3 -lowpass 20.5
Общее
Полное имя : E:\VA-Drizzly Trance Sessions Vol.10 (The Best in Vocal and Progressive Club Anthems)\33_Patrice_Milan_-_Eternal_Spirit_(Get_Away_Mix)_Original_Mix.mp3
Формат : MPEG Audio
Размер файла : 19,8 Мбайт
Продолжительность : 8 м. 36 с.
Режим общего битрейта : Постоянный
Общий поток : 320 Кбит/сек
Альбом : Drizzly Trance Sessions Vol.10 (The Best in Vocal and Progressive Club Anthems)
Трек : Eternal Spirit (Get Away Mix) - Original Mix
Трек/Положение : 33
Трек/Всего : 33
Исполнитель : Patrice Milan
Жанр :
Библиотека кодирования : LAME3.99r
Обложка : Yes
Тип обложки : Cover (front)
MIME-тип обложки : image/jpeg
Аудио
Формат : MPEG Audio
Версия формата : Version 1
Профиль формата : Layer 3
Режим : Joint stereo
Продолжительность : 8 м. 36 с.
Вид битрейта : Постоянный
Битрейт : 320 Кбит/сек
Каналы : 2 канала
Частота : 44,1 КГц
Метод сжатия : С потерями
Размер потока : 19,7 Мбайт (100%)
Библиотека кодирования : LAME3.99r
Настройки программы : -m j -V 4 -q 3 -lowpass 20.5
Время раздачи: До пяти сидов.

[Цитировать]

Я думаю описание МИ вообще не нужно, оно все оформление портит своими ошибками многочисленными!

[Цитировать]



Показать сообщения:    

Текущее время: 11-Дек 05:18

Часовой пояс: UTC + 3


Вы не можете начинать темы
Вы не можете отвечать на сообщения
Вы не можете редактировать свои сообщения
Вы не можете удалять свои сообщения
Вы не можете голосовать в опросах
Вы не можете прикреплять файлы к сообщениям
Вы не можете скачивать файлы

!ВНИМАНИЕ!
Сайт не предоставляет электронные версии произведений, а занимается лишь коллекционированием и каталогизацией ссылок, присылаемых и публикуемых на форуме нашими читателями. Если вы являетесь правообладателем какого-либо представленного материала и не желаете, чтобы ссылка на него находилась в нашем каталоге, свяжитесь с нами, и мы незамедлительно удалим ее. Файлы для обмена на трекере предоставлены пользователями сайта, и администрация не несет ответственности за их содержание. Просьба не заливать файлы, защищенные авторскими правами, а также файлы нелегального содержания!