[ Сегодня идет свободное скачивание без начисления Download ]


Статистика раздачи
Нет
 
   
 
Top  
 
 
[sh]Белые волки[/sh]- -[sh]Русское название:[/sh] Белые волки
[sh]Производство:[/sh] Россия, Intra Communications
[sh]Год выпуска:[/sh] 2012
[sh]Жанр:[/sh] Боевик, Криминал
[sh]Перевод:[/sh] Не требуется (Русский)-[sh]Режиссер:[/sh] Игорь Забара, Вячеслав Лавров
[sh]Актеры:[/sh] Андрей Аверьянов, Денис Бобышев, Татьяна Калих, Максим Житник, Артем Бородич, Заза Чантурия, Виктор Бабак, Сергей Калантай-[sh]Описание фильма:[/sh]
Офицеры группы спецназа «Белые волки» стоят на страже спокойствия и порядка в государстве. Они борются со злом во всех его проявлениях: их то направляют на захват группы наркоторговцев, то на обезвреживание спившегося и полубезумного отставного майора, ветерана войны в Чечне, убившего жену, соседку и взявшего в заложники двух маленьких девочек. «Белые волки» охотятся за беглыми преступниками и обезвреживают банды налетчиков и грабителей, обеспечивают безопасность важных свидетелей и освобождают заложников…
В общем самые опасные, сложные и непредсказуемые задания – это их работа, их хлеб и их жизнь.- -[sh]Дата российской премьеры:[/sh] 3 февраля 2013
[sh]Продолжительность:[/sh] 10 х ~ 00:47:37 серия
[sh]Качество видео:[/sh] IPTVRip-[sh]Видеокодек:[/sh] Xvid
[sh]Битрейт видео:[/sh] ~1653 Kbit/s
[sh]Размер кадра:[/sh] 704 х 400
[sh]Аудиокодек:[/sh] MP3, 2.0
[sh]Битрейт аудио:[/sh] 128 Kbit/s
-

MediaInfo

Общее
Полное имя : D:\Торренты\ФИЛЬМЫ торента\Белые волки.2012.SATRip\Белые волки.01.avi
Формат : AVI
Формат/Информация : Audio Video Interleave
Размер файла : 610 Мбайт
Продолжительность : 47 м.
Общий поток : 1791 Кбит/сек
Программа кодирования : VirtualDubMod 1.5.10.2 (build 2540/release)
Библиотека кодирования : VirtualDub build 32842/release
Видео
Идентификатор : 0
Формат : MPEG-4 Visual
Профиль формата : Advanced [email protected]
Параметр BVOP формата : 2
Параметр QPel формата : Нет
Параметр GMC формата : Без точки перехода
Параметр матрицы формата : Default (H.263)
Режим смешивания : Сжатый битовый поток
Идентификатор кодека : XVID
Идентификатор кодека/Подсказка : XviD
Продолжительность : 47 м.
Битрейт : 1653 Кбит/сек
Ширина : 704 пикс.
Высота : 400 пикс.
Соотношение сторон : 16:9
Частота кадров : 25,000 кадр/сек
Цветовое пространство : YUV
Подвыборка цветности : 4:2:0
Битовая глубина : 8 бит
Тип развёртки : Прогрессивная
Метод сжатия : С потерями
Бит/(Пиксели*Кадры) : 0.235
Размер потока : 563 Мбайт (92%)
Библиотека кодирования : XviD 64
Аудио
Идентификатор : 1
Формат : MPEG Audio
Версия формата : Version 1
Профиль формата : Layer 3
Режим : Joint stereo
Расширение режима : MS Stereo
Идентификатор кодека : 55
Идентификатор кодека/Подсказка : MP3
Продолжительность : 47 м.
Вид битрейта : Постоянный
Битрейт : 128 Кбит/сек
Каналы : 2 канала
Частота : 48,0 КГц
Метод сжатия : С потерями
Размер потока : 43,6 Мбайт (7%)
Выравнивание : Соединение по промежуткам
Продолжительность промежутка : 40 мс. (1,00 видеокадр)
Время предзагрузки промежутка : 504 ms
Библиотека кодирования : LAME3.90.3ЄЄЄЄЄЄЄЄЄЄ
Скриншоты:
Время раздачи: 24/7 по возможности

[Цитировать]



Показать сообщения:    

Текущее время: 05-Дек 23:43

Часовой пояс: UTC + 3


Вы не можете начинать темы
Вы не можете отвечать на сообщения
Вы не можете редактировать свои сообщения
Вы не можете удалять свои сообщения
Вы не можете голосовать в опросах
Вы не можете прикреплять файлы к сообщениям
Вы не можете скачивать файлы

!ВНИМАНИЕ!
Сайт не предоставляет электронные версии произведений, а занимается лишь коллекционированием и каталогизацией ссылок, присылаемых и публикуемых на форуме нашими читателями. Если вы являетесь правообладателем какого-либо представленного материала и не желаете, чтобы ссылка на него находилась в нашем каталоге, свяжитесь с нами, и мы незамедлительно удалим ее. Файлы для обмена на трекере предоставлены пользователями сайта, и администрация не несет ответственности за их содержание. Просьба не заливать файлы, защищенные авторскими правами, а также файлы нелегального содержания!