[ Сегодня идет свободное скачивание без начисления Download ]


Статистика раздачи
Нет
 
   
 
Top  
 
 
-Люди в черном 3 / Men in Black 3 (2012) BDRip
«Вперёд в прошлое»
- Русское название: Люди в черном 3
Оригинальное название: Men in Black 3
Год выпуска: 2012
Страна: США
Производство: Amblin Entertainment, Hemisphere Media Capital, Imagenation Abu Dhabi FZ, Media Magik Entertainment, Parkes/MacDonald Productions
Жанр: Фантастика, Боевик, Комедия, Приключения
Перевод: Дублированный [лицензия]
Субтитры: Вшитые отключаемые
Язык субтитров: Русский, Английский
Режиссер: Барри Зонненфельд
Актеры: Уилл Смит, Джош Бролин, Томми Ли Джонс, Джемейн Клемент, Эмма Томпсон, Майкл Стулбарг, Майк Колтер, Николь Шерзингер, Майкл Чернус, Элис Ив
Описание фильма:
Агент Джей узнает, что никакого защитного галактического щита, способного отразить иноземный удар, не существует. Агент Кей не построил его, потому что был убит в 1969 году. Агент Джей должен совершить путешествие во времени, чтобы спасти Землю и жизнь напарника.
Продолжительность: 01:45:50
Качество видео: BDRip
Видеокодек: MPEG-4 AVC/H.264
Битрейт видео: ~13,9 Мбит/сек
Размер кадра: 1920x1040
Аудио #1: Русский (Dolby AC3, 6 ch) 640 Кбит/сек
Аудио #2: Украинский (Dolby AC3, 6 ch) 640 Кбит/сек
Аудио #3: Английский (DTS, 6 ch) 1510 Кбит/сек

Дата мировой премьеры: 14 мая 2012
Дата российской премьеры: 24 мая 2012, «WDSSPR» 3D
Дата выхода DVD релиза: 18 сентября 2012, «Columbia/Sony»
Дата выхода Blu-Ray релиза: 18 сентября 2012, «Columbia/Sony»

MediaInfo:

Общее
Уникальный идентификатор         : 217085302354895421350042253727854735334 (0xA3511BC203859DA796082DC8CE0FAFE6)
Полное имя                       : D:\uTorrent\men.in.black.3.2012.1080p.bluray.3D.mkv
Формат                           : Matroska
Версия формата                   : Version 2
Размер файла                     : 12,6 Гбайт
Продолжительность                : 1 ч. 45 м.
Общий поток                      : 17,0 Мбит/сек
Название фильма                  : ПаZиtиFFк@
Дата кодирования                 : UTC 2012-09-08 15:20:38
Программа кодирования            : mkvmerge v5.8.0 ('No Sleep / Pillow') built on Sep  2 2012 15:37:04
Библиотека кодирования           : libebml v1.2.3 + libmatroska v1.3.0
Видео
Идентификатор                    : 1
Формат                           : AVC
Формат/Информация                : Advanced Video Codec
Профиль формата                  : [url=mailto:High@L4.1]High@L4.1[/url]
Параметр CABAC формата           : Да
Параметр ReFrames формата        : 2 кадра
Идентификатор кодека             : V_MPEG4/ISO/AVC
Продолжительность                : 1 ч. 45 м.
Битрейт                          : 13,9 Мбит/сек
Ширина                           : 1920 пикселей
Высота                           : 1040 пикселей
Соотношение сторон               : 16:9
Частота кадров                   : 23,976 кадра/сек
Цветовое пространство            : YUV
Субдискретизация насыщенности    : 4:2:0
Битовая глубина                  : 8 бит
Тип развёртки                    : Прогрессивная
Бит/(Пиксели*Кадры)              : 0.290
Размер потока                    : 10,2 Гбайт (82%)
Заголовок                        : NNM-CLUB.RU
Библиотека кодирования           : x264 core
Язык                             : English
Default                          : Да
Forced                           : Нет
Основные цвета                   : BT.709-5, BT.1361, IEC 61966-2-4, SMPTE RP177
Характеристики трансфера         : BT.709-5, BT.1361
Коэффициенты матрицы             : BT.709-5, BT.1361, IEC 61966-2-4 709, SMPTE RP177
Аудио #1
Идентификатор                    : 2
Формат                           : AC-3
Формат/Информация                : Audio Coding 3
Расширение режима                : CM (complete main)
Идентификатор кодека             : A_AC3
Продолжительность                : 1 ч. 45 м.
Вид битрейта                     : Постоянный
Битрейт                          : 640 Кбит/сек
Каналы                           : 6 каналов
Расположение каналов             : Front: L C R, Side: L R, LFE
Частота                          : 48,0 КГц
Битовая глубина                  : 16 бит
Метод сжатия                     : С потерями
Размер потока                    : 484 Мбайт (4%)
Заголовок                        : DUB
Язык                             : Russian
Default                          : Да
Forced                           : Нет
Аудио #2
Идентификатор                    : 3
Формат                           : AC-3
Формат/Информация                : Audio Coding 3
Расширение режима                : CM (complete main)
Идентификатор кодека             : A_AC3
Продолжительность                : 1 ч. 45 м.
Вид битрейта                     : Постоянный
Битрейт                          : 640 Кбит/сек
Каналы                           : 6 каналов
Расположение каналов             : Front: L C R, Side: L R, LFE
Частота                          : 48,0 КГц
Битовая глубина                  : 16 бит
Метод сжатия                     : С потерями
Размер потока                    : 484 Мбайт (4%)
Заголовок                        : DUB
Язык                             : Ukrainian
Default                          : Нет
Forced                           : Нет
Аудио #3
Идентификатор                    : 4
Формат                           : DTS
Формат/Информация                : Digital Theater Systems
Идентификатор кодека             : A_DTS
Продолжительность                : 1 ч. 45 м.
Вид битрейта                     : Постоянный
Битрейт                          : 1510 Кбит/сек
Каналы                           : 6 каналов
Расположение каналов             : Front: L C R, Side: L R, LFE
Частота                          : 48,0 КГц
Битовая глубина                  : 16 бит
Метод сжатия                     : С потерями
Размер потока                    : 1,12 Гбайт (9%)
Язык                             : English
Default                          : Нет
Forced                           : Нет
Текст #1
Идентификатор                    : 5
Формат                           : UTF-8
Идентификатор кодека             : S_TEXT/UTF8
Идентификатор кодека/Информация  : UTF-8 Plain Text
Язык                             : Russian
Default                          : Нет
Forced                           : Нет
Текст #2
Идентификатор                    : 6
Формат                           : UTF-8
Идентификатор кодека             : S_TEXT/UTF8
Идентификатор кодека/Информация  : UTF-8 Plain Text
Язык                             : English
Default                          : Нет
Forced                           : Нет
Меню
00:00:00.000                     : en:(01)00:00:00:000
00:06:09.577                     : en:(02)00:06:09:577
00:11:27.478                     : en:(03)00:11:27:478
00:16:58.809                     : en:(04)00:16:58:809
00:22:36.229                     : en:(05)00:22:36:229
00:31:24.632                     : en:(06)00:31:24:632
00:37:36.420                     : en:(07)00:37:36:420
00:42:43.018                     : en:(08)00:42:43:018
00:48:55.849                     : en:(09)00:48:55:849
00:53:58.234                     : en:(10)00:53:58:234
00:59:27.772                     : en:(11)00:59:27:772
01:05:52.782                     : en:(12)01:05:52:782
01:11:56.311                     : en:(13)01:11:56:311
01:19:50.619                     : en:(14)01:19:50:619
01:27:57.063                     : en:(15)01:27:57:063
01:35:30.683                     : en:(16)01:35:30:683
Скриншоты:



Время раздачи: 16.30-23.00 до 5 скачавших

[Цитировать]



Показать сообщения:    

Текущее время: 07-Дек 19:25

Часовой пояс: UTC + 3


Вы не можете начинать темы
Вы не можете отвечать на сообщения
Вы не можете редактировать свои сообщения
Вы не можете удалять свои сообщения
Вы не можете голосовать в опросах
Вы не можете прикреплять файлы к сообщениям
Вы не можете скачивать файлы

!ВНИМАНИЕ!
Сайт не предоставляет электронные версии произведений, а занимается лишь коллекционированием и каталогизацией ссылок, присылаемых и публикуемых на форуме нашими читателями. Если вы являетесь правообладателем какого-либо представленного материала и не желаете, чтобы ссылка на него находилась в нашем каталоге, свяжитесь с нами, и мы незамедлительно удалим ее. Файлы для обмена на трекере предоставлены пользователями сайта, и администрация не несет ответственности за их содержание. Просьба не заливать файлы, защищенные авторскими правами, а также файлы нелегального содержания!