[ Сегодня идет свободное скачивание без начисления Download ]


Статистика раздачи
Нет
 
   
 
Top  
 
 
-Мстители / The Avengers (2012) BDRip- Русское название: Мстители
Оригинальное название: The Avengers
Год выпуска: 2012
Производство: США, Marvel Enterprises / Marvel Studios Inc.
Жанр: Фантастика, Боевик, Триллер
Перевод: Дублированный
Субтитры: Вшитые отключаемые
Язык субтитров: Русский (форсированные, полные), Украинский (форсированные, полные), Английский (форсированные, полные, SDH)
Режиссер: Джосс Уидон
Актеры: Роберт Дауни мл., Крис Эванс, Марк Руффало, Крис Хемсворт, Скарлетт Йоханссон, Джереми Реннер, Том Хиддлстон, Сэмюэл Л. Джексон, Кларк Грегг, Коби Смолдерс
Описание фильма:
Локи, сводный брат Тора, возвращается, и в этот раз он не один. Земля на грани порабощения, и только лучшие из лучших могут спасти человечество. Ник Фьюри, глава международной организации Щ. И. Т., собирает выдающихся поборников справедливости и добра, чтобы отразить атаку. Под предводительством Капитана Америки Железный Человек, Тор, Невероятный Халк, Соколиный глаз и Чёрная Вдова вступают в войну с захватчиком.

Продолжительность: 02:22:53
Качество видео: BDRip-Видеокодек: MPEG-4 AVC/H.264
Битрейт видео: ~16497 kbps
Размер кадра: 1920 х 1080
Аудиокодек: AC3 5.1 / DTS 5.1
Аудио 1: Русский, AC3 5.1, 640 kbps, 48 kHz
Аудио 2: Украинский, AC3 5.1, 640 kbps, 48 kHz
Аудио 3: Английский, DTS 5.1, 1510 kbps, 48 kHz-Сэмпл: Скачать-Дата мировой премьеры: 25 апреля 2012
Дата российской премьеры: 3 мая 2012
Дата выхода DVD релиза: 28 августа 2012, «Уолт Дисней Компани СНГ»

BV

-

MediaInfo:

Общее
Уникальный идентификатор : 230964888194460236182117314204055768789 (0xADC2382C67D72B13BC8D4682FC720ED5)
Полное имя : D:\Films\The.Avengers.3D.2012.1080p.BDRip.Half.OU.mkv
Формат : Matroska
Версия формата : Version 2
Размер файла : 19,3 Гбайт
Продолжительность : 2 ч. 22 м.
Общий поток : 19,3 Мбит/сек
Дата кодирования : UTC 2012-08-28 08:09:24
Программа кодирования : mkvmerge v5.2.0 ('I can't explain') built on Dec 18 2011 18:12:03
Библиотека кодирования : libebml v1.2.3 + libmatroska v1.3.0
Видео
Идентификатор : 1
Формат : AVC
Формат/Информация : Advanced Video Codec
Профиль формата : [email protected]
Параметр CABAC формата : Да
Параметр ReFrames формата : 4 кадра
Идентификатор кодека : V_MPEG4/ISO/AVC
Продолжительность : 2 ч. 22 м.
Битрейт : 16,5 Мбит/сек
Ширина : 1920 пикселей
Высота : 1080 пикселей
Соотношение сторон : 16:9
Частота кадров : 23,976 кадра/сек
Цветовое пространство : YUV
Субдискретизация насыщенности : 4:2:0
Битовая глубина : 8 бит
Тип развёртки : Прогрессивная
Бит/(Пиксели*Кадры) : 0.332
Размер потока : 16,1 Гбайт (84%)
Библиотека кодирования : x264 core 124 r2197 69a0443
Настройки программы : cabac=1 / ref=4 / deblock=1:-2:-2 / analyse=0x3:0x113 / me=esa / subme=10 / psy=1 / psy_rd=0.90:0.00 / mixed_ref=1 / me_range=32 / chroma_me=1 / trellis=2 / 8x8dct=1 / cqm=0 / deadzone=21,11 / fast_pskip=0 / chroma_qp_offset=-2 / threads=12 / sliced_threads=0 / nr=0 / decimate=0 / interlaced=0 / bluray_compat=0 / constrained_intra=0 / bframes=7 / b_pyramid=2 / b_adapt=2 / b_bias=0 / direct=3 / weightb=1 / open_gop=0 / weightp=2 / keyint=250 / keyint_min=23 / scenecut=40 / intra_refresh=0 / rc_lookahead=120 / rc=2pass / mbtree=1 / bitrate=16500 / ratetol=1.0 / qcomp=0.70 / qpmin=0 / qpmax=69 / qpstep=4 / cplxblur=20.0 / qblur=0.5 / ip_ratio=1.40 / aq=2:0.70
Язык : English
Default : Да
Forced : Нет
Аудио #1
Идентификатор : 2
Формат : AC-3
Формат/Информация : Audio Coding 3
Расширение режима : CM (complete main)
Параметр Endianness формата : Big
Идентификатор кодека : A_AC3
Продолжительность : 2 ч. 22 м.
Вид битрейта : Постоянный
Битрейт : 640 Кбит/сек
Каналы : 6 каналов
Расположение каналов : Front: L C R, Side: L R, LFE
Частота : 48,0 КГц
Битовая глубина : 16 бит
Метод сжатия : С потерями
Размер потока : 654 Мбайт (3%)
Заголовок : DUB
Язык : Russian
Default : Да
Forced : Нет
Аудио #2
Идентификатор : 3
Формат : AC-3
Формат/Информация : Audio Coding 3
Расширение режима : CM (complete main)
Параметр Endianness формата : Big
Идентификатор кодека : A_AC3
Продолжительность : 2 ч. 22 м.
Вид битрейта : Постоянный
Битрейт : 640 Кбит/сек
Каналы : 6 каналов
Расположение каналов : Front: L C R, Side: L R, LFE
Частота : 48,0 КГц
Битовая глубина : 16 бит
Метод сжатия : С потерями
Размер потока : 654 Мбайт (3%)
Заголовок : DUB
Язык : Ukrainian
Default : Нет
Forced : Нет
Аудио #3
Идентификатор : 4
Формат : DTS
Формат/Информация : Digital Theater Systems
Идентификатор кодека : A_DTS
Продолжительность : 2 ч. 22 м.
Вид битрейта : Постоянный
Битрейт : 1510 Кбит/сек
Каналы : 6 каналов
Расположение каналов : Front: L C R, Side: L R, LFE
Частота : 48,0 КГц
Битовая глубина : 24 бит
Метод сжатия : С потерями
Размер потока : 1,51 Гбайт (8%)
Язык : English
Default : Нет
Forced : Нет
Текст #1
Идентификатор : 5
Формат : UTF-8
Идентификатор кодека : S_TEXT/UTF8
Идентификатор кодека/Информация : UTF-8 Plain Text
Заголовок : Forced
Язык : Russian
Default : Да
Forced : Нет
Текст #2
Идентификатор : 6
Формат : UTF-8
Идентификатор кодека : S_TEXT/UTF8
Идентификатор кодека/Информация : UTF-8 Plain Text
Язык : Russian
Default : Нет
Forced : Нет
Текст #3
Идентификатор : 7
Формат : UTF-8
Идентификатор кодека : S_TEXT/UTF8
Идентификатор кодека/Информация : UTF-8 Plain Text
Заголовок : Forced
Язык : Ukrainian
Default : Нет
Forced : Нет
Текст #4
Идентификатор : 8
Формат : UTF-8
Идентификатор кодека : S_TEXT/UTF8
Идентификатор кодека/Информация : UTF-8 Plain Text
Язык : Ukrainian
Default : Нет
Forced : Нет
Текст #5
Идентификатор : 9
Формат : UTF-8
Идентификатор кодека : S_TEXT/UTF8
Идентификатор кодека/Информация : UTF-8 Plain Text
Заголовок : Forced
Язык : English
Default : Нет
Forced : Нет
Текст #6
Идентификатор : 10
Формат : UTF-8
Идентификатор кодека : S_TEXT/UTF8
Идентификатор кодека/Информация : UTF-8 Plain Text
Язык : English
Default : Нет
Forced : Нет
Текст #7
Идентификатор : 11
Формат : UTF-8
Идентификатор кодека : S_TEXT/UTF8
Идентификатор кодека/Информация : UTF-8 Plain Text
Заголовок : SDH
Язык : English
Default : Нет
Forced : Нет
Меню
00:00:00.000 : en:00:00:00.000
00:08:02.315 : en:00:08:02.315
00:11:49.167 : en:00:11:49.167
00:15:18.751 : en:00:15:18.751
00:20:33.482 : en:00:20:33.482
00:23:04.258 : en:00:23:04.258
00:29:39.444 : en:00:29:39.444
00:37:23.992 : en:00:37:23.992
00:42:47.982 : en:00:42:47.982
00:50:22.269 : en:00:50:22.269
01:01:04.661 : en:01:01:04.661
01:14:05.107 : en:01:14:05.107
01:28:01.234 : en:01:28:01.234
01:38:20.561 : en:01:38:20.561
01:45:40.167 : en:01:45:40.167
01:51:15.085 : en:01:51:15.085
01:57:47.769 : en:01:57:47.769
02:04:38.680 : en:02:04:38.680
02:09:39.397 : en:02:09:39.397
02:13:10.691 : en:02:13:10.691
-

x264 Log :

x264 [info]: frame I:1923 Avg QP:12.22 size:390749
x264 [info]: frame P:51944 Avg QP:15.45 size:151808
x264 [info]: frame B:151693 Avg QP:17.03 size: 59613
x264 [info]: consecutive B-frames: 4.6% 4.1% 11.3% 22.9% 19.4% 33.4% 3.6% 0.6%
-Скриншоты:
-

[Цитировать]



Показать сообщения:    

Текущее время: 05-Дек 05:28

Часовой пояс: UTC + 3


Вы не можете начинать темы
Вы не можете отвечать на сообщения
Вы не можете редактировать свои сообщения
Вы не можете удалять свои сообщения
Вы не можете голосовать в опросах
Вы не можете прикреплять файлы к сообщениям
Вы не можете скачивать файлы

!ВНИМАНИЕ!
Сайт не предоставляет электронные версии произведений, а занимается лишь коллекционированием и каталогизацией ссылок, присылаемых и публикуемых на форуме нашими читателями. Если вы являетесь правообладателем какого-либо представленного материала и не желаете, чтобы ссылка на него находилась в нашем каталоге, свяжитесь с нами, и мы незамедлительно удалим ее. Файлы для обмена на трекере предоставлены пользователями сайта, и администрация не несет ответственности за их содержание. Просьба не заливать файлы, защищенные авторскими правами, а также файлы нелегального содержания!