[ Сегодня идет свободное скачивание без начисления Download ]


Статистика раздачи
Нет
 
   
 
 
 
-Неуязвимый / Unbreakable- Русское название: Неуязвимый
Оригинальное название: Unbreakable
Страна: США
Выпущено: Limited Edition Productions Inc., Touchstone Pictures
Год выпуска: 2000
Жанр: Триллер, Фэнтези, Детектив-Описание фильма:
В 3:15 пополудни происходит страшная железнодорожная катастрофа. Из 132 пассажиров в живых остается только один. Дэйвид Данн не просто уцелел посреди мгновенного ада из железа и огня — он не получил ни одной царапины. И лишь один человек на земле знает причину этого чуда — Элайджа Прайс по прозвищу «Мистер Стекло», чьи кости могут сломаться даже от незначительного внешнего усилия…-Режиссер: М. Найт Шьямалан
Актеры: Брюс Уиллис, Сэмюэл Л. Джексон, Робин Райт, Спенсер Трит Кларк, Чарлэйн Вудард, Имонн Уолкер, Лесли Стефансон, Джонни Хирам Джеймисон, Бостин Кристофер-Продолжительность: 01:46:39
Перевод: Профессиональный |дублированный| + Профессиональный |многоголосый закадровый| + Авторский одноголосый |Юрий Живов|
Оригинальная аудиодорожка: английский
Субтитры: Нет- -
Рейтинг PG-13 - Детям до 13 лет просмотр не желателен-Видеокодек: MPEG-4 AVC/H.264
Битрейт видео: ~9 987 Kbps
Размер кадра: 1920x816p
Качество видео: BDRip 1080p-Аудио 1: Русский АС3, 6 ch, 640 Кбит/с |Дубляж
Аудио 2: Русский АС3, 6 ch, 384 Кбит/с | Многоголосый
Аудио 3: Русский DTS, 6 ch, 755 Кбит/с | Живов
Аудио 4: Английский DTS, 6 ch, 755 Кбит/с | Оригинал
-

Знаете ли вы, что...

На экране нам показывают смерть четырех персонажей, однако за кадром погибает 513 человек.
Роль Одри Данн была предложена Джулианне Мур.
Кадр с Одри в больнице, которую мы видим через стекло и как бы в небольшом тумане, практически идентичен первому появлению на экране Луис Лэйн в «Супермене» (1978).
Действие фильма происходит в Филадельфии. На рабочем месте Элайджи среди газетных вырезок можно заметить заголовок «Вирус-убийца выпущен в аэропорту». Брюс Уиллис сыграл главную роль в «12 обезьянах» (1995), где вирус, приведший к почти полному уничтожению человечества, впервые был распространен в филадельфийском аэропорту.
Логотип телеканала, рассказывающего о крушении поезда, — логотип Фантастической четверки.
Музыка, играющая во время выставки Элайджи, — та же самая композиция, которую разучивала мама Роуг/Мари в начальных сценах «Людей Икс» (2000).
В «Крепком орешке 3» (1995), инспектор Кобб (Ларри Бриггман) говорит Джону МакКлейну (Брюс Уиллис), что «к следующему месяцу он будет работать охранником». В данном фильме, Брюс сыграл охранника.
Элайджа спрашивает Дэвида, почему он выбрал профессию, связанную с защитой людей, а не какую-нибудь другую, среди которых он упоминает организацию сети ресторанов. В реальной жизни, Брюс Уиллис является одним из основателей ресторанной сети «Планета Голливуд».
В нескольких сценах, относящихся к Мистеру Глассу, присутствуют стеклянные предметы: — мы видим новорожденного Гласса через отражение в зеркале; — мы видим его в детстве через отражение в выключенном экране телевизора; — он оставляет свою визитку на лобовом стекле машины Дэвида Данна; — мы видим его отражения в стеклах его галереи; — его трость сделана из стекла.
Osteogenesis Imperfecta — очень редкая, реально существующая болезнь, которая с особой тщательностью была воссоздана в фильме.
Несколько важных предметов для сюжета фильма, в первый раз показаны вверх ногами: — телевизионная новость о крушении поезда; — первый комикс Элайджи; — знак «Не входить» на территории, где хранятся обломки поезда; — серебряный пистолет с черной рукояткой, который видит Элайджа у человека в камуфляжной куртке, перепрыгивающего через турникеты; — Одри в перевернутой машине; — лицо Элайджи, когда он упал с лестницы.
Главного героя фильма зовут Дэвид Данн. В комиксах, имена и фамилии главных персонажей очень часто начинаются с одной и той же буквы. Например, Питер Паркер, Брюс Баннер, Мэтт Мёрдок, Кларк Кент…
В газете, которую Дэвид показывает своему сыну, можно прочитать следующее: «Заголовок: СПАСЕНЫ. Герой спас двух детей. Родители найдены мертвыми в доме. Автор: Николь Марселла. Полиция ведет расследование противоправного вторжения в дом, приведшего к смерти троих человек в районе Бала Синвид. Официальные лица пока не могут объяснить мотивацию доброго самаритянина, который прошлой ночью спас двоих маленьких детей. Детали происшествия поверхностны, но, по словам полиции, после того как он освободил детей, неизвестный герой убил человека, ответственного за смерть родителей. Полицейские пока не могут установить личность героя. По словам детей, его рост примерно 6 футов, и он был одет в длинную темно-зеленую накидку от дождя. Имена детей не разглашаются, до тех пор того не будут проинформированы о случившимся ближайшие родственники погибших. На данный момент полиция всё еще пытается установить личностей убийцы. Полиция Филадельфии будет признательна за любую информацию, ведущую к установлению его личности».
Сэмюэл Л. Джексон предложил, чтобы у его персонажа была стеклянная трость.
Как и в комиксах, главные персонажи преимущественно одеты в одежду определенных цветов: одежда Дэвида — зеленая; Элайджи — фиолетовая. Сэмюэл Л. Джексон сам выбрал цвет одежды для своего персонажа, т. к. фиолетовый — это его любимый цвет.
Фильм «Неуязвимый» должен был стать первой частью трилогии, но провал его в прокате перечеркнул первоначальные планы.
Картина снималась с 25 апреля по июль 2000 года в штате Пенсильвания в городах Филадельфия, Итон и Мэняунк.
В эпизодической роли посетителя стадиона снялся режиссер картины М. Найт Шьямалан.
В заключительных титрах картины было сказано, что фильм снят в память о Элизабет Лоуренс.
-

MediaInfo:

General
Complete name : E:\Neujazvimyj.2000.mkv
Format : Matroska
File size : 9.53 GiB
Duration : 1h 46mn
Overall bit rate : 12.8 Mbps
Encoded date : UTC 2009-12-01 12:58:13
Writing application : mkvmerge v2.1.0 ('Another Place To Fall') built on Aug 19 2007 13:40:07
Writing library : libebml v0.7.7 + libmatroska v0.8.1
Video
ID : 1
Format : AVC
Format/Info : Advanced Video Codec
Format profile : [email protected]
Format settings, CABAC : Yes
Format settings, ReFrames : 5 frames
Muxing mode : Container [email protected]
Codec ID : V_MPEG4/ISO/AVC
Duration : 1h 46mn
Bit rate : 9 987 Kbps
Nominal bit rate : 10.3 Mbps
Width : 1 920 pixels
Height : 816 pixels
Display aspect ratio : 2.35:1
Frame rate : 23.976 fps
Resolution : 8 bits
Colorimetry : 4:2:0
Scan type : Progressive
Bits/(Pixel*Frame) : 0.266
Stream size : 7.44 GiB (78%)
Writing library : x264 core 68 r1181kMod 49bf767
Encoding settings : cabac=1 / ref=5 / deblock=1:0:0 / analyse=0x3:0x133 / me=umh / subme=7 / psy_rd=1.0:0.0 / mixed_ref=1 / me_range=16 / chroma_me=1 / trellis=1 / 8x8dct=1 / cqm=0 / deadzone=21,11 / chroma_qp_offset=-2 / threads=6 / nr=0 / decimate=1 / mbaff=0 / bframes=3 / b_pyramid=1 / b_adapt=1 / b_bias=0 / direct=3 / wpredb=1 / keyint=250 / keyint_min=25 / scenecut=40 / rc=2pass / bitrate=10250 / ratetol=1.0 / qcomp=0.60 / qpmin=10 / qpmax=51 / qpstep=4 / cplxblur=20.0 / qblur=0.5 / ip_ratio=1.40 / pb_ratio=1.30 / aq=1:1.00
Language : English
Audio #1
ID : 2
Format : AC-3
Format/Info : Audio Coding 3
Codec ID : A_AC3
Duration : 1h 46mn
Bit rate mode : Constant
Bit rate : 640 Kbps
Channel(s) : 6 channels
Channel positions : Front: L C R, Surround: L R, LFE
Sampling rate : 48.0 KHz
Stream size : 489 MiB (5%)
Title : DUB_AC3_6ch_640Kbps
Language : Russian
Audio #2
ID : 3
Format : AC-3
Format/Info : Audio Coding 3
Codec ID : A_AC3
Duration : 1h 46mn
Bit rate mode : Constant
Bit rate : 384 Kbps
Channel(s) : 6 channels
Channel positions : Front: L C R, Surround: L R, LFE
Sampling rate : 48.0 KHz
Stream size : 293 MiB (3%)
Title : Mnogogoloska_AC3_6ch_384Kbps
Language : Russian
Audio #3
ID : 4
Format : DTS
Format/Info : Digital Theater Systems
Codec ID : A_DTS
Duration : 1h 46mn
Bit rate mode : Constant
Bit rate : 755 Kbps
Channel(s) : 6 channels
Channel positions : Front: L C R, Surround: L R, LFE
Sampling rate : 48.0 KHz
Resolution : 24 bits
Stream size : 576 MiB (6%)
Title : Zhivov_DTS_6ch_768Kbps
Language : Russian
Audio #4
ID : 5
Format : DTS
Format/Info : Digital Theater Systems
Codec ID : A_DTS
Duration : 1h 46mn
Bit rate mode : Constant
Bit rate : 755 Kbps
Channel(s) : 6 channels
Channel positions : Front: L C R, Surround: L R, LFE
Sampling rate : 48.0 KHz
Resolution : 24 bits
Stream size : 576 MiB (6%)
Title : ENGl_DTS_6ch_768Kbps
Language : English
-Скриншоты:

[Цитировать]



Показать сообщения:    

Текущее время: 06-Дек 11:17

Часовой пояс: UTC + 3


Вы не можете начинать темы
Вы не можете отвечать на сообщения
Вы не можете редактировать свои сообщения
Вы не можете удалять свои сообщения
Вы не можете голосовать в опросах
Вы не можете прикреплять файлы к сообщениям
Вы не можете скачивать файлы

!ВНИМАНИЕ!
Сайт не предоставляет электронные версии произведений, а занимается лишь коллекционированием и каталогизацией ссылок, присылаемых и публикуемых на форуме нашими читателями. Если вы являетесь правообладателем какого-либо представленного материала и не желаете, чтобы ссылка на него находилась в нашем каталоге, свяжитесь с нами, и мы незамедлительно удалим ее. Файлы для обмена на трекере предоставлены пользователями сайта, и администрация не несет ответственности за их содержание. Просьба не заливать файлы, защищенные авторскими правами, а также файлы нелегального содержания!