[ Сегодня идет свободное скачивание без начисления Download ]


Статистика раздачи
Нет
 
   
 
Top  
 
 
Ужин с убийством / Murder by Death- Страна: США
Студия: Columbia Pictures, Rastar Pictures
Жанр: Комедия, Детектив
Год выпуска: 1976
Продолжительность: 01:31:17-Перевод 1: Профессиональный (многоголосый закадровый) - 1-й канал
Перевод 2: Профессиональный (многоголосый закадровый) - ТВ5
Перевод 3: Профессиональный (многоголосый закадровый)
Cубтитры: нет
Оригинальная аудиодорожка: английский-Режиссер: Роберт Мур / Robert Moore
В ролях: Питер Фальк, Алек Гиннес, Питер Селлерс, Джеймс Коко, Дэвид Найвен, Трумэн Капоте, Мэгги Смит, Нэнси Уокер, Эйлен Бреннан, Элиза Ланчестер, Эстель Винвуд (Peter Falk, Alec Guinness, Peter Sellers, James Coco, David Niven, Truman Capote, Maggie Smith, Nancy Walker, Eileen Brennan, Elisa Lanchester, Estelle Winwood)
Описание: Эксцентричный миллионер Лайнел Твейн приглашает в свой дом на ужин пятерых самых легендарных детективов мира. Во время ужина Твейн сообщает, что ровно в полночь в доме произойдет убийство. Он предлагает миллион долларов тому, кто раскроет это преступление.
Эта блистательная пародия на классические детективы поставлена по сценарию легендарного американского драматурга Нила Саймона.- -Сэмпл-Тип релиза: HDTVRip 720p
Контейнер: MKV
Видео: 1280x704p, 25 fps, x264, 5804 kbps
Аудио 1: Russian - 1-й канал (Dolby AC3, 2 ch) 192 Kbps / 48 000 Hz
Аудио 2: Russian - ТВ5 (Dolby AC3, 2 ch) 192 Kbps / 48 000 Hz
Аудио 3: Russian - MVO (Dolby AC3, 2 ch) 192 Kbps / 48 000 Hz
Аудио 4: English Dolby AC3, 2 ch) 192 Kbps / 48 000 Hz-

MediaInfo

Уникальный идентификатор : 184018070273864080079754543888224093591 (0x8A709757E468FB9F890F8825AAE60597)
Полное имя : Murder.by.Death.(1976).HDTVRip.720p.x264.AC3.RUS.ENG.mkv
Формат : Matroska
Версия формата : Version 2
Размер файла : 4,15 Гбайт
Продолжительность : 1 ч. 31 м.
Общий поток : 6515 Кбит/сек
Название фильма : Murder by Death (1976) HDTVRip 720p
Дата кодирования : UTC 2012-08-14 16:24:01
Программа кодирования : mkvmerge v5.7.0 ('The Whirlwind') built on Jul 8 2012 20:08:51
Библиотека кодирования : libebml v1.2.3 + libmatroska v1.3.0
Видео
Идентификатор : 1
Формат : AVC
Формат/Информация : Advanced Video Codec
Профиль формата : High@L4.1
Параметр CABAC формата : Да
Параметр ReFrames формата : 9 кадров
Идентификатор кодека : V_MPEG4/ISO/AVC
Продолжительность : 1 ч. 31 м.
Битрейт : 5804 Кбит/сек
Ширина : 1280 пикселей
Высота : 704 пикселя
Соотношение сторон : 16:9
Частота кадров : 25,000 кадров/сек
Цветовое пространство : YUV
Субдискретизация насыщенности : 4:2:0
Битовая глубина : 8 бит
Тип развёртки : Прогрессивная
Бит/(Пиксели*Кадры) : 0.258
Размер потока : 3,58 Гбайт (86%)
Библиотека кодирования : x264 core 125 r2200 999b753
Настройки программы : cabac=1 / ref=9 / deblock=1:-3:-3 / analyse=0x3:0x113 / me=umh / subme=9 / psy=1 / psy_rd=1.00:0.00 / mixed_ref=1 / me_range=32 / chroma_me=1 / trellis=2 / 8x8dct=1 / cqm=0 / deadzone=21,11 / fast_pskip=0 / chroma_qp_offset=-2 / threads=6 / lookahead_threads=1 / sliced_threads=0 / nr=0 / decimate=1 / interlaced=0 / bluray_compat=0 / constrained_intra=0 / bframes=3 / b_pyramid=2 / b_adapt=2 / b_bias=0 / direct=3 / weightb=1 / open_gop=0 / weightp=2 / keyint=250 / keyint_min=24 / scenecut=40 / intra_refresh=0 / rc=2pass / mbtree=0 / bitrate=5804 / ratetol=1.0 / qcomp=0.60 / qpmin=10 / qpmax=51 / qpstep=4 / cplxblur=20.0 / qblur=0.5 / ip_ratio=1.40 / pb_ratio=1.30 / aq=1:1.00
Default : Да
Forced : Нет
Аудио #1
Идентификатор : 2
Формат : AC-3
Формат/Информация : Audio Coding 3
Расширение режима : CM (complete main)
Параметр Endianness формата : Big
Идентификатор кодека : A_AC3
Продолжительность : 1 ч. 31 м.
Вид битрейта : Постоянный
Битрейт : 192 Кбит/сек
Каналы : 2 канала
Расположение каналов : Front: L R
Частота : 48,0 КГц
Битовая глубина : 16 бит
Размер потока : 125 Мбайт (3%)
Заголовок : ОРТ
Язык : Russian
Default : Да
Forced : Нет
Аудио #2
Идентификатор : 3
Формат : AC-3
Формат/Информация : Audio Coding 3
Расширение режима : CM (complete main)
Параметр Endianness формата : Big
Идентификатор кодека : A_AC3
Продолжительность : 1 ч. 31 м.
Вид битрейта : Постоянный
Битрейт : 192 Кбит/сек
Каналы : 2 канала
Расположение каналов : Front: L R
Частота : 48,0 КГц
Битовая глубина : 16 бит
Размер потока : 125 Мбайт (3%)
Заголовок : ТВ5
Язык : Russian
Default : Нет
Forced : Нет
Аудио #3
Идентификатор : 4
Формат : AC-3
Формат/Информация : Audio Coding 3
Расширение режима : CM (complete main)
Параметр Endianness формата : Big
Идентификатор кодека : A_AC3
Продолжительность : 1 ч. 31 м.
Вид битрейта : Постоянный
Битрейт : 192 Кбит/сек
Каналы : 2 канала
Расположение каналов : Front: L R
Частота : 48,0 КГц
Битовая глубина : 16 бит
Размер потока : 125 Мбайт (3%)
Заголовок : MVO
Язык : Russian
Default : Нет
Forced : Нет
Аудио #4
Идентификатор : 5
Формат : AC-3
Формат/Информация : Audio Coding 3
Расширение режима : CM (complete main)
Параметр Endianness формата : Big
Идентификатор кодека : A_AC3
Продолжительность : 1 ч. 31 м.
Вид битрейта : Постоянный
Битрейт : 192 Кбит/сек
Каналы : 2 канала
Расположение каналов : Front: L R
Частота : 48,0 КГц
Битовая глубина : 16 бит
Размер потока : 125 Мбайт (3%)
Заголовок : Original
Язык : English
Default : Нет
Forced : Нет

Скриншоты

[Цитировать]



Показать сообщения:    

Текущее время: 23-Фев 17:06

Часовой пояс: UTC + 3


Вы не можете начинать темы
Вы не можете отвечать на сообщения
Вы не можете редактировать свои сообщения
Вы не можете удалять свои сообщения
Вы не можете голосовать в опросах
Вы не можете прикреплять файлы к сообщениям
Вы не можете скачивать файлы

!ВНИМАНИЕ!
Сайт не предоставляет электронные версии произведений, а занимается лишь коллекционированием и каталогизацией ссылок, присылаемых и публикуемых на форуме нашими читателями. Если вы являетесь правообладателем какого-либо представленного материала и не желаете, чтобы ссылка на него находилась в нашем каталоге, свяжитесь с нами, и мы незамедлительно удалим ее. Файлы для обмена на трекере предоставлены пользователями сайта, и администрация не несет ответственности за их содержание. Просьба не заливать файлы, защищенные авторскими правами, а также файлы нелегального содержания!