[ Сегодня идет свободное скачивание без начисления Download ]


Статистика раздачи
Нет
 
   
 
Top  
 
 
[sh]Moonbeam - The Random (2013[/sh])-

Год: 2013
Жанр: Trance , Progressive House
Продолжительность: 02:07:16
Лейбл: Open Gate Records
Каталог №: ПРЗ CD06360
Тип рипа: tracks+.cue
Кодек: FLAC
Битрейт: Lossless

[sh]Трек лист:[/sh]

Трек лист:
01. Only You (featuring Jacob A) [4:16]
02. Madness (featuring Avis Vox) [6:07]
03. Alive (with Matvey Emerson) [4:53]
04. Flight (featuring Leusin) [5:38]
05. Together (featuring Blackfeel Wite) [6:20]
06. You Win Me (featuring Aelyn) [4:30]
07. Echoes Dying Away [4:57]
08. Tell Me (featuring Jacob A) [5:04]
09. Dark to Light (feat Nathassia D & Pryce Oliver) [5:09]
10. Little Monster (with Andrea Roma) [5:35]
11. The Fatal Thread (with A*S*Y*S) [5:24]
12. Sun Went Down (featuring ARCHNGL) [5:00]
Продолжительность: 01:02:45

Отчёт ЕАС:

Exact Audio Copy V1.0 beta 3 from 29. August 2011
EAC extraction logfile from 27. February 2013, 23:33
Moonbeam / The Ramdom
Used drive  : ATAPI   iHAS122   C   Adapter: 1  ID: 1
Read mode               : Secure
Utilize accurate stream : Yes
Defeat audio cache      : Yes
Make use of C2 pointers : No
Read offset correction                      : 6
Overread into Lead-In and Lead-Out          : No
Fill up missing offset samples with silence : Yes
Delete leading and trailing silent blocks   : No
Null samples used in CRC calculations       : Yes
Used interface                              : Native Win32 interface for Win NT & 2000
Gap handling                                : Appended to previous track
Used output format              : User Defined Encoder
Selected bitrate                : 1024 kBit/s
Quality                         : High
Add ID3 tag                     : No
Command line compressor         : C:\Program Files (x86)\Exact Audio Copy\Flac\flac.exe
Additional command line options :  -8 -V -T "ARTIST=%artist%" -T "TITLE=%title%" -T "ALBUM=%albumtitle%" -T "DATE=%year%" -T "TRACKNUMBER=%tracknr%" -T "GENRE=%genre%" -T "PERFORMER=%albuminterpret%" -T "COMPOSER=%composer%" %haslyrics%--tag-from-file=LYRICS="%lyricsfile%"%haslyrics% -T "ALBUMARTIST=%albumartist%" -T "DISCNUMBER=%cdnumber%" -T "TOTALDISCS=%totalcds%" -T "TOTALTRACKS=%numtracks%" -T "COMMENT=%comment%" %source% -o %dest%
TOC of the extracted CD
     Track |   Start  |  Length  | Start sector | End sector
    ---------------------------------------------------------
        1  |  0:00.00 |  4:15.52 |         0    |    19176
        2  |  4:15.52 |  6:07.04 |     19177    |    46705
        3  | 10:22.56 |  4:52.45 |     46706    |    68650
        4  | 15:15.26 |  5:37.40 |     68651    |    93965
        5  | 20:52.66 |  6:19.72 |     93966    |   122462
        6  | 27:12.63 |  4:30.03 |    122463    |   142715
        7  | 31:42.66 |  4:57.14 |    142716    |   165004
        8  | 36:40.05 |  5:03.44 |    165005    |   187773
        9  | 41:43.49 |  5:08.73 |    187774    |   210946
       10  | 46:52.47 |  5:35.30 |    210947    |   236101
       11  | 52:28.02 |  5:23.74 |    236102    |   260400
       12  | 57:52.01 |  4:59.50 |    260401    |   282875
Track  1
     Filename C:\What.CD\Moonbeam - The Random (2013) [FLAC]\CD01 Original Motion Picture Soundtrack\01 Only You (featuring Jacob A).wav
     Pre-gap length  0:00:02.00
     Peak level 98.7 %
     Extraction speed 4.8 X
     Track quality 100.0 %
     Test CRC FFDF479B
     Copy CRC FFDF479B
     Track not present in AccurateRip database
     Copy OK
Track  2
     Filename C:\What.CD\Moonbeam - The Random (2013) [FLAC]\CD01 Original Motion Picture Soundtrack\02 Madness (featuring Avis Vox).wav
     Peak level 98.7 %
     Extraction speed 5.6 X
     Track quality 100.0 %
     Test CRC D9FB2860
     Copy CRC D9FB2860
     Track not present in AccurateRip database
     Copy OK
Track  3
     Filename C:\What.CD\Moonbeam - The Random (2013) [FLAC]\CD01 Original Motion Picture Soundtrack\03 Alive (with Matvey Emerson).wav
     Peak level 98.7 %
     Extraction speed 6.1 X
     Track quality 100.0 %
     Test CRC 87D7963A
     Copy CRC 87D7963A
     Track not present in AccurateRip database
     Copy OK
Track  4
     Filename C:\What.CD\Moonbeam - The Random (2013) [FLAC]\CD01 Original Motion Picture Soundtrack\04 Flight (featuring Leusin).wav
     Peak level 98.7 %
     Extraction speed 6.7 X
     Track quality 100.0 %
     Test CRC FAAEE117
     Copy CRC FAAEE117
     Track not present in AccurateRip database
     Copy OK
Track  5
     Filename C:\What.CD\Moonbeam - The Random (2013) [FLAC]\CD01 Original Motion Picture Soundtrack\05 Together (featuring Blackfeel Wite).wav
     Peak level 98.7 %
     Extraction speed 7.3 X
     Track quality 100.0 %
     Test CRC E5C317E2
     Copy CRC E5C317E2
     Track not present in AccurateRip database
     Copy OK
Track  6
     Filename C:\What.CD\Moonbeam - The Random (2013) [FLAC]\CD01 Original Motion Picture Soundtrack\06 You Win Me (featuring Aelyn).wav
     Peak level 98.7 %
     Extraction speed 7.5 X
     Track quality 100.0 %
     Test CRC 36C21AF1
     Copy CRC 36C21AF1
     Track not present in AccurateRip database
     Copy OK
Track  7
     Filename C:\What.CD\Moonbeam - The Random (2013) [FLAC]\CD01 Original Motion Picture Soundtrack\07 Echoes Dying Away.wav
     Peak level 98.7 %
     Extraction speed 8.0 X
     Track quality 100.0 %
     Test CRC 04D919AA
     Copy CRC 04D919AA
     Track not present in AccurateRip database
     Copy OK
Track  8
     Filename C:\What.CD\Moonbeam - The Random (2013) [FLAC]\CD01 Original Motion Picture Soundtrack\08 Tell Me (featuring Jacob A).wav
     Peak level 98.7 %
     Extraction speed 8.3 X
     Track quality 100.0 %
     Test CRC 283D7BAA
     Copy CRC 283D7BAA
     Track not present in AccurateRip database
     Copy OK
Track  9
     Filename C:\What.CD\Moonbeam - The Random (2013) [FLAC]\CD01 Original Motion Picture Soundtrack\09 Dark to Light (feat Nathassia D & Pryce Oliver).wav
     Peak level 98.7 %
     Extraction speed 8.7 X
     Track quality 100.0 %
     Test CRC B9DF48B4
     Copy CRC B9DF48B4
     Track not present in AccurateRip database
     Copy OK
Track 10
     Filename C:\What.CD\Moonbeam - The Random (2013) [FLAC]\CD01 Original Motion Picture Soundtrack\10 Little Monster (with Andrea Roma).wav
     Peak level 98.7 %
     Extraction speed 9.1 X
     Track quality 100.0 %
     Test CRC 307819DE
     Copy CRC 307819DE
     Track not present in AccurateRip database
     Copy OK
Track 11
     Filename C:\What.CD\Moonbeam - The Random (2013) [FLAC]\CD01 Original Motion Picture Soundtrack\11 The Fatal Thread (with AxSxYxS).wav
     Peak level 98.7 %
     Extraction speed 9.4 X
     Track quality 100.0 %
     Test CRC E9513C3B
     Copy CRC E9513C3B
     Track not present in AccurateRip database
     Copy OK
Track 12
     Filename C:\What.CD\Moonbeam - The Random (2013) [FLAC]\CD01 Original Motion Picture Soundtrack\12 Sun Went Down (featuring ARCHNGL).wav
     Peak level 98.7 %
     Extraction speed 9.6 X
     Track quality 100.0 %
     Test CRC 66193646
     Copy CRC 66193646
     Track not present in AccurateRip database
     Copy OK
None of the tracks are present in the AccurateRip database
No errors occurred
End of status report
---- CUETools DB Plugin V2.1.3
[CTDB TOCID: ciYubF8cCxDdQX41L_MOhSSdz6U-] disk not present in database, Submit result: database access error: Невозможно разрешить удаленное имя: 'db.cuetools.net'
==== Log checksum FB79A741FB62531E652EBDDB406F362AA9BAD2202AB3E4E70D518C6616E6A836 ====

Отчёт auCDtect Task manager:

-----------------------
DON'T MODIFY THIS FILE
-----------------------
PERFORMER: auCDtect Task Manager, ver. 1.5.1RC6 build 1.5.1.7
Copyright (c) 2008-2010 y-soft. All rights reserved
http://y-soft.org
ANALYZER: auCDtect: CD records authenticity detector, version 0.8.2
Copyright (c) 2004 Oleg Berngardt. All rights reserved.
Copyright (c) 2004 Alexander Djourik. All rights reserved.
FILE: 12 Sun Went Down (featuring ARCHNGL).flac
  Size: 32326181 Hash: 4882777F7866262D3075114141D5F3E5 Accuracy: -m0
  Conclusion: CDDA 100%
  Signature: 4F69F5512B2C6ED9EEE3302FFAF6CEC6CB8D5E80
FILE: 11 The Fatal Thread (with AxSxYxS).flac
  Size: 37361862 Hash: A97C7D62140F652FFCF42C50E2DF3DDD Accuracy: -m0
  Conclusion: CDDA 100%
  Signature: B75919781825E78ECCE0A39543AAD9AC28110685
FILE: 10 Little Monster (with Andrea Roma).flac
  Size: 30629666 Hash: F20BA9E3772ACAE95321D820171E2109 Accuracy: -m0
  Conclusion: CDDA 100%
  Signature: 3A6DDCD5DC27389BCEEA625273FF909E2523EB5C
FILE: 09 Dark to Light (feat Nathassia D & Pryce Oliver).flac
  Size: 36032656 Hash: 2FEAA8A5E9CF976E08FEACAC40C8CA1E Accuracy: -m0
  Conclusion: CDDA 100%
  Signature: 8AA171D55F3CDAD262C017D916BC6719BEA59074
FILE: 08 Tell Me (featuring Jacob A).flac
  Size: 32970415 Hash: B09054D5F6681B5DE49C6463EB5FD757 Accuracy: -m0
  Conclusion: CDDA 100%
  Signature: 2D002EDBF82A9AD80831A8DD7EB8F709A0C9A7D9
FILE: 07 Echoes Dying Away.flac
  Size: 35314854 Hash: 4BB0FFFE4033BB76BF9E38D802D22F91 Accuracy: -m0
  Conclusion: CDDA 100%
  Signature: 3A274A572CD820995244E6380ABFA03CF298B6B5
FILE: 06 You Win Me (featuring Aelyn).flac
  Size: 31525443 Hash: 51DD0BA2E9A967FB6F1163895E289B83 Accuracy: -m0
  Conclusion: CDDA 100%
  Signature: C7867F1EBF90123ED299770908BBCC74AB5D0163
FILE: 05 Together (featuring Blackfeel Wite).flac
  Size: 41961800 Hash: 37051E39A00A6BC66B6183CA9E29BBE7 Accuracy: -m0
  Conclusion: CDDA 100%
  Signature: 58EB604706BD5D821BD017EB3E8E663941244B11
FILE: 04 Flight (featuring Leusin).flac
  Size: 40613126 Hash: 19B39C089F0A4D0D9A0C7316E6AA2030 Accuracy: -m0
  Conclusion: CDDA 100%
  Signature: 92DC306B01AB2B0B2B753B4904AC750F4536B3C6
FILE: 03 Alive (with Matvey Emerson).flac
  Size: 35315510 Hash: C58CA22A34531045AD0C3734C6BDA87D Accuracy: -m0
  Conclusion: MPEG 95%
  Signature: 1D06F6CC9919D97D90DBB43C3AB935032BDF10CF
FILE: 02 Madness (featuring Avis Vox).flac
  Size: 41139922 Hash: A54D600B75A4DD45ADB92B41E225C56E Accuracy: -m0
  Conclusion: CDDA 100%
  Signature: 81974E8F797A09154A34D5D78A69379D63AB5477
FILE: 01 Only You (featuring Jacob A).flac
  Size: 29729879 Hash: 27AA4CC7491FC35936CFC954DBC8D91E Accuracy: -m0
  Conclusion: CDDA 100%
  Signature: 43E889C30C7147458FCD35DC51CC9E7E51ED239A

Спектр


Трек лист:
01. Awakening [6:25]
02. Alive (with Matvey Emerson) (Club Mix) [6:24]
03. Flight (featuring Leusin) (Club Mix) [6:19]
04. The Raven [6:23]
05. Only You (featuring Jacob A) (Club Mix) [6:30]
06. Little Monster (with Andrea Roma) (Club Mix) [6:12]
07. Together (featuring Blackfeel Wite) (Club Mix) [6:13]
08. Heavy Rain (with J-Soul) [7:03]
09. The Fatal Thread (with A*S*Y*S) (Club Mix) [5:56]
10. You Win Me (featuring Aelyn) (Club Mix) [6:59]
Продолжительность: 01:04:20

Отчёт ЕАС:

Exact Audio Copy V1.0 beta 3 from 29. August 2011
EAC extraction logfile from 28. February 2013, 0:34
Moonbeam / The Random
Used drive  : ATAPI   iHAS122   C   Adapter: 1  ID: 1
Read mode               : Secure
Utilize accurate stream : Yes
Defeat audio cache      : Yes
Make use of C2 pointers : No
Read offset correction                      : 6
Overread into Lead-In and Lead-Out          : No
Fill up missing offset samples with silence : Yes
Delete leading and trailing silent blocks   : No
Null samples used in CRC calculations       : Yes
Used interface                              : Native Win32 interface for Win NT & 2000
Gap handling                                : Appended to previous track
Used output format              : User Defined Encoder
Selected bitrate                : 1024 kBit/s
Quality                         : High
Add ID3 tag                     : No
Command line compressor         : C:\Program Files (x86)\Exact Audio Copy\Flac\flac.exe
Additional command line options :  -8 -V -T "ARTIST=%artist%" -T "TITLE=%title%" -T "ALBUM=%albumtitle%" -T "DATE=%year%" -T "TRACKNUMBER=%tracknr%" -T "GENRE=%genre%" -T "PERFORMER=%albuminterpret%" -T "COMPOSER=%composer%" %haslyrics%--tag-from-file=LYRICS="%lyricsfile%"%haslyrics% -T "ALBUMARTIST=%albumartist%" -T "DISCNUMBER=%cdnumber%" -T "TOTALDISCS=%totalcds%" -T "TOTALTRACKS=%numtracks%" -T "COMMENT=%comment%" %source% -o %dest%
TOC of the extracted CD
     Track |   Start  |  Length  | Start sector | End sector
    ---------------------------------------------------------
        1  |  0:00.00 |  6:24.38 |         0    |    28837
        2  |  6:24.38 |  6:24.16 |     28838    |    57653
        3  | 12:48.54 |  6:18.66 |     57654    |    86069
        4  | 19:07.45 |  6:22.50 |     86070    |   114769
        5  | 25:30.20 |  6:30.12 |    114770    |   144031
        6  | 32:00.32 |  6:12.26 |    144032    |   171957
        7  | 38:12.58 |  6:13.10 |    171958    |   199942
        8  | 44:25.68 |  7:03.01 |    199943    |   231668
        9  | 51:28.69 |  5:56.29 |    231669    |   258397
       10  | 57:25.23 |  6:58.54 |    258398    |   289801
Track  1
     Filename C:\What.CD\Moonbeam - The Random (2013) [FLAC]\CD02 Club Version\01 Awakening.wav
     Pre-gap length  0:00:02.00
     Peak level 100.0 %
     Extraction speed 2.0 X
     Track quality 100.0 %
     Test CRC B1CE8096
     Copy CRC B1CE8096
     Track not present in AccurateRip database
     Copy OK
Track  2
     Filename C:\What.CD\Moonbeam - The Random (2013) [FLAC]\CD02 Club Version\02 Alive (with Matvey Emerson) (Club Mix).wav
     Peak level 98.7 %
     Extraction speed 2.3 X
     Track quality 100.0 %
     Test CRC 6B09755E
     Copy CRC 6B09755E
     Track not present in AccurateRip database
     Copy OK
Track  3
     Filename C:\What.CD\Moonbeam - The Random (2013) [FLAC]\CD02 Club Version\03 Flight (featuring Leusin) (Club Mix).wav
     Peak level 98.7 %
     Extraction speed 2.6 X
     Track quality 100.0 %
     Test CRC DAAA6731
     Copy CRC DAAA6731
     Track not present in AccurateRip database
     Copy OK
Track  4
     Filename C:\What.CD\Moonbeam - The Random (2013) [FLAC]\CD02 Club Version\04 The Raven.wav
     Peak level 98.7 %
     Extraction speed 2.8 X
     Track quality 100.0 %
     Test CRC F20C5297
     Copy CRC F20C5297
     Track not present in AccurateRip database
     Copy OK
Track  5
     Filename C:\What.CD\Moonbeam - The Random (2013) [FLAC]\CD02 Club Version\05 Only You (featuring Jacob A) (Club Mix).wav
     Peak level 98.7 %
     Extraction speed 3.0 X
     Track quality 100.0 %
     Test CRC A873D1A7
     Copy CRC A873D1A7
     Track not present in AccurateRip database
     Copy OK
Track  6
     Filename C:\What.CD\Moonbeam - The Random (2013) [FLAC]\CD02 Club Version\06 Little Monster (with Andrea Roma) (Club Mix).wav
     Peak level 98.7 %
     Extraction speed 3.2 X
     Track quality 100.0 %
     Test CRC 8DEFBA50
     Copy CRC 8DEFBA50
     Track not present in AccurateRip database
     Copy OK
Track  7
     Filename C:\What.CD\Moonbeam - The Random (2013) [FLAC]\CD02 Club Version\07 Together (featuring Blackfeel Wite) (Club Mix).wav
     Peak level 98.7 %
     Extraction speed 3.2 X
     Track quality 99.9 %
     Test CRC 2DE450C9
     Copy CRC 2DE450C9
     Track not present in AccurateRip database
     Copy OK
Track  8
     Filename C:\What.CD\Moonbeam - The Random (2013) [FLAC]\CD02 Club Version\08 Heavy Rain (with J-Soul).wav
     Peak level 98.7 %
     Extraction speed 3.7 X
     Track quality 100.0 %
     Test CRC 1F206BE6
     Copy CRC 1F206BE6
     Track not present in AccurateRip database
     Copy OK
Track  9
     Filename C:\What.CD\Moonbeam - The Random (2013) [FLAC]\CD02 Club Version\09 The Fatal Thread (with AxSxYxS) (Club Mix).wav
     Peak level 98.7 %
     Extraction speed 3.8 X
     Track quality 100.0 %
     Test CRC 404A2261
     Copy CRC 404A2261
     Track not present in AccurateRip database
     Copy OK
Track 10
     Filename C:\What.CD\Moonbeam - The Random (2013) [FLAC]\CD02 Club Version\10 You Win Me (featuring Aelyn) (Club Mix).wav
     Peak level 98.7 %
     Extraction speed 4.0 X
     Track quality 100.0 %
     Test CRC 2D4E388D
     Copy CRC 2D4E388D
     Track not present in AccurateRip database
     Copy OK
None of the tracks are present in the AccurateRip database
No errors occurred
End of status report
---- CUETools DB Plugin V2.1.3
[CTDB TOCID: Y1KaTTuamc8SrTMX.QVvYWhVr14-] database access error: Невозможно разрешить удаленное имя: 'db.cuetools.net'
==== Log checksum 7DD36E4D8FA94D82DCB6B317D0123BC5261CC8211C869927612CA0801BB9EDCA ====

Отчёт auCDtect Task manager:

-----------------------
DON'T MODIFY THIS FILE
-----------------------
PERFORMER: auCDtect Task Manager, ver. 1.5.1RC6 build 1.5.1.7
Copyright (c) 2008-2010 y-soft. All rights reserved
http://y-soft.org
ANALYZER: auCDtect: CD records authenticity detector, version 0.8.2
Copyright (c) 2004 Oleg Berngardt. All rights reserved.
Copyright (c) 2004 Alexander Djourik. All rights reserved.
FILE: 10 You Win Me (featuring Aelyn) (Club Mix).flac
  Size: 49035417 Hash: 4AF6FC0CE09226CC266598E4F4FE94FA Accuracy: -m0
  Conclusion: CDDA 100%
  Signature: 7011344C8ABAA410C82B4A68AEE94DBC865AB3F2
FILE: 09 The Fatal Thread (with AxSxYxS) (Club Mix).flac
  Size: 43674234 Hash: 0200C59912CEF545D18A3328A35DC123 Accuracy: -m0
  Conclusion: CDDA 100%
  Signature: 1B3EC5234E6A2D1ACB69A9B81EF5F067716A3C37
FILE: 08 Heavy Rain (with J-Soul).flac
  Size: 52648178 Hash: 86568CDF3B016754845CD3B783361694 Accuracy: -m0
  Conclusion: CDDA 100%
  Signature: 12B968E21E560DF5E96440B7D55B9F01A1CDC9EE
FILE: 07 Together (featuring Blackfeel Wite) (Club Mix).flac
  Size: 48312245 Hash: C1B8BC500E92480FA284CB2F71371958 Accuracy: -m0
  Conclusion: CDDA 100%
  Signature: 406CC5A4E8AC6D5122F1A872D5705E6147451A2F
FILE: 06 Little Monster (with Andrea Roma) (Club Mix).flac
  Size: 43862437 Hash: 6EF1DE062EF281C374A1DFA8F61A0DE2 Accuracy: -m0
  Conclusion: CDDA 100%
  Signature: 1206C07F1DF716F9640170AF19F722F3FC8834F7
FILE: 05 Only You (featuring Jacob A) (Club Mix).flac
  Size: 48950264 Hash: EA50F6821BEA82BD29EB8C046E560F99 Accuracy: -m0
  Conclusion: CDDA 100%
  Signature: 1E54B154406B6CE335FD44241A033984F15E0F81
FILE: 04 The Raven.flac
  Size: 46615862 Hash: 0A40D4A8BC529A18C376F8FD2AA82964 Accuracy: -m0
  Conclusion: CDDA 100%
  Signature: 3335805384A6C1344B4C08109FFDB60292F57BD7
FILE: 03 Flight (featuring Leusin) (Club Mix).flac
  Size: 48450981 Hash: 073E24859A1525413FC1B7D94D0F0226 Accuracy: -m0
  Conclusion: CDDA 99%
  Signature: 786614489FC71EE1A5509FAFD88824CEC5E0275D
FILE: 02 Alive (with Matvey Emerson) (Club Mix).flac
  Size: 44498557 Hash: 0FD193EEB36C70FD50F648E83CCDE499 Accuracy: -m0
  Conclusion: CDDA 100%
  Signature: 84B98765F3E8B6E9F5AEAF4AED739CC037DD4AE7
FILE: 01 Awakening.flac
  Size: 50208182 Hash: BB514DC89C4D5BDC9D2B2C217C94C42C Accuracy: -m0
  Conclusion: CDDA 100%
  Signature: 0890016F56CD1C403BA2A336617A9B4C18309C74
Время раздачи: 24/7

[Цитировать]



Показать сообщения:    

Текущее время: 07-Дек 13:36

Часовой пояс: UTC + 3


Вы не можете начинать темы
Вы не можете отвечать на сообщения
Вы не можете редактировать свои сообщения
Вы не можете удалять свои сообщения
Вы не можете голосовать в опросах
Вы не можете прикреплять файлы к сообщениям
Вы не можете скачивать файлы

!ВНИМАНИЕ!
Сайт не предоставляет электронные версии произведений, а занимается лишь коллекционированием и каталогизацией ссылок, присылаемых и публикуемых на форуме нашими читателями. Если вы являетесь правообладателем какого-либо представленного материала и не желаете, чтобы ссылка на него находилась в нашем каталоге, свяжитесь с нами, и мы незамедлительно удалим ее. Файлы для обмена на трекере предоставлены пользователями сайта, и администрация не несет ответственности за их содержание. Просьба не заливать файлы, защищенные авторскими правами, а также файлы нелегального содержания!