[ Сегодня идет свободное скачивание без начисления Download ]


Статистика раздачи
Нет
 
   
 
Top  
 
 
VA - Trance 100 2013 Volume 01 (2013)-

Год: 2013
Жанр: Trance
Продолжительность: 05:09:13
Лейбл: Open Gate Records/Armada Music B.V.
Каталог №: ПРЗ CD06377
Тип рипа: tracks+.cue
Кодек: FLAC
Битрейт: Lossless

Трек лист:

Трек лист:
01. Armin van Buuren feat. Ana Criado - I'll Listen (Super8 & Tab Remix) [2:48]
02. Arty, Nadia Ali & BT - Must Be The Love (Shogun Remix) [3:17]
03. Markus Schulz with Elevation & KhoMha - Triotonic [2:18]
04. Orjan Nilsen - Burana [2:25]
05. Omnia - Infina [2:58]
06. Josh Gabriel presents Winter Kills - Forward Facing (Otto Coster Remix) [4:22]
07. Andy Moor feat. Sue McLaren - Trespass (Antillas & Dankann Remix) [3:31]
08. MeHilove - Summer Vibes [2:55]
09. Peter Juergens & Stefan Dabruck - Love It Again [2:18]
10. Cerf, Mitiska & Jaren with Fine Taste - Ready For Go [2:55]
11. Lange - Destination Anywhere [2:25]
12. Signum - Centurion (Faruk Sabanci's Tripod Mix) [4:00]
13. Corderoy feat. Little Neve White - Run Into The Sun (Tangle & Mateusz Remix) [2:52]
14. Rank 1 - 7 Instead Of 8 [2:54]
15. Farid - Afloat [3:32]
16. Eddie Bitar & Genix feat. Jennifer Rene - Drift (Eddie Bitar Vocal Mix) [3:18]
17. Roger Shah feat. Adrina Thorpe - Island (Antillas Club Mix) [3:18]
18. W&W - Lift Off! [2:06]
19. Chris Schweizer & Chris Jones - Reason [2:49]
20. Dan Stone - Drive (Stoneface & Terminal Remix) [3:18]
21. Aly & Fila vs John O'Callaghan - Vapourize [1:53]
22. Bjorn Akesson - Gunsmoke [3:43]
23. Yahel & Liya - Creatures (Paul Oakenfold Remix) [3:25]
24. Robert Nickson - Spiral [3:18]
25. Robert Gitelman - Children Of The Sun (Las Salinas 2012 Remix) [5:04]
Продолжительность: 01:17:28

Отчёт ЕАС:

Exact Audio Copy V1.0 beta 3 from 29. August 2011
EAC extraction logfile from 23. February 2013, 23:50
Various Artists / Trance 100 2013 volume 1
Used drive  : ATAPI   iHAS122   C   Adapter: 1  ID: 1
Read mode               : Secure
Utilize accurate stream : Yes
Defeat audio cache      : Yes
Make use of C2 pointers : No
Read offset correction                      : 6
Overread into Lead-In and Lead-Out          : No
Fill up missing offset samples with silence : Yes
Delete leading and trailing silent blocks   : No
Null samples used in CRC calculations       : Yes
Used interface                              : Native Win32 interface for Win NT & 2000
Gap handling                                : Appended to previous track
Used output format              : User Defined Encoder
Selected bitrate                : 1024 kBit/s
Quality                         : High
Add ID3 tag                     : No
Command line compressor         : C:\Program Files (x86)\Exact Audio Copy\Flac\flac.exe
Additional command line options :  -8 -V -T "ARTIST=%artist%" -T "TITLE=%title%" -T "ALBUM=%albumtitle%" -T "DATE=%year%" -T "TRACKNUMBER=%tracknr%" -T "GENRE=%genre%" -T "PERFORMER=%albuminterpret%" -T "COMPOSER=%composer%" %haslyrics%--tag-from-file=LYRICS="%lyricsfile%"%haslyrics% -T "ALBUMARTIST=%albumartist%" -T "DISCNUMBER=%cdnumber%" -T "TOTALDISCS=%totalcds%" -T "TOTALTRACKS=%numtracks%" -T "COMMENT=%comment%" %source% -o %dest%
TOC of the extracted CD
     Track |   Start  |  Length  | Start sector | End sector
    ---------------------------------------------------------
        1  |  0:00.00 |  2:48.31 |         0    |    12630
        2  |  2:48.31 |  3:16.44 |     12631    |    27374
        3  |  6:05.00 |  2:18.14 |     27375    |    37738
        4  |  8:23.14 |  2:25.34 |     37739    |    48647
        5  | 10:48.48 |  2:58.14 |     48648    |    62011
        6  | 13:46.62 |  4:21.61 |     62012    |    81647
        7  | 18:08.48 |  3:30.69 |     81648    |    97466
        8  | 21:39.42 |  2:54.40 |     97467    |   110556
        9  | 24:34.07 |  2:18.14 |    110557    |   120920
       10  | 26:52.21 |  2:54.41 |    120921    |   134011
       11  | 29:46.62 |  2:25.34 |    134012    |   144920
       12  | 32:12.21 |  3:59.74 |    144921    |   162919
       13  | 36:12.20 |  2:51.71 |    162920    |   175815
       14  | 39:04.16 |  2:53.54 |    175816    |   188844
       15  | 41:57.70 |  3:31.58 |    188845    |   204727
       16  | 45:29.53 |  3:17.48 |    204728    |   219550
       17  | 48:47.26 |  3:17.48 |    219551    |   234373
       18  | 52:04.74 |  2:06.13 |    234374    |   243836
       19  | 54:11.12 |  2:49.31 |    243837    |   256542
       20  | 57:00.43 |  3:17.47 |    256543    |   271364
       21  | 60:18.15 |  1:52.71 |    271365    |   279835
       22  | 62:11.11 |  3:42.45 |    279836    |   296530
       23  | 65:53.56 |  3:25.17 |    296531    |   311922
       24  | 69:18.73 |  3:18.19 |    311923    |   326791
       25  | 72:37.17 |  5:04.03 |    326792    |   349594
Track  1
     Filename C:\What.CD\VA - Trance 100 2013 Volume 1 (2013) [FLAC]\CD1\01 Armin van Buuren feat. Ana Criado - I'll Listen (Super8 & Tab Remix).wav
     Pre-gap length  0:00:02.00
     Peak level 97.9 %
     Extraction speed 5.3 X
     Track quality 100.0 %
     Test CRC 632BB7D9
     Copy CRC 632BB7D9
     Track not present in AccurateRip database
     Copy OK
Track  2
     Filename C:\What.CD\VA - Trance 100 2013 Volume 1 (2013) [FLAC]\CD1\02 Arty, Nadia Ali & BT - Must Be The Love (Shogun Remix).wav
     Peak level 97.9 %
     Extraction speed 5.9 X
     Track quality 100.0 %
     Test CRC 64D82408
     Copy CRC 64D82408
     Track not present in AccurateRip database
     Copy OK
Track  3
     Filename C:\What.CD\VA - Trance 100 2013 Volume 1 (2013) [FLAC]\CD1\03 Markus Schulz with Elevation & KhoMha - Triotonic.wav
     Peak level 97.9 %
     Extraction speed 5.8 X
     Track quality 100.0 %
     Test CRC 2A2F84E5
     Copy CRC 2A2F84E5
     Track not present in AccurateRip database
     Copy OK
Track  4
     Filename C:\What.CD\VA - Trance 100 2013 Volume 1 (2013) [FLAC]\CD1\04 ?rjan Nilsen - Burana.wav
     Peak level 97.9 %
     Extraction speed 6.1 X
     Track quality 100.0 %
     Test CRC 05E8A3AA
     Copy CRC 05E8A3AA
     Track not present in AccurateRip database
     Copy OK
Track  5
     Filename C:\What.CD\VA - Trance 100 2013 Volume 1 (2013) [FLAC]\CD1\05 Omnia - Infina.wav
     Peak level 97.9 %
     Extraction speed 6.7 X
     Track quality 100.0 %
     Test CRC 2D0E7905
     Copy CRC 2D0E7905
     Track not present in AccurateRip database
     Copy OK
Track  6
     Filename C:\What.CD\VA - Trance 100 2013 Volume 1 (2013) [FLAC]\CD1\06 Josh Gabriel presents Winter Kills - Forward Facing (Otto Coster Remix).wav
     Peak level 97.9 %
     Extraction speed 7.4 X
     Track quality 100.0 %
     Test CRC BA04257C
     Copy CRC BA04257C
     Track not present in AccurateRip database
     Copy OK
Track  7
     Filename C:\What.CD\VA - Trance 100 2013 Volume 1 (2013) [FLAC]\CD1\07 Andy Moor feat. Sue McLaren - Trespass (Antillas & Dankann Remix).wav
     Peak level 97.9 %
     Extraction speed 7.5 X
     Track quality 100.0 %
     Test CRC 9C8E4FE3
     Copy CRC 9C8E4FE3
     Track not present in AccurateRip database
     Copy OK
Track  8
     Filename C:\What.CD\VA - Trance 100 2013 Volume 1 (2013) [FLAC]\CD1\08 MeHilove - Summer Vibes.wav
     Peak level 97.9 %
     Extraction speed 7.7 X
     Track quality 100.0 %
     Test CRC 046EF266
     Copy CRC 046EF266
     Track not present in AccurateRip database
     Copy OK
Track  9
     Filename C:\What.CD\VA - Trance 100 2013 Volume 1 (2013) [FLAC]\CD1\09 Peter Juergens & Stefan Dabruck - Love It Again.wav
     Peak level 97.9 %
     Extraction speed 7.5 X
     Track quality 100.0 %
     Test CRC 36C25748
     Copy CRC 36C25748
     Track not present in AccurateRip database
     Copy OK
Track 10
     Filename C:\What.CD\VA - Trance 100 2013 Volume 1 (2013) [FLAC]\CD1\10 Cerf, Mitiska & Jaren with Fine Taste - Ready For Go.wav
     Peak level 97.9 %
     Extraction speed 8.0 X
     Track quality 100.0 %
     Test CRC 72FC6CD9
     Copy CRC 72FC6CD9
     Track not present in AccurateRip database
     Copy OK
Track 11
     Filename C:\What.CD\VA - Trance 100 2013 Volume 1 (2013) [FLAC]\CD1\11 Lange - Destination Anywhere.wav
     Peak level 97.9 %
     Extraction speed 7.9 X
     Track quality 100.0 %
     Test CRC E6FA8B96
     Copy CRC E6FA8B96
     Track not present in AccurateRip database
     Copy OK
Track 12
     Filename C:\What.CD\VA - Trance 100 2013 Volume 1 (2013) [FLAC]\CD1\12 Signum - Centurion (Faruk Sabanci's Tripod Mix).wav
     Peak level 97.9 %
     Extraction speed 8.0 X
     Track quality 99.9 %
     Test CRC 826FC150
     Copy CRC 826FC150
     Track not present in AccurateRip database
     Copy OK
Track 13
     Filename C:\What.CD\VA - Trance 100 2013 Volume 1 (2013) [FLAC]\CD1\13 Corderoy feat. Little Neve White - Run Into The Sun (Tangle & Mateusz Remix).wav
     Peak level 97.9 %
     Extraction speed 7.5 X
     Track quality 99.9 %
     Test CRC F04D5671
     Copy CRC F04D5671
     Track not present in AccurateRip database
     Copy OK
Track 14
     Filename C:\What.CD\VA - Trance 100 2013 Volume 1 (2013) [FLAC]\CD1\14 Rank 1 - 7 Instead Of 8.wav
     Peak level 97.9 %
     Extraction speed 9.0 X
     Track quality 100.0 %
     Test CRC AB42EC5A
     Copy CRC AB42EC5A
     Track not present in AccurateRip database
     Copy OK
Track 15
     Filename C:\What.CD\VA - Trance 100 2013 Volume 1 (2013) [FLAC]\CD1\15 Farid - Afloat.wav
     Peak level 97.9 %
     Extraction speed 9.4 X
     Track quality 100.0 %
     Test CRC 1EA18E5A
     Copy CRC 1EA18E5A
     Track not present in AccurateRip database
     Copy OK
Track 16
     Filename C:\What.CD\VA - Trance 100 2013 Volume 1 (2013) [FLAC]\CD1\16 Eddie Bitar & Genix feat. Jennifer Rene - Drift (Eddie Bitar Vocal Mix).wav
     Peak level 97.9 %
     Extraction speed 9.5 X
     Track quality 100.0 %
     Test CRC E081B6C3
     Copy CRC E081B6C3
     Track not present in AccurateRip database
     Copy OK
Track 17
     Filename C:\What.CD\VA - Trance 100 2013 Volume 1 (2013) [FLAC]\CD1\17 Roger Shah feat. Adrina Thorpe - Island (Antillas Club Mix).wav
     Peak level 97.9 %
     Extraction speed 10.0 X
     Track quality 100.0 %
     Test CRC 57640F3F
     Copy CRC 57640F3F
     Track not present in AccurateRip database
     Copy OK
Track 18
     Filename C:\What.CD\VA - Trance 100 2013 Volume 1 (2013) [FLAC]\CD1\18 W&W - Lift Off!.wav
     Peak level 97.9 %
     Extraction speed 7.6 X
     Track quality 99.9 %
     Test CRC B1F972C7
     Copy CRC B1F972C7
     Track not present in AccurateRip database
     Copy OK
Track 19
     Filename C:\What.CD\VA - Trance 100 2013 Volume 1 (2013) [FLAC]\CD1\19 Chris Schweizer & Chris Jones - Reason.wav
     Peak level 97.9 %
     Extraction speed 9.9 X
     Track quality 100.0 %
     Test CRC C521335D
     Copy CRC C521335D
     Track not present in AccurateRip database
     Copy OK
Track 20
     Filename C:\What.CD\VA - Trance 100 2013 Volume 1 (2013) [FLAC]\CD1\20 Dan Stone - Drive (Stoneface & Terminal Remix).wav
     Peak level 97.9 %
     Extraction speed 10.3 X
     Track quality 100.0 %
     Test CRC 3AC6F804
     Copy CRC 3AC6F804
     Track not present in AccurateRip database
     Copy OK
Track 21
     Filename C:\What.CD\VA - Trance 100 2013 Volume 1 (2013) [FLAC]\CD1\21 Aly & Fila vs John O'Callaghan - Vapourize.wav
     Peak level 97.9 %
     Extraction speed 9.4 X
     Track quality 100.0 %
     Test CRC A41DF75A
     Copy CRC A41DF75A
     Track not present in AccurateRip database
     Copy OK
Track 22
     Filename C:\What.CD\VA - Trance 100 2013 Volume 1 (2013) [FLAC]\CD1\22 Bjorn Akesson - Gunsmoke.wav
     Peak level 97.9 %
     Extraction speed 10.9 X
     Track quality 100.0 %
     Test CRC EA41AD9E
     Copy CRC EA41AD9E
     Track not present in AccurateRip database
     Copy OK
Track 23
     Filename C:\What.CD\VA - Trance 100 2013 Volume 1 (2013) [FLAC]\CD1\23 Yahel & Liya - Creatures (Paul Oakenfold Remix).wav
     Peak level 97.9 %
     Extraction speed 11.0 X
     Track quality 100.0 %
     Test CRC 6C029D04
     Copy CRC 6C029D04
     Track not present in AccurateRip database
     Copy OK
Track 24
     Filename C:\What.CD\VA - Trance 100 2013 Volume 1 (2013) [FLAC]\CD1\24 Robert Nickson - Spiral.wav
     Peak level 97.9 %
     Extraction speed 11.1 X
     Track quality 100.0 %
     Test CRC A8A2AF0D
     Copy CRC A8A2AF0D
     Track not present in AccurateRip database
     Copy OK
Track 25
     Filename C:\What.CD\VA - Trance 100 2013 Volume 1 (2013) [FLAC]\CD1\25 Robert Gitelman - Children Of The Sun (Las Salinas 2012 Remix).wav
     Peak level 97.9 %
     Extraction speed 11.9 X
     Track quality 100.0 %
     Test CRC E81FFC5E
     Copy CRC E81FFC5E
     Track not present in AccurateRip database
     Copy OK
None of the tracks are present in the AccurateRip database
No errors occurred
End of status report
---- CUETools DB Plugin V2.1.3
[CTDB TOCID: yI4u1.lzf37DESJhMwPrs0J.xmE-] disk not present in database, Submit result: yI4u1.lzf37DESJhMwPrs0J.xmE- has been uploaded
==== Log checksum AE49A88C7B88333D96C3EF09762FAA5AA30E9D8AA57A2D72C11634E1DAD20984 ====

Отчёт auCDtect Task manager:

-----------------------
DON'T MODIFY THIS FILE
-----------------------
PERFORMER: auCDtect Task Manager, ver. 1.5.1RC6 build 1.5.1.7
Copyright (c) 2008-2010 y-soft. All rights reserved
http://y-soft.org
ANALYZER: auCDtect: CD records authenticity detector, version 0.8.2
Copyright (c) 2004 Oleg Berngardt. All rights reserved.
Copyright (c) 2004 Alexander Djourik. All rights reserved.
FILE: 25 Robert Gitelman - Children Of The Sun (Las Salinas 2012 Remix).flac
  Size: 38476497 Hash: F38902B4CC329DEE6D72C6FD2E5F371F Accuracy: -m0
  Conclusion: CDDA 100%
  Signature: 061B6648198756C610A699F98AB52EE06C749E70
FILE: 24 Robert Nickson - Spiral.flac
  Size: 27480593 Hash: 0F02022AB62CCDB84BA1BD543C355BAB Accuracy: -m0
  Conclusion: CDDA 100%
  Signature: DBB7488A668A1ADC473EC110EF4F07A9740E5D30
FILE: 23 Yahel & Liya - Creatures (Paul Oakenfold Remix).flac
  Size: 27374016 Hash: 83FD4081E9737DC0282B197689ADA034 Accuracy: -m0
  Conclusion: CDDA 100%
  Signature: 3FDFCDFE3622E50898C4D11408B6CD25A06AEA2C
FILE: 22 Bjorn Akesson - Gunsmoke.flac
  Size: 28258359 Hash: 56D2DD5C0E1F304D7ECE4AB6196C4E3F Accuracy: -m0
  Conclusion: CDDA 100%
  Signature: 578D3263D1D9D2DF9BCBF19A16427018A44851F8
FILE: 21 Aly & Fila vs John O'Callaghan - Vapourize.flac
  Size: 15734052 Hash: 983F1D3057894926CFBC44355FA923A7 Accuracy: -m0
  Conclusion: CDDA 100%
  Signature: 50C644F7C86DAB94124B01969C2B7DAED8D45E99
FILE: 20 Dan Stone - Drive (Stoneface & Terminal Remix).flac
  Size: 26731365 Hash: 8A1D8DDD7F973EC1B4A8DAF40E19025A Accuracy: -m0
  Conclusion: CDDA 99%
  Signature: 119D62296DFA5E83C6BFBD4BC45323C6DC84AFA6
FILE: 19 Chris Schweizer & Chris Jones - Reason.flac
  Size: 23787472 Hash: A8C9EF04C1471E43004EC30911A5E97C Accuracy: -m0
  Conclusion: CDDA 100%
  Signature: 85651E57EDDAD0B52B2D5F1F8AB6EF2C12AD57E5
FILE: 18 W&W - Lift Off!.flac
  Size: 16429796 Hash: 434A628FC7316E361C5990CA426D9336 Accuracy: -m0
  Conclusion: CDDA 100%
  Signature: C9845003025FC051D939398C867D50F387DB98AD
FILE: 17 Roger Shah feat. Adrina Thorpe - Island (Antillas Club Mix).flac
  Size: 25723456 Hash: F9BF8F274FDCE67E71BCC5D7279B740C Accuracy: -m0
  Conclusion: CDDA 100%
  Signature: F862E6C8117A13D1741A65B17D680456850B84E6
FILE: 16 Eddie Bitar & Genix feat. Jennifer Rene - Drift (Eddie Bitar Vocal Mix).flac
  Size: 26365746 Hash: 5C34DA4553C713D984F57CC8102BB7DD Accuracy: -m0
  Conclusion: CDDA 100%
  Signature: 92D0B8F5AE0082E4492083A8C545675DB41CCD31
FILE: 15 Farid - Afloat.flac
  Size: 27749044 Hash: C52582A1A470F44E961760E060CCA8C5 Accuracy: -m0
  Conclusion: CDDA 100%
  Signature: 2E6DAF34A16966F38647BB2C7368FD00E9C8D244
FILE: 14 Rank 1 - 7 Instead Of 8.flac
  Size: 22984238 Hash: 183AA97FE4B3D919F0DD9E018B85B50D Accuracy: -m0
  Conclusion: CDDA 100%
  Signature: CA8D5FC6AD39285BB97F3235360DE82FDFF969E4
FILE: 13 Corderoy feat. Little Neve White - Run Into The Sun (Tangle & Mateusz Remix).flac
  Size: 23706522 Hash: 3E7FD6EF88C22E65E7ABBE250A18D3CC Accuracy: -m0
  Conclusion: CDDA 99%
  Signature: 792E926C0FC90BC58C3B929F1F2EFA48D9F78A09
FILE: 12 Signum - Centurion (Faruk Sabanci's Tripod Mix).flac
  Size: 31386322 Hash: 4F51767DB95AA2F78349A501F9E2F479 Accuracy: -m0
  Conclusion: CDDA 100%
  Signature: 33969377F64E4A5DBE22C8EA9E72667314CFE994
FILE: 11 Lange - Destination Anywhere.flac
  Size: 20105029 Hash: A5D63F82C67D9503022D2B2B28D11631 Accuracy: -m0
  Conclusion: CDDA 100%
  Signature: D4CFAB6B46600880426BA42349CAC072EA1744F3
FILE: 10 Cerf, Mitiska & Jaren with Fine Taste - Ready For Go.flac
  Size: 23472718 Hash: 98EDDABA0120BE3174707CA6FDF33957 Accuracy: -m0
  Conclusion: CDDA 100%
  Signature: 19512B8EED7F653A1A6398DEF6475506DCB531ED
FILE: 09 Peter Juergens & Stefan Dabruck - Love It Again.flac
  Size: 15965530 Hash: EC40B5EB601BAC5ADE5FAADE487C4504 Accuracy: -m0
  Conclusion: CDDA 100%
  Signature: E0501E7D6FEF39A2DC49F83D47ED9657901553D4
FILE: 08 MeHilove - Summer Vibes.flac
  Size: 23408928 Hash: A7FBA299628E8554E144D233815E4F0E Accuracy: -m0
  Conclusion: CDDA 100%
  Signature: 323B73B81B8F08CACAFFF32820A385562233D29F
FILE: 07 Andy Moor feat. Sue McLaren - Trespass (Antillas & Dankann Remix).flac
  Size: 28798647 Hash: 17EC7591E43342BE9C6D9C54B269BBFC Accuracy: -m0
  Conclusion: CDDA 99%
  Signature: E388F711D7C1C28C15FD64E01F29FBA47DD5C5AC
FILE: 06 Josh Gabriel presents Winter Kills - Forward Facing (Otto Coster Remix).flac
  Size: 33533419 Hash: F9BDC8C6BAA10646EAFD44B320A3BBFD Accuracy: -m0
  Conclusion: CDDA 100%
  Signature: C0FF834541F61E891DC86E6941A2E4A7BCFE6B60
FILE: 05 Omnia - Infina.flac
  Size: 25569275 Hash: 0A30DD7D92B0707D175C24C4C7AD4D81 Accuracy: -m0
  Conclusion: CDDA 100%
  Signature: 23891B0014ABA327391C9EBB476E912349C9CA9F
FILE: 04 ?rjan Nilsen - Burana.flac
  Size: 20501769 Hash: 83F91F9B5CF63E1DFCCA7E03029998D8 Accuracy: -m0
  Conclusion: CDDA 100%
  Signature: 719F760952BF8D14419D381DE6AE0F0F983C2A88
FILE: 03 Markus Schulz with Elevation & KhoMha - Triotonic.flac
  Size: 19255935 Hash: A0DAB49713F17E6A4BAC8F08A385EF42 Accuracy: -m0
  Conclusion: CDDA 100%
  Signature: 5BACB72E00A3225B925830CE4A1218148E521EF5
FILE: 02 Arty, Nadia Ali & BT - Must Be The Love (Shogun Remix).flac
  Size: 26047860 Hash: F179960F18A5204A4641A7E9D1BD425F Accuracy: -m0
  Conclusion: CDDA 99%
  Signature: AF112B5D321C5573B3222D2A2DF65529731B9203
FILE: 01 Armin van Buuren feat. Ana Criado - I'll Listen (Super8 & Tab Remix).flac
  Size: 22615064 Hash: FDC800B2841DF073F733E15994752932 Accuracy: -m0
  Conclusion: CDDA 100%
  Signature: B0262D3259EC12ACAEF3EBCA80B877576F4345B6

Трек лист:
01. Christian Burns, Paul Oakenfold & JES - As We Collide [2:40]
02. Hardwell feat. Amba Shepherd - Apollo [2:18]
03. Dash Berlin feat. Emma Hewitt - Like Spinning Plates (Alexander Popov Remix) [2:47]
04. Aruna - Save The Day (Tom Fall Remix) [3:09]
05. Markus Schulz feat. Seri - Love Rain Down (Myon & Shane 54 Summer Of Love Mix) [2:40]
06. Shogun - UFO [3:38]
07. Delerium feat. Sarah McLachlan - Silence (W&W vs Jonas Stenberg Remix) [2:51]
08. Antillas & Dankann - Evolution [2:25]
09. Ashley Wallbridge - Grenade [2:04]
10. Skytech & Darius Romanowski - Another Joy [2:55]
11. Tenishia & Ruben de Ronde feat. Shannon Hurley - Love Survives (Flashtech Remix) [3:44]
12. Rex Mundi - Steaming Waterfalls [4:04]
13. Matt Darey feat. Kate Louise Smith - Still Waters (Colorless Remix) [2:23]
14. Wezz Devall - The Great White Buffalo [3:46]
15. Sied van Riel feat. Temper Heart - Carved By Your Hands (Wezz Devall Remilf) [3:21]
16. Abstract Vision & Elite Electronic vs Broning - Relict [2:23]
17. Marc Simz feat. Naomie Striemer - Out Of Sight (Original Vocal Mix) [4:47]
18. Tritonal - Ziziki (Tritonal Club Mix) [2:59]
19. UCast - Genesis [3:35]
20. Signum - The Timelord (Mark Sixma Remix) [3:49]
21. Chris Metcalfe - Watching Over Me (James Dymond Remix) [3:16]
22. Gary Maguire & Stereo Wildlife - Always Different [3:39]
23. Aly & Fila vs Bjorn Akesson - Sand Theme (FSOE 250 Anthem) [2:43]
24. Nick Callaghan & Will Atkinson - Volare Via [3:44]
25. Oxygen - Am I On Your Mind [2:02]
Продолжительность: 01:17:33

Отчёт ЕАС:

Exact Audio Copy V1.0 beta 3 from 29. August 2011
EAC extraction logfile from 24. February 2013, 0:57
Various Artists / Trance 100 2013 Volume 1
Used drive  : ATAPI   iHAS122   C   Adapter: 1  ID: 1
Read mode               : Secure
Utilize accurate stream : Yes
Defeat audio cache      : Yes
Make use of C2 pointers : No
Read offset correction                      : 6
Overread into Lead-In and Lead-Out          : No
Fill up missing offset samples with silence : Yes
Delete leading and trailing silent blocks   : No
Null samples used in CRC calculations       : Yes
Used interface                              : Native Win32 interface for Win NT & 2000
Gap handling                                : Appended to previous track
Used output format              : User Defined Encoder
Selected bitrate                : 1024 kBit/s
Quality                         : High
Add ID3 tag                     : No
Command line compressor         : C:\Program Files (x86)\Exact Audio Copy\Flac\flac.exe
Additional command line options :  -8 -V -T "ARTIST=%artist%" -T "TITLE=%title%" -T "ALBUM=%albumtitle%" -T "DATE=%year%" -T "TRACKNUMBER=%tracknr%" -T "GENRE=%genre%" -T "PERFORMER=%albuminterpret%" -T "COMPOSER=%composer%" %haslyrics%--tag-from-file=LYRICS="%lyricsfile%"%haslyrics% -T "ALBUMARTIST=%albumartist%" -T "DISCNUMBER=%cdnumber%" -T "TOTALDISCS=%totalcds%" -T "TOTALTRACKS=%numtracks%" -T "COMMENT=%comment%" %source% -o %dest%
TOC of the extracted CD
     Track |   Start  |  Length  | Start sector | End sector
    ---------------------------------------------------------
        1  |  0:00.00 |  2:40.19 |         0    |    12018
        2  |  2:40.19 |  2:18.13 |     12019    |    22381
        3  |  4:58.32 |  2:47.21 |     22382    |    34927
        4  |  7:45.53 |  3:09.07 |     34928    |    49109
        5  | 10:54.60 |  2:40.00 |     49110    |    61109
        6  | 13:34.60 |  3:38.13 |     61110    |    77472
        7  | 17:12.73 |  2:50.68 |     77473    |    90290
        8  | 20:03.66 |  2:25.35 |     90291    |   101200
        9  | 22:29.26 |  2:03.47 |    101201    |   110472
       10  | 24:32.73 |  2:54.41 |    110473    |   123563
       11  | 27:27.39 |  3:43.48 |    123564    |   140336
       12  | 31:11.12 |  4:03.43 |    140337    |   158604
       13  | 35:14.55 |  2:23.21 |    158605    |   169350
       14  | 37:38.01 |  3:45.50 |    169351    |   186275
       15  | 41:23.51 |  3:20.45 |    186276    |   201320
       16  | 44:44.21 |  2:23.21 |    201321    |   212066
       17  | 47:07.42 |  4:46.42 |    212067    |   233558
       18  | 51:54.09 |  2:59.08 |    233559    |   246991
       19  | 54:53.17 |  3:34.69 |    246992    |   263110
       20  | 58:28.11 |  3:49.18 |    263111    |   280303
       21  | 62:17.29 |  3:16.16 |    280304    |   295019
       22  | 65:33.45 |  3:39.10 |    295020    |   311454
       23  | 69:12.55 |  2:43.35 |    311455    |   323714
       24  | 71:56.15 |  3:44.26 |    323715    |   340540
       25  | 75:40.41 |  2:02.32 |    340541    |   349722
Track  1
     Filename C:\What.CD\VA - Trance 100 2013 Volume 1 (2013) [FLAC]\CD2\01 Christian Burns, Paul Oakenfold & JES - As We Collide.wav
     Pre-gap length  0:00:02.00
     Peak level 97.9 %
     Extraction speed 1.9 X
     Track quality 100.0 %
     Test CRC D533C602
     Copy CRC D533C602
     Track not present in AccurateRip database
     Copy OK
Track  2
     Filename C:\What.CD\VA - Trance 100 2013 Volume 1 (2013) [FLAC]\CD2\02 Hardwell feat. Amba Shepherd - Apollo.wav
     Peak level 97.9 %
     Extraction speed 2.0 X
     Track quality 100.0 %
     Test CRC 6F42514F
     Copy CRC 6F42514F
     Track not present in AccurateRip database
     Copy OK
Track  3
     Filename C:\What.CD\VA - Trance 100 2013 Volume 1 (2013) [FLAC]\CD2\03 Dash Berlin feat. Emma Hewitt - Like Spinning Plates (Alexander Popov Remix).wav
     Peak level 97.9 %
     Extraction speed 1.9 X
     Track quality 99.9 %
     Test CRC 99173E43
     Copy CRC 99173E43
     Track not present in AccurateRip database
     Copy OK
Track  4
     Filename C:\What.CD\VA - Trance 100 2013 Volume 1 (2013) [FLAC]\CD2\04 Aruna - Save The Day (Tom Fall Remix).wav
     Peak level 97.9 %
     Extraction speed 2.4 X
     Track quality 100.0 %
     Test CRC 23D076DF
     Copy CRC 23D076DF
     Track not present in AccurateRip database
     Copy OK
Track  5
     Filename C:\What.CD\VA - Trance 100 2013 Volume 1 (2013) [FLAC]\CD2\05 Markus Schulz feat. Seri - Love Rain Down (Myon & Shane 54 Summer Of Love Mix).wav
     Peak level 97.9 %
     Extraction speed 2.1 X
     Track quality 99.9 %
     Test CRC 07C7D4C3
     Copy CRC 07C7D4C3
     Track not present in AccurateRip database
     Copy OK
Track  6
     Filename C:\What.CD\VA - Trance 100 2013 Volume 1 (2013) [FLAC]\CD2\06 Shogun - UFO.wav
     Peak level 97.9 %
     Extraction speed 2.7 X
     Track quality 100.0 %
     Test CRC CD50283E
     Copy CRC CD50283E
     Track not present in AccurateRip database
     Copy OK
Track  7
     Filename C:\What.CD\VA - Trance 100 2013 Volume 1 (2013) [FLAC]\CD2\07 Delerium feat. Sarah McLachlan - Silence (W&W vs Jonas Stenberg Remix).wav
     Peak level 97.9 %
     Extraction speed 2.7 X
     Track quality 100.0 %
     Test CRC 70871B7F
     Copy CRC 70871B7F
     Track not present in AccurateRip database
     Copy OK
Track  8
     Filename C:\What.CD\VA - Trance 100 2013 Volume 1 (2013) [FLAC]\CD2\08 Antillas & Dankann - Evolution.wav
     Peak level 97.9 %
     Extraction speed 2.7 X
     Track quality 100.0 %
     Test CRC F67EC6AC
     Copy CRC F67EC6AC
     Track not present in AccurateRip database
     Copy OK
Track  9
     Filename C:\What.CD\VA - Trance 100 2013 Volume 1 (2013) [FLAC]\CD2\09 Ashley Wallbridge - Grenade.wav
     Peak level 97.9 %
     Extraction speed 2.7 X
     Track quality 100.0 %
     Test CRC E1E5F047
     Copy CRC E1E5F047
     Track not present in AccurateRip database
     Copy OK
Track 10
     Filename C:\What.CD\VA - Trance 100 2013 Volume 1 (2013) [FLAC]\CD2\10 Skytech & Darius Romanowski - Another Joy.wav
     Peak level 97.9 %
     Extraction speed 3.0 X
     Track quality 100.0 %
     Test CRC 1926F023
     Copy CRC 1926F023
     Track not present in AccurateRip database
     Copy OK
Track 11
     Filename C:\What.CD\VA - Trance 100 2013 Volume 1 (2013) [FLAC]\CD2\11 Tenishia & Ruben de Ronde feat. Shannon Hurley - Love Survives (Flashtech Remix).wav
     Peak level 97.9 %
     Extraction speed 3.2 X
     Track quality 100.0 %
     Test CRC B5575835
     Copy CRC B5575835
     Track not present in AccurateRip database
     Copy OK
Track 12
     Filename C:\What.CD\VA - Trance 100 2013 Volume 1 (2013) [FLAC]\CD2\12 Rex Mundi - Steaming Waterfalls.wav
     Peak level 97.9 %
     Extraction speed 3.3 X
     Track quality 100.0 %
     Test CRC 543BA136
     Copy CRC 543BA136
     Track not present in AccurateRip database
     Copy OK
Track 13
     Filename C:\What.CD\VA - Trance 100 2013 Volume 1 (2013) [FLAC]\CD2\13 Matt Darey feat. Kate Louise Smith - Still Waters (Colorless Remix).wav
     Peak level 97.9 %
     Extraction speed 3.1 X
     Track quality 100.0 %
     Test CRC 32C4CD37
     Copy CRC 32C4CD37
     Track not present in AccurateRip database
     Copy OK
Track 14
     Filename C:\What.CD\VA - Trance 100 2013 Volume 1 (2013) [FLAC]\CD2\14 Wezz Devall - The Great White Buffalo.wav
     Peak level 97.9 %
     Extraction speed 3.5 X
     Track quality 100.0 %
     Test CRC 07BC7684
     Copy CRC 07BC7684
     Track not present in AccurateRip database
     Copy OK
Track 15
     Filename C:\What.CD\VA - Trance 100 2013 Volume 1 (2013) [FLAC]\CD2\15 Sied van Riel feat. Temper Heart - Carved By Your Hands (Wezz Devall Remilf).wav
     Peak level 97.9 %
     Extraction speed 3.6 X
     Track quality 100.0 %
     Test CRC DAE12F6F
     Copy CRC DAE12F6F
     Track not present in AccurateRip database
     Copy OK
Track 16
     Filename C:\What.CD\VA - Trance 100 2013 Volume 1 (2013) [FLAC]\CD2\16 Abstract Vision & Elite Electronic vs Broning - Relict.wav
     Peak level 97.9 %
     Extraction speed 3.4 X
     Track quality 100.0 %
     Test CRC BBA9E008
     Copy CRC BBA9E008
     Track not present in AccurateRip database
     Copy OK
Track 17
     Filename C:\What.CD\VA - Trance 100 2013 Volume 1 (2013) [FLAC]\CD2\17 Marc Simz feat. Naomie Striemer - Out Of Sight (Original Vocal Mix).wav
     Peak level 97.9 %
     Extraction speed 3.9 X
     Track quality 100.0 %
     Test CRC 347E8AEA
     Copy CRC 347E8AEA
     Track not present in AccurateRip database
     Copy OK
Track 18
     Filename C:\What.CD\VA - Trance 100 2013 Volume 1 (2013) [FLAC]\CD2\18 Tritonal - Ziziki (Tritonal Club Mix).wav
     Peak level 97.9 %
     Extraction speed 3.8 X
     Track quality 100.0 %
     Test CRC 29FE8AEB
     Copy CRC 29FE8AEB
     Track not present in AccurateRip database
     Copy OK
Track 19
     Filename C:\What.CD\VA - Trance 100 2013 Volume 1 (2013) [FLAC]\CD2\19 UCast - Genesis.wav
     Peak level 97.9 %
     Extraction speed 4.0 X
     Track quality 100.0 %
     Test CRC 1B506C87
     Copy CRC 1B506C87
     Track not present in AccurateRip database
     Copy OK
Track 20
     Filename C:\What.CD\VA - Trance 100 2013 Volume 1 (2013) [FLAC]\CD2\20 Signum - The Timelord (Mark Sixma Remix).wav
     Peak level 97.9 %
     Extraction speed 4.0 X
     Track quality 100.0 %
     Test CRC 247D5606
     Copy CRC 247D5606
     Track not present in AccurateRip database
     Copy OK
Track 21
     Filename C:\What.CD\VA - Trance 100 2013 Volume 1 (2013) [FLAC]\CD2\21 Chris Metcalfe - Watching Over Me (James Dymond Remix).wav
     Peak level 97.9 %
     Extraction speed 3.6 X
     Track quality 99.9 %
     Test CRC E17DEAD3
     Copy CRC E17DEAD3
     Track not present in AccurateRip database
     Copy OK
Track 22
     Filename C:\What.CD\VA - Trance 100 2013 Volume 1 (2013) [FLAC]\CD2\22 Gary Maguire & Stereo Wildlife - Always Different.wav
     Peak level 97.9 %
     Extraction speed 3.7 X
     Track quality 99.9 %
     Test CRC A862E27B
     Copy CRC A862E27B
     Track not present in AccurateRip database
     Copy OK
Track 23
     Filename C:\What.CD\VA - Trance 100 2013 Volume 1 (2013) [FLAC]\CD2\23 Aly & Fila vs Bjorn Akesson - Sand Theme (FSOE 250 Anthem).wav
     Peak level 97.9 %
     Extraction speed 4.1 X
     Track quality 100.0 %
     Test CRC B2AEC7FE
     Copy CRC B2AEC7FE
     Track not present in AccurateRip database
     Copy OK
Track 24
     Filename C:\What.CD\VA - Trance 100 2013 Volume 1 (2013) [FLAC]\CD2\24 Nick Callaghan & Will Atkinson - Volare Via.wav
     Peak level 97.9 %
     Extraction speed 4.4 X
     Track quality 100.0 %
     Test CRC 682BB3EE
     Copy CRC 682BB3EE
     Track not present in AccurateRip database
     Copy OK
Track 25
     Filename C:\What.CD\VA - Trance 100 2013 Volume 1 (2013) [FLAC]\CD2\25 Oxygen - Am I On Your Mind.wav
     Peak level 97.9 %
     Extraction speed 3.9 X
     Track quality 100.0 %
     Test CRC 9F0F6969
     Copy CRC 9F0F6969
     Track not present in AccurateRip database
     Copy OK
None of the tracks are present in the AccurateRip database
No errors occurred
End of status report
---- CUETools DB Plugin V2.1.3
[CTDB TOCID: n4IuGIaB21ZvAbwoUpi_einahV8-] disk not present in database, Submit result: n4IuGIaB21ZvAbwoUpi_einahV8- has been uploaded
==== Log checksum 49AB53DA56158D5F3018E7A00E4AE6ED6EE4AEA9415598F252FC0162193094C1 ====

Отчёт auCDtect Task manager:

-----------------------
DON'T MODIFY THIS FILE
-----------------------
PERFORMER: auCDtect Task Manager, ver. 1.5.1RC6 build 1.5.1.7
Copyright (c) 2008-2010 y-soft. All rights reserved
http://y-soft.org
ANALYZER: auCDtect: CD records authenticity detector, version 0.8.2
Copyright (c) 2004 Oleg Berngardt. All rights reserved.
Copyright (c) 2004 Alexander Djourik. All rights reserved.
FILE: 25 Oxygen - Am I On Your Mind.flac
  Size: 15704435 Hash: 3CF502F8D1296DCE7FA4C418CF622732 Accuracy: -m0
  Conclusion: CDDA 100%
  Signature: 4B3FD177CC9D19D896532B76A95C40747060ACDC
FILE: 24 Nick Callaghan & Will Atkinson - Volare Via.flac
  Size: 32159563 Hash: 438F3EBD8C2420F2A6BC85510D2F9D11 Accuracy: -m0
  Conclusion: CDDA 100%
  Signature: CAA6475422A859B379EDE09629F9A95F4683BDBF
FILE: 23 Aly & Fila vs Bjorn Akesson - Sand Theme (FSOE 250 Anthem).flac
  Size: 22091826 Hash: 32E13CEB9A9F4708D05A595FC3B2229F Accuracy: -m0
  Conclusion: CDDA 100%
  Signature: 6FBE9D7DD42350222CA255F6D3EA0DA5C1D45CD2
FILE: 22 Gary Maguire & Stereo Wildlife - Always Different.flac
  Size: 30543311 Hash: 4341331A4DACA24C7A51B5AB849A9335 Accuracy: -m0
  Conclusion: CDDA 100%
  Signature: FC5B3EFA11A544EFC84002D618D20C87DB2CCC44
FILE: 21 Chris Metcalfe - Watching Over Me (James Dymond Remix).flac
  Size: 26202611 Hash: 52A797CCDB6007DD76434AAEC48FDD5D Accuracy: -m0
  Conclusion: CDDA 100%
  Signature: C825C250D513325778F9F76E31FFB79A20DC56D4
FILE: 20 Signum - The Timelord (Mark Sixma Remix).flac
  Size: 30061760 Hash: 85C7ABA1ADCC407EFF46BB06A0163686 Accuracy: -m0
  Conclusion: CDDA 100%
  Signature: 89FB8D68601D54387699FD6AA36E7983921A6762
FILE: 19 UCast - Genesis.flac
  Size: 28585448 Hash: E3B875B27AC04E6C6BAA2C0F8D20DC39 Accuracy: -m0
  Conclusion: CDDA 100%
  Signature: C064DCA95109360E70F733CA73D64A1D59D97AD1
FILE: 18 Tritonal - Ziziki (Tritonal Club Mix).flac
  Size: 23453590 Hash: 9DE6168927070230BD42D38D9341643F Accuracy: -m0
  Conclusion: CDDA 99%
  Signature: 02C26EC0AEA4B3EC54CDEA5680C846D4600FED36
FILE: 15 Sied van Riel feat. Temper Heart - Carved By Your Hands (Wezz Devall Remilf).flac
  Size: 26759857 Hash: 97BE8794EB158F5608F34A0A3F9D7E0C Accuracy: -m0
  Conclusion: CDDA 100%
  Signature: DE31A36F64BD540A695F34A9AB99CD2D74AF7283
FILE: 14 Wezz Devall - The Great White Buffalo.flac
  Size: 30710203 Hash: 272E14675F7295303D6A2AB402147907 Accuracy: -m0
  Conclusion: CDDA 100%
  Signature: 743C7F8F80857F348856B27AAC06D0D7C35C2F3E
FILE: 12 Rex Mundi - Steaming Waterfalls.flac
  Size: 33161627 Hash: EAAEE3C69986B49EEC6074967EDC3D69 Accuracy: -m0
  Conclusion: CDDA 99%
  Signature: A9329E074B9FCCD500867C2A376931F22CC93CE0
FILE: 11 Tenishia & Ruben de Ronde feat. Shannon Hurley - Love Survives (Flashtech Remix).flac
  Size: 30091517 Hash: 135A4331CADE8CD83BED56C2B2713125 Accuracy: -m0
  Conclusion: CDDA 100%
  Signature: B8E79E2378CD55A3BFD332CDC42B01C1450F4CF0
FILE: 10 Skytech & Darius Romanowski - Another Joy.flac
  Size: 25417148 Hash: 7B09F3C0174D1B7AF1748D5D1403A60B Accuracy: -m0
  Conclusion: CDDA 100%
  Signature: 867E105E4022026A136E0D0DE560DA2B47F55BE0
FILE: 09 Ashley Wallbridge - Grenade.flac
  Size: 17661953 Hash: D096C3DE1B41F25DE9056C3264202AA1 Accuracy: -m0
  Conclusion: CDDA 100%
  Signature: FB1D697307410E3461F880095CCEF21CE29E73F7
FILE: 08 Antillas & Dankann - Evolution.flac
  Size: 20327083 Hash: 026598571D8A7CA02D97E150A453F975 Accuracy: -m0
  Conclusion: CDDA 100%
  Signature: E4C25A7D2E570CF50A9231BF09116A141B2E9246
FILE: 07 Delerium feat. Sarah McLachlan - Silence (W&W vs Jonas Stenberg Remix).flac
  Size: 22543918 Hash: 199A94244B799C06AB15BFFD53BF3A6C Accuracy: -m0
  Conclusion: CDDA 100%
  Signature: E97C66AE63F50C2FC2E69D55DA6F923AF2EE2CAF
FILE: 06 Shogun - UFO.flac
  Size: 28305087 Hash: D22D9B893850FAAE96879C8A1D39DE50 Accuracy: -m0
  Conclusion: CDDA 100%
  Signature: 629FFC4519D927CF30F737806E74FA44BEC90BA9
FILE: 05 Markus Schulz feat. Seri - Love Rain Down (Myon & Shane 54 Summer Of Love Mix).flac
  Size: 20064211 Hash: 0EDB6F16E5CC3000B90810EC990D8102 Accuracy: -m0
  Conclusion: CDDA 100%
  Signature: 6989F66B19C86D31A942D229CCC73ADA29ED0388
FILE: 04 Aruna - Save The Day (Tom Fall Remix).flac
  Size: 25782471 Hash: 838C553FE0F8E0780D9C57A550C0ED8B Accuracy: -m0
  Conclusion: CDDA 100%
  Signature: DDCD10E343230E5EAA45F1A287030DB1A98F68CA
FILE: 03 Dash Berlin feat. Emma Hewitt - Like Spinning Plates (Alexander Popov Remix).flac
  Size: 22572078 Hash: 66BE55640F9DE25708747999A6841A31 Accuracy: -m0
  Conclusion: CDDA 100%
  Signature: FFADE6098372BACD8A78E82C86B99AB5AAB0ACB0
FILE: 02 Hardwell feat. Amba Shepherd - Apollo.flac
  Size: 18308640 Hash: 8B94C2A6126B0AC4C140BE787750808D Accuracy: -m0
  Conclusion: CDDA 100%
  Signature: C536207FC526662EB9636B4978079AF0035FBD51
FILE: 01 Christian Burns, Paul Oakenfold & JES - As We Collide.flac
  Size: 22218968 Hash: 1B1CE81ED0955FD468E9D51D9A68982B Accuracy: -m0
  Conclusion: CDDA 100%
  Signature: 3FE7E423DB9F667E8F90473D859E0A8410598202

Трек лист:
01. Chicane - Windbrake (Walsh & McAuley Remix) [3:09]
02. Cosmic Gate & Emma Hewitt - Calm Down (Omnia Remix) [1:42]
03. Armin Van Buuren feat. Jan Vayne - Serenity (Andrew Rayel Aether Remix [4:07]
04. Markus Schulz feat. Ana Diaz - Nothing Without Me (Beat Service Remix) [4:07]
05. W&W - Moscow [2:00]
06. Orjan Nilsen - Copperfield [3:31]
07. Protoculture - Perpetual Motion [2:47]
08. Ram presents Gecko - Departures [2:25]
09. Sunlounger & Zara Taylor - Try To Be Love (Alex Tasty Remix) [3:21]
10. Heatbeat - Chow Mein (Noah Neiman Remix) [3:21]
11. Yura Moonlight - Harrier [1:55]
12. Phynn feat. Jets Overhead - In Your Heart (Space RockerZ Remix) [4:19]
13. Solarstone vs Scott Bond - 3rd Earth (Heatbeat Remix) [2:09]
14. Spark7 & Sylvi - Disappear [3:42]
15. Alex M.O.R.P.H. feat. Shannon Hurley - Monday Morning Madness (Alexander Popov Remix) [3:21]
16. Andy Moor & Betsie Larkin - Love Again [3:44]
17. Adam Szabo & Willem de Roo - Lego [3:21]
18. Bobina & Betsie Larkin - No Substitute For You (Dub Mix) [2:38]
19. Marcel Woods - Guaba [2:39]
20. Signum - First Strike (Juventa Club Mix) [2:47]
21. James Dymond - Alana [3:24]
22. Photographer - Airport [2:46]
23. Paul van Dyk feat. Plumb - I Don't Deserve You (Giuseppe Ottaviani Remix) [3:55]
24. Dash Berlin feat. Kate Walsh - When You Were Around (Ferry Corsten Fix) [2:46]
25. Gabriel & Dresden - Arcadia [3:34]
Продолжительность: 01:17:16

Отчёт ЕАС:

Exact Audio Copy V1.0 beta 3 from 29. August 2011
EAC extraction logfile from 24. February 2013, 12:09
Various Artists / Trance 100 2013 volume 1
Used drive  : ATAPI   iHAS122   C   Adapter: 1  ID: 1
Read mode               : Secure
Utilize accurate stream : Yes
Defeat audio cache      : Yes
Make use of C2 pointers : No
Read offset correction                      : 6
Overread into Lead-In and Lead-Out          : No
Fill up missing offset samples with silence : Yes
Delete leading and trailing silent blocks   : No
Null samples used in CRC calculations       : Yes
Used interface                              : Native Win32 interface for Win NT & 2000
Gap handling                                : Appended to previous track
Used output format              : User Defined Encoder
Selected bitrate                : 1024 kBit/s
Quality                         : High
Add ID3 tag                     : No
Command line compressor         : C:\Program Files (x86)\Exact Audio Copy\Flac\flac.exe
Additional command line options :  -8 -V -T "ARTIST=%artist%" -T "TITLE=%title%" -T "ALBUM=%albumtitle%" -T "DATE=%year%" -T "TRACKNUMBER=%tracknr%" -T "GENRE=%genre%" -T "PERFORMER=%albuminterpret%" -T "COMPOSER=%composer%" %haslyrics%--tag-from-file=LYRICS="%lyricsfile%"%haslyrics% -T "ALBUMARTIST=%albumartist%" -T "DISCNUMBER=%cdnumber%" -T "TOTALDISCS=%totalcds%" -T "TOTALTRACKS=%numtracks%" -T "COMMENT=%comment%" %source% -o %dest%
TOC of the extracted CD
     Track |   Start  |  Length  | Start sector | End sector
    ---------------------------------------------------------
        1  |  0:00.00 |  3:09.09 |         0    |    14183
        2  |  3:09.09 |  1:41.59 |     14184    |    21817
        3  |  4:50.68 |  4:07.20 |     21818    |    40362
        4  |  8:58.13 |  4:07.20 |     40363    |    58907
        5  | 13:05.33 |  2:00.00 |     58908    |    67907
        6  | 15:05.33 |  3:30.69 |     67908    |    83726
        7  | 18:36.27 |  2:47.21 |     83727    |    96272
        8  | 21:23.48 |  2:25.33 |     96273    |   107180
        9  | 23:49.06 |  3:20.51 |    107181    |   122231
       10  | 27:09.57 |  3:20.62 |    122232    |   137293
       11  | 30:30.44 |  1:54.62 |    137294    |   145905
       12  | 32:25.31 |  4:18.41 |    145906    |   165296
       13  | 36:43.72 |  2:09.27 |    165297    |   174998
       14  | 38:53.24 |  3:42.22 |    174999    |   191670
       15  | 42:35.46 |  3:20.44 |    191671    |   206714
       16  | 45:56.15 |  3:43.67 |    206715    |   223506
       17  | 49:40.07 |  3:20.44 |    223507    |   238550
       18  | 53:00.51 |  2:37.45 |    238551    |   250370
       19  | 55:38.21 |  2:39.30 |    250371    |   262325
       20  | 58:17.51 |  2:47.14 |    262326    |   274864
       21  | 61:04.65 |  3:24.00 |    274865    |   290164
       22  | 64:28.65 |  2:45.57 |    290165    |   302596
       23  | 67:14.47 |  3:54.61 |    302597    |   320207
       24  | 71:09.33 |  2:45.57 |    320208    |   332639
       25  | 73:55.15 |  3:33.53 |    332640    |   348667
Track  1
     Filename C:\What.CD\VA - Trance 100 2013 Volume 1 (2013) [FLAC]\CD3\01 Chicane - Windbrake (Walsh & McAuley Remix).wav
     Pre-gap length  0:00:02.00
     Peak level 97.9 %
     Extraction speed 2.0 X
     Track quality 100.0 %
     Test CRC C50A1ACE
     Copy CRC C50A1ACE
     Track not present in AccurateRip database
     Copy OK
Track  2
     Filename C:\What.CD\VA - Trance 100 2013 Volume 1 (2013) [FLAC]\CD3\02 Cosmic Gate & Emma Hewitt - Calm Down (Omnia Remix).wav
     Peak level 97.9 %
     Extraction speed 1.9 X
     Track quality 100.0 %
     Test CRC 1B4D2635
     Copy CRC 1B4D2635
     Track not present in AccurateRip database
     Copy OK
Track  3
     Filename C:\What.CD\VA - Trance 100 2013 Volume 1 (2013) [FLAC]\CD3\03 Armin Van Buuren feat. Jan Vayne - Serenity (Andrew Rayel Aether Remix.wav
     Peak level 97.9 %
     Extraction speed 2.3 X
     Track quality 100.0 %
     Test CRC F02CF39D
     Copy CRC F02CF39D
     Track not present in AccurateRip database
     Copy OK
Track  4
     Filename C:\What.CD\VA - Trance 100 2013 Volume 1 (2013) [FLAC]\CD3\04 Markus Schulz feat. Ana Diaz - Nothing Without Me (Beat Service Remix).wav
     Peak level 97.9 %
     Extraction speed 2.5 X
     Track quality 100.0 %
     Test CRC 10760E57
     Copy CRC 10760E57
     Track not present in AccurateRip database
     Copy OK
Track  5
     Filename C:\What.CD\VA - Trance 100 2013 Volume 1 (2013) [FLAC]\CD3\05 W&W - Moscow.wav
     Peak level 97.9 %
     Extraction speed 2.3 X
     Track quality 100.0 %
     Test CRC D1ACAB88
     Copy CRC D1ACAB88
     Track not present in AccurateRip database
     Copy OK
Track  6
     Filename C:\What.CD\VA - Trance 100 2013 Volume 1 (2013) [FLAC]\CD3\06 ?rjan Nilsen - Copperfield.wav
     Peak level 97.9 %
     Extraction speed 2.7 X
     Track quality 100.0 %
     Test CRC 0D4C8715
     Copy CRC 0D4C8715
     Track not present in AccurateRip database
     Copy OK
Track  7
     Filename C:\What.CD\VA - Trance 100 2013 Volume 1 (2013) [FLAC]\CD3\07 Protoculture - Perpetual Motion.wav
     Peak level 97.9 %
     Extraction speed 2.3 X
     Track quality 99.9 %
     Test CRC 55BBC6B1
     Copy CRC 55BBC6B1
     Track not present in AccurateRip database
     Copy OK
Track  8
     Filename C:\What.CD\VA - Trance 100 2013 Volume 1 (2013) [FLAC]\CD3\08 Ram presents Gecko - Departures.wav
     Peak level 97.9 %
     Extraction speed 2.3 X
     Track quality 99.9 %
     Test CRC 3205BBE8
     Copy CRC 3205BBE8
     Track not present in AccurateRip database
     Copy OK
Track  9
     Filename C:\What.CD\VA - Trance 100 2013 Volume 1 (2013) [FLAC]\CD3\09 Sunlounger & Zara Taylor - Try To Be Love (Alex Tasty Remix).wav
     Peak level 97.9 %
     Extraction speed 3.0 X
     Track quality 100.0 %
     Test CRC 7D5C2BC6
     Copy CRC 7D5C2BC6
     Track not present in AccurateRip database
     Copy OK
Track 10
     Filename C:\What.CD\VA - Trance 100 2013 Volume 1 (2013) [FLAC]\CD3\10 Heatbeat - Chow Mein (Noah Neiman Remix).wav
     Peak level 97.9 %
     Extraction speed 2.7 X
     Track quality 99.9 %
     Test CRC 3CB63D9C
     Copy CRC 3CB63D9C
     Track not present in AccurateRip database
     Copy OK
Track 11
     Filename C:\What.CD\VA - Trance 100 2013 Volume 1 (2013) [FLAC]\CD3\11 Yura Moonlight - Harrier.wav
     Peak level 97.9 %
     Extraction speed 2.3 X
     Track quality 99.9 %
     Test CRC F865B469
     Copy CRC F865B469
     Track not present in AccurateRip database
     Copy OK
Track 12
     Filename C:\What.CD\VA - Trance 100 2013 Volume 1 (2013) [FLAC]\CD3\12 Phynn feat. Jets Overhead - In Your Heart (Space RockerZ Remix).wav
     Peak level 97.9 %
     Extraction speed 3.5 X
     Track quality 100.0 %
     Test CRC EE3F30A5
     Copy CRC EE3F30A5
     Track not present in AccurateRip database
     Copy OK
Track 13
     Filename C:\What.CD\VA - Trance 100 2013 Volume 1 (2013) [FLAC]\CD3\13 Solarstone vs Scott Bond - 3rd Earth (Heatbeat Remix).wav
     Peak level 97.9 %
     Extraction speed 3.1 X
     Track quality 100.0 %
     Test CRC 18C5FB5B
     Copy CRC 18C5FB5B
     Track not present in AccurateRip database
     Copy OK
Track 14
     Filename C:\What.CD\VA - Trance 100 2013 Volume 1 (2013) [FLAC]\CD3\14 Spark7 & Sylvi - Disappear.wav
     Peak level 97.9 %
     Extraction speed 3.5 X
     Track quality 100.0 %
     Test CRC 21DEC292
     Copy CRC 21DEC292
     Track not present in AccurateRip database
     Copy OK
Track 15
     Filename C:\What.CD\VA - Trance 100 2013 Volume 1 (2013) [FLAC]\CD3\15 Alex M.O.R.P.H. feat. Shannon Hurley - Monday Morning Madness (Alexander Popov Remix).wav
     Peak level 97.9 %
     Extraction speed 3.6 X
     Track quality 100.0 %
     Test CRC 1226C656
     Copy CRC 1226C656
     Track not present in AccurateRip database
     Copy OK
Track 16
     Filename C:\What.CD\VA - Trance 100 2013 Volume 1 (2013) [FLAC]\CD3\16 Andy Moor & Betsie Larkin - Love Again.wav
     Peak level 97.9 %
     Extraction speed 3.8 X
     Track quality 100.0 %
     Test CRC 5CFAA91D
     Copy CRC 5CFAA91D
     Track not present in AccurateRip database
     Copy OK
Track 17
     Filename C:\What.CD\VA - Trance 100 2013 Volume 1 (2013) [FLAC]\CD3\17 Adam Szabo & Willem de Roo - Lego.wav
     Peak level 97.8 %
     Extraction speed 3.8 X
     Track quality 100.0 %
     Test CRC 19AE72FA
     Copy CRC 19AE72FA
     Track not present in AccurateRip database
     Copy OK
Track 18
     Filename C:\What.CD\VA - Trance 100 2013 Volume 1 (2013) [FLAC]\CD3\18 Bobina & Betsie Larkin - No Substitute For You (Dub Mix).wav
     Peak level 97.9 %
     Extraction speed 3.7 X
     Track quality 100.0 %
     Test CRC BBB43535
     Copy CRC BBB43535
     Track not present in AccurateRip database
     Copy OK
Track 19
     Filename C:\What.CD\VA - Trance 100 2013 Volume 1 (2013) [FLAC]\CD3\19 Marcel Woods - Guaba.wav
     Peak level 97.9 %
     Extraction speed 3.8 X
     Track quality 100.0 %
     Test CRC C04884AB
     Copy CRC C04884AB
     Track not present in AccurateRip database
     Copy OK
Track 20
     Filename C:\What.CD\VA - Trance 100 2013 Volume 1 (2013) [FLAC]\CD3\20 Signum - First Strike (Juventa Club Mix).wav
     Peak level 97.9 %
     Extraction speed 3.8 X
     Track quality 100.0 %
     Test CRC EAF1A588
     Copy CRC EAF1A588
     Track not present in AccurateRip database
     Copy OK
Track 21
     Filename C:\What.CD\VA - Trance 100 2013 Volume 1 (2013) [FLAC]\CD3\21 James Dymond - Alana.wav
     Peak level 97.9 %
     Extraction speed 4.0 X
     Track quality 100.0 %
     Test CRC EC84026D
     Copy CRC EC84026D
     Track not present in AccurateRip database
     Copy OK
Track 22
     Filename C:\What.CD\VA - Trance 100 2013 Volume 1 (2013) [FLAC]\CD3\22 Photographer - Airport.wav
     Peak level 97.9 %
     Extraction speed 4.0 X
     Track quality 100.0 %
     Test CRC 314B0C32
     Copy CRC 314B0C32
     Track not present in AccurateRip database
     Copy OK
Track 23
     Filename C:\What.CD\VA - Trance 100 2013 Volume 1 (2013) [FLAC]\CD3\23 Paul van Dyk feat. Plumb - I Don't Deserve You (Giuseppe Ottaviani Remix).wav
     Peak level 97.9 %
     Extraction speed 4.2 X
     Track quality 100.0 %
     Test CRC 43E359CD
     Copy CRC 43E359CD
     Track not present in AccurateRip database
     Copy OK
Track 24
     Filename C:\What.CD\VA - Trance 100 2013 Volume 1 (2013) [FLAC]\CD3\24 Dash Berlin feat. Kate Walsh - When You Were Around (Ferry Corsten Fix).wav
     Peak level 97.9 %
     Extraction speed 4.2 X
     Track quality 100.0 %
     Test CRC 0EA141A8
     Copy CRC 0EA141A8
     Track not present in AccurateRip database
     Copy OK
Track 25
     Filename C:\What.CD\VA - Trance 100 2013 Volume 1 (2013) [FLAC]\CD3\25 Gabriel & Dresden - Arcadia.wav
     Peak level 97.9 %
     Extraction speed 4.3 X
     Track quality 100.0 %
     Test CRC 7904F4D2
     Copy CRC 7904F4D2
     Track not present in AccurateRip database
     Copy OK
None of the tracks are present in the AccurateRip database
No errors occurred
End of status report
---- CUETools DB Plugin V2.1.3
[CTDB TOCID: edRVlm8Fn0zq1AYYGDpIH11r0iI-] disk not present in database, Submit result: edRVlm8Fn0zq1AYYGDpIH11r0iI- has been uploaded
==== Log checksum EA4D6F58A997B9403E7358235ECCB1DE1FDA5CE2809C5E3BEFAD115D3CD22AB5 ====

Отчёт auCDtect Task manager:

-----------------------
DON'T MODIFY THIS FILE
-----------------------
PERFORMER: auCDtect Task Manager, ver. 1.5.1RC6 build 1.5.1.7
Copyright (c) 2008-2010 y-soft. All rights reserved
http://y-soft.org
ANALYZER: auCDtect: CD records authenticity detector, version 0.8.2
Copyright (c) 2004 Oleg Berngardt. All rights reserved.
Copyright (c) 2004 Alexander Djourik. All rights reserved.
FILE: 25 Gabriel & Dresden - Arcadia.flac
  Size: 24494029 Hash: 3497C5D27673FB85A7354BC10929342F Accuracy: -m0
  Conclusion: CDDA 100%
  Signature: 66A8088F2B1047926C4FCD462EB736CE63FAC480
FILE: 24 Dash Berlin feat. Kate Walsh - When You Were Around (Ferry Corsten Fix).flac
  Size: 21585795 Hash: C70E4A43D18C4AFD9873934310C24785 Accuracy: -m0
  Conclusion: CDDA 100%
  Signature: 72C31ED3F6219F546B5232134980877BB3EEA98F
FILE: 23 Paul van Dyk feat. Plumb - I Don't Deserve You (Giuseppe Ottaviani Remix).flac
  Size: 32605640 Hash: 4C90BCE190B5EF014822EF2EC93231AB Accuracy: -m0
  Conclusion: CDDA 100%
  Signature: 8FCC376A510C727AA094FECCD4601AD65130C1F3
FILE: 22 Photographer - Airport.flac
  Size: 22876933 Hash: D87C306B8DE5F460FC76C92A6778DAF9 Accuracy: -m0
  Conclusion: CDDA 100%
  Signature: 26B3886302501F8E85A2637897FD200EAEEDBFAC
FILE: 21 James Dymond - Alana.flac
  Size: 27800474 Hash: CF645A53042893895BE55F07E1DAEC51 Accuracy: -m0
  Conclusion: CDDA 100%
  Signature: C8DA446E9A84DC167DC267B6085A97C9DCD94BFB
FILE: 20 Signum - First Strike (Juventa Club Mix).flac
  Size: 22674409 Hash: CE98CE8FFCB6DF2918796B7A5F6FC5F1 Accuracy: -m0
  Conclusion: CDDA 100%
  Signature: 2B711C15FBA0B592DF72D0E83D6F1D9CD358B9D8
FILE: 19 Marcel Woods - Guaba.flac
  Size: 21068877 Hash: F4F8A7D3D499D770C2255A58FC7F9C02 Accuracy: -m0
  Conclusion: CDDA 100%
  Signature: D9F3506D1AC6A0EC9FA50983F544B05071DEC935
FILE: 18 Bobina & Betsie Larkin - No Substitute For You (Dub Mix).flac
  Size: 22026471 Hash: 68D8B0E8EA4FCC4A895A30DF86AAE32D Accuracy: -m0
  Conclusion: CDDA 100%
  Signature: CA2B79DE2D977E58F0A8C25EFFBD4B937C73A711
FILE: 17 Adam Szabo & Willem de Roo - Lego.flac
  Size: 27696000 Hash: 51FD832E0DC88794C4474A2A004DEC17 Accuracy: -m0
  Conclusion: CDDA 100%
  Signature: E4A5444B5D57F2A70B74A1BAFE2025843C47ED9F
FILE: 16 Andy Moor & Betsie Larkin - Love Again.flac
  Size: 29783970 Hash: 5A974381C8E54D07DE43FB4D091DAA6A Accuracy: -m0
  Conclusion: CDDA 100%
  Signature: 515C910FD1371CFB6FCD3E4428987768D54B2E24
FILE: 15 Alex M.O.R.P.H. feat. Shannon Hurley - Monday Morning Madness (Alexander Popov Remix).flac
  Size: 27830191 Hash: 248F50164A6705D3C4C9E90F92A6CA22 Accuracy: -m0
  Conclusion: CDDA 100%
  Signature: 0E48FB3F3AF2EE2CBC4C17E04DD52C517C2141CD
FILE: 14 Spark7 & Sylvi - Disappear.flac
  Size: 30963826 Hash: 88EA9626E9D9D8D48B1DC7AAA35399BF Accuracy: -m0
  Conclusion: CDDA 100%
  Signature: 8438A32B663EF115CD9DFFAC3AA09FC6038A6C12
FILE: 13 Solarstone vs Scott Bond - 3rd Earth (Heatbeat Remix).flac
  Size: 18021723 Hash: 12F27EB60A9A0E1F1D5495C01D2D0342 Accuracy: -m0
  Conclusion: CDDA 100%
  Signature: B56FAB5BD8D8668EA46AA21C546A27AA77102693
FILE: 12 Phynn feat. Jets Overhead - In Your Heart (Space RockerZ Remix).flac
  Size: 34175466 Hash: 6240F8F39D88FAA3D952289735507B6A Accuracy: -m0
  Conclusion: CDDA 100%
  Signature: A1C5D818C789306B5FF9AB1DCEDD689A8C100AA0
FILE: 11 Yura Moonlight - Harrier.flac
  Size: 15689743 Hash: 344E681D2C8F3F9C916B461522B63D15 Accuracy: -m0
  Conclusion: CDDA 100%
  Signature: 37F77A7B88C94F05AAFC23212C3CC4B2C4F43291
FILE: 10 Heatbeat - Chow Mein (Noah Neiman Remix).flac
  Size: 25964162 Hash: 64E54F70AA141A8BB751CB17531ACFF5 Accuracy: -m0
  Conclusion: CDDA 99%
  Signature: 62AA0B2F1E99D63AE2F3C79D039F5408E7EDF806
FILE: 09 Sunlounger & Zara Taylor - Try To Be Love (Alex Tasty Remix).flac
  Size: 26967319 Hash: C9CCDDD3E5B9AFB4A4F7ADA674974B46 Accuracy: -m0
  Conclusion: CDDA 100%
  Signature: 605DC461CB617310ADE5B68734EA4D0953FB8456
FILE: 08 Ram presents Gecko - Departures.flac
  Size: 18372298 Hash: 56487398A3652C82ADB966D746AA9A47 Accuracy: -m0
  Conclusion: CDDA 100%
  Signature: F43BECEA9C3C4DECE1BA5A1985E77F14A112D1D9
FILE: 07 Protoculture - Perpetual Motion.flac
  Size: 22926566 Hash: D96D753430E430552271671E5D314EEB Accuracy: -m0
  Conclusion: CDDA 100%
  Signature: F262542FE959CCE699FF4BC37B947A40E32EE367
FILE: 06 ?rjan Nilsen - Copperfield.flac
  Size: 29526456 Hash: 093720E5905F704F258A7F7AF6C91E43 Accuracy: -m0
  Conclusion: CDDA 100%
  Signature: 29438694D6E94485B1925F06B62F2A7BA1FE7F56
FILE: 05 W&W - Moscow.flac
  Size: 16937490 Hash: 32ABDEBD55C0A6B5857E93A1D690B12C Accuracy: -m0
  Conclusion: CDDA 99%
  Signature: 8DFAEEAE2A20016AE5C16E75A455AA68846280F2
FILE: 04 Markus Schulz feat. Ana Diaz - Nothing Without Me (Beat Service Remix).flac
  Size: 34556173 Hash: 11BDEA6DBF76E84D5E1BB95AFEF9AAA6 Accuracy: -m0
  Conclusion: CDDA 100%
  Signature: 789AECDD3A588DB65110619EBB662E92C16BC705
FILE: 03 Armin Van Buuren feat. Jan Vayne - Serenity (Andrew Rayel Aether Remix.flac
  Size: 32352748 Hash: 7CCCCF02458ACBF41BCD863C01B9E4A0 Accuracy: -m0
  Conclusion: CDDA 100%
  Signature: EC6A39A678FF53160123E3A1263690B4E48A6657
FILE: 02 Cosmic Gate & Emma Hewitt - Calm Down (Omnia Remix).flac
  Size: 14426579 Hash: E9C46A2DCE03A4188380948D66013EB0 Accuracy: -m0
  Conclusion: CDDA 100%
  Signature: E0E437CF40F152F2CC0C213DAF8444D29A2D4092
FILE: 01 Chicane - Windbrake (Walsh & McAuley Remix).flac
  Size: 22428790 Hash: 7F774AF92418DC12CC03D145F75AD983 Accuracy: -m0
  Conclusion: CDDA 100%
  Signature: 0F6697AB64C3EBCABE100157CBBF39F674A7B2A8

Трек лист:
01. Dash Berlin feat. Emma Hewitt - Waiting (W&W Remix) [2:49]
02. Rick Mitchells - Sub Zero [2:11]
03. Gabriel & Dresden feat. Betsie Larkin - Play It Back (Maor Levi Remix) [2:55]
04. Andrew Rayel feat. Jano - How Do I Know [4:06]
05. Aeris feat. Jess Morgan - What Do You Feel? (Re:Locate vs Robert Nickson Banging Remix) [4:30]
06. Juventa - 405 [3:00]
07. York - In The Thunder (Purple Stories Remix) [3:00]
08. Ben Gold feat. The Glass Child - Fall With Me [2:32]
09. Store N Forward - Roses (Club Mix) [2:32]
10. Faruk Sabanci feat. Cami - Awaken [2:17]
11. Wach presents Oussama Mlaouhia - Abbey (James Dymond Remix) [3:13]
12. Akira Kayosa & Hugh Tolland - Muriwai (Max Graham Remix) [3:21]
13. John B & Kirsty Hawkshaw - Connected (Craig Connelly Remix Remix) [3:10]
14. Planet Perfecto - Bullet In The Gun (Gary Maguire Remix) [2:29]
15. Vladimir Bashmakov - I Remember You [2:55]
16. Ashley Wallbridge feat. Elleah - Keep The Fire (Sean Tyas Remix) [2:50]
17. M.I.K.E. - Any Direction (M.I.K.E. vs Revero Club Mix) [2:03]
18. Emma Hewitt - Rewind (Mikkas Remix) [3:05]
19. Matt Bukovski - Blissful Time [2:49]
20. Sonic Element - Destruction [3:43]
21. Tonny Nesse - Hole In The Sky (Arctic Moon Remix) [3:15]
22. Mark Burton vs Sunlounger & Zara Taylor - Try Understatement To Be Love (Armin van Buuren Mashup) [3:15]
23. Falcon - Aquila [3:42]
24. Tenishia - Where Do We Begin (Andrew Rayel Remix) [3:25]
25. Mike Foyle vs Signalrunners - Love Theme Dusk (Mike's Broken Record Mix) [4:04]
Продолжительность: 01:16:56

Отчёт ЕАС:

Exact Audio Copy V1.0 beta 3 from 29. August 2011
EAC extraction logfile from 24. February 2013, 13:36
Various Artists / Trance 100 2013 volume 1
Used drive : ATAPI iHAS122 C Adapter: 1 ID: 1
Read mode : Secure
Utilize accurate stream : Yes
Defeat audio cache : Yes
Make use of C2 pointers : No
Read offset correction : 6
Overread into Lead-In and Lead-Out : No
Fill up missing offset samples with silence : Yes
Delete leading and trailing silent blocks : No
Null samples used in CRC calculations : Yes
Used interface : Native Win32 interface for Win NT & 2000
Gap handling : Appended to previous track
Used output format : User Defined Encoder
Selected bitrate : 1024 kBit/s
Quality : High
Add ID3 tag : No
Command line compressor : C:\Program Files (x86)\Exact Audio Copy\Flac\flac.exe
Additional command line options : -8 -V -T "ARTIST=%artist%" -T "TITLE=%title%" -T "ALBUM=%albumtitle%" -T "DATE=%year%" -T "TRACKNUMBER=%tracknr%" -T "GENRE=%genre%" -T "PERFORMER=%albuminterpret%" -T "COMPOSER=%composer%" %haslyrics%--tag-from-file=LYRICS="%lyricsfile%"%haslyrics% -T "ALBUMARTIST=%albumartist%" -T "DISCNUMBER=%cdnumber%" -T "TOTALDISCS=%totalcds%" -T "TOTALTRACKS=%numtracks%" -T "COMMENT=%comment%" %source% -o %dest%
TOC of the extracted CD
Track | Start | Length | Start sector | End sector
---------------------------------------------------------
1 | 0:00.00 | 2:48.71 | 0 | 12670
2 | 2:48.71 | 2:10.67 | 12671 | 22487
3 | 4:59.63 | 2:54.42 | 22488 | 35579
4 | 7:54.30 | 4:06.21 | 35580 | 54050
5 | 12:00.51 | 4:30.16 | 54051 | 74316
6 | 16:30.67 | 3:00.36 | 74317 | 87852
7 | 19:31.28 | 3:00.31 | 87853 | 101383
8 | 22:31.59 | 2:31.43 | 101384 | 112751
9 | 25:03.27 | 2:31.43 | 112752 | 124119
10 | 27:34.70 | 2:17.11 | 124120 | 134405
11 | 29:52.06 | 3:13.32 | 134406 | 148912
12 | 33:05.38 | 3:20.44 | 148913 | 163956
13 | 36:26.07 | 3:09.64 | 163957 | 178195
14 | 39:35.71 | 2:28.68 | 178196 | 189363
15 | 42:04.64 | 2:55.13 | 189364 | 202501
16 | 45:00.02 | 2:49.70 | 202502 | 215246
17 | 47:49.72 | 2:02.47 | 215247 | 224443
18 | 49:52.44 | 3:04.67 | 224444 | 238310
19 | 52:57.36 | 2:49.30 | 238311 | 251015
20 | 55:46.66 | 3:42.46 | 251016 | 267711
21 | 59:29.37 | 3:14.58 | 267712 | 282319
22 | 62:44.20 | 3:14.58 | 282320 | 296927
23 | 65:59.03 | 3:42.18 | 296928 | 313595
24 | 69:41.21 | 3:24.66 | 313596 | 328961
25 | 73:06.12 | 4:04.18 | 328962 | 347279
Track 1
Filename C:\What.CD\VA - Trance 100 2013 Volume 1 (2013) [FLAC]\CD4\01 Dash Berlin feat. Emma Hewitt - Waiting (W&W Remix).wav
Pre-gap length 0:00:02.00
Peak level 97.9 %
Extraction speed 1.7 X
Track quality 99.9 %
Test CRC 715247FF
Copy CRC 715247FF
Track not present in AccurateRip database
Copy OK
Track 2
Filename C:\What.CD\VA - Trance 100 2013 Volume 1 (2013) [FLAC]\CD4\02 Rick Mitchells - Sub Zero.wav
Peak level 97.9 %
Extraction speed 2.0 X
Track quality 100.0 %
Test CRC 43DD7707
Copy CRC 43DD7707
Track not present in AccurateRip database
Copy OK
Track 3
Filename C:\What.CD\VA - Trance 100 2013 Volume 1 (2013) [FLAC]\CD4\03 Gabriel & Dresden feat. Betsie Larkin - Play It Back (Maor Levi Remix).wav
Peak level 97.9 %
Extraction speed 2.2 X
Track quality 100.0 %
Test CRC 830D80EB
Copy CRC 830D80EB
Track not present in AccurateRip database
Copy OK
Track 4
Filename C:\What.CD\VA - Trance 100 2013 Volume 1 (2013) [FLAC]\CD4\04 Andrew Rayel feat. Jano - How Do I Know.wav
Peak level 97.9 %
Extraction speed 2.5 X
Track quality 100.0 %
Test CRC 508B28FD
Copy CRC 508B28FD
Track not present in AccurateRip database
Copy OK
Track 5
Filename C:\What.CD\VA - Trance 100 2013 Volume 1 (2013) [FLAC]\CD4\05 Aeris feat. Jess Morgan - What Do You Feel (Re-Locate vs Robert Nickson Banging Remix).wav
Peak level 97.9 %
Extraction speed 2.4 X
Track quality 99.9 %
Test CRC 2FDB8933
Copy CRC 2FDB8933
Track not present in AccurateRip database
Copy OK
Track 6
Filename C:\What.CD\VA - Trance 100 2013 Volume 1 (2013) [FLAC]\CD4\06 Juventa - 405.wav
Peak level 97.9 %
Extraction speed 2.7 X
Track quality 100.0 %
Test CRC BA6AD596
Copy CRC BA6AD596
Track not present in AccurateRip database
Copy OK
Track 7
Filename C:\What.CD\VA - Trance 100 2013 Volume 1 (2013) [FLAC]\CD4\07 York - In The Thunder (Purple Stories Remix).wav
Peak level 97.9 %
Extraction speed 2.8 X
Track quality 100.0 %
Test CRC 39AB2C4E
Copy CRC 39AB2C4E
Track not present in AccurateRip database
Copy OK
Track 8
Filename C:\What.CD\VA - Trance 100 2013 Volume 1 (2013) [FLAC]\CD4\08 Ben Gold feat. The Glass Child - Fall With Me.wav
Peak level 97.9 %
Extraction speed 2.8 X
Track quality 100.0 %
Test CRC 390DA397
Copy CRC 390DA397
Track not present in AccurateRip database
Copy OK
Track 9
Filename C:\What.CD\VA - Trance 100 2013 Volume 1 (2013) [FLAC]\CD4\09 Store N Forward - Roses (Club Mix).wav
Peak level 97.9 %
Extraction speed 2.9 X
Track quality 100.0 %
Test CRC 1F340F6E
Copy CRC 1F340F6E
Track not present in AccurateRip database
Copy OK
Track 10
Filename C:\What.CD\VA - Trance 100 2013 Volume 1 (2013) [FLAC]\CD4\10 Faruk Sabanci feat. Cami - Awaken.wav
Peak level 97.9 %
Extraction speed 2.9 X
Track quality 100.0 %
Test CRC A572A2B7
Copy CRC A572A2B7
Track not present in AccurateRip database
Copy OK
Track 11
Filename C:\What.CD\VA - Trance 100 2013 Volume 1 (2013) [FLAC]\CD4\11 Wach presents Oussama Mlaouhia - Abbey (James Dymond Remix).wav
Peak level 97.9 %
Extraction speed 3.2 X
Track quality 100.0 %
Test CRC 13A98D3F
Copy CRC 13A98D3F
Track not present in AccurateRip database
Copy OK
Track 12
Filename C:\What.CD\VA - Trance 100 2013 Volume 1 (2013) [FLAC]\CD4\12 Akira Kayosa & Hugh Tolland - Muriwai (Max Graham Remix).wav
Peak level 97.9 %
Extraction speed 3.3 X
Track quality 100.0 %
Test CRC 906CC81B
Copy CRC 906CC81B
Track not present in AccurateRip database
Copy OK
Track 13
Filename C:\What.CD\VA - Trance 100 2013 Volume 1 (2013) [FLAC]\CD4\13 John B & Kirsty Hawkshaw - Connected (Craig Connelly Remix Remix).wav
Peak level 97.9 %
Extraction speed 3.4 X
Track quality 100.0 %
Test CRC 57AAB948
Copy CRC 57AAB948
Track not present in AccurateRip database
Copy OK
Track 14
Filename C:\What.CD\VA - Trance 100 2013 Volume 1 (2013) [FLAC]\CD4\14 Planet Perfecto - Bullet In The Gun (Gary Maguire Remix).wav
Peak level 97.9 %
Extraction speed 3.3 X
Track quality 100.0 %
Test CRC 8E9931E3
Copy CRC 8E9931E3
Track not present in AccurateRip database
Copy OK
Track 15
Filename C:\What.CD\VA - Trance 100 2013 Volume 1 (2013) [FLAC]\CD4\15 Vladimir Bashmakov - I Remember You.wav
Peak level 97.9 %
Extraction speed 3.5 X
Track quality 100.0 %
Test CRC 0B9A9849
Copy CRC 0B9A9849
Track not present in AccurateRip database
Copy OK
Track 16
Filename C:\What.CD\VA - Trance 100 2013 Volume 1 (2013) [FLAC]\CD4\16 Ashley Wallbridge feat. Elleah - Keep The Fire (Sean Tyas Remix).wav
Peak level 97.9 %
Extraction speed 3.5 X
Track quality 100.0 %
Test CRC C080DD8E
Copy CRC C080DD8E
Track not present in AccurateRip database
Copy OK
Track 17
Filename C:\What.CD\VA - Trance 100 2013 Volume 1 (2013) [FLAC]\CD4\17 M.I.K.E. - Any Direction (M.I.K.E. vs Revero Club Mix).wav
Peak level 97.9 %
Extraction speed 3.4 X
Track quality 100.0 %
Test CRC 09DDFD24
Copy CRC 09DDFD24
Track not present in AccurateRip database
Copy OK
Track 18
Filename C:\What.CD\VA - Trance 100 2013 Volume 1 (2013) [FLAC]\CD4\18 Emma Hewitt - Rewind (Mikkas Remix).wav
Peak level 97.9 %
Extraction speed 3.2 X
Track quality 99.9 %
Test CRC F27850D3
Copy CRC F27850D3
Track not present in AccurateRip database
Copy OK
Track 19
Filename C:\What.CD\VA - Trance 100 2013 Volume 1 (2013) [FLAC]\CD4\19 Matt Bukovski - Blissful Time.wav
Peak level 97.9 %
Extraction speed 3.7 X
Track quality 100.0 %
Test CRC ADD27345
Copy CRC ADD27345
Track not present in AccurateRip database
Copy OK
Track 20
Filename C:\What.CD\VA - Trance 100 2013 Volume 1 (2013) [FLAC]\CD4\20 Sonic Element - Destruction.wav
Peak level 97.9 %
Extraction speed 4.0 X
Track quality 100.0 %
Test CRC 44388B47
Copy CRC 44388B47
Track not present in AccurateRip database
Copy OK
Track 21
Filename C:\What.CD\VA - Trance 100 2013 Volume 1 (2013) [FLAC]\CD4\21 Tonny Nesse - Hole In The Sky (Arctic Moon Remix).wav
Peak level 97.9 %
Extraction speed 3.9 X
Track quality 100.0 %
Test CRC FA94559C
Copy CRC FA94559C
Track not present in AccurateRip database
Copy OK
Track 22
Filename C:\What.CD\VA - Trance 100 2013 Volume 1 (2013) [FLAC]\CD4\22 Mark Burton vs Sunlounger & Zara Taylor - Try Understatement To Be Love (Armin van Buuren Mashup).wav
Peak level 97.9 %
Extraction speed 4.1 X
Track quality 100.0 %
Test CRC B5505236
Copy CRC B5505236
Track not present in AccurateRip database
Copy OK
Track 23
Filename C:\What.CD\VA - Trance 100 2013 Volume 1 (2013) [FLAC]\CD4\23 Falcon - Aquila.wav
Peak level 97.9 %
Extraction speed 4.2 X
Track quality 100.0 %
Test CRC A9E8A73A
Copy CRC A9E8A73A
Track not present in AccurateRip database
Copy OK
Track 24
Filename C:\What.CD\VA - Trance 100 2013 Volume 1 (2013) [FLAC]\CD4\24 Tenishia - Where Do We Begin (Andrew Rayel Remix).wav
Peak level 97.9 %
Extraction speed 4.2 X
Track quality 100.0 %
Test CRC 2C6E17EC
Copy CRC 2C6E17EC
Track not present in AccurateRip database
Copy OK
Track 25
Filename C:\What.CD\VA - Trance 100 2013 Volume 1 (2013) [FLAC]\CD4\25 Mike Foyle vs Signalrunners - Love Theme Dusk (Mike's Broken Record Mix).wav
Peak level 97.9 %
Extraction speed 4.4 X
Track quality 100.0 %
Test CRC 3A654602
Copy CRC 3A654602
Track not present in AccurateRip database
Copy OK
None of the tracks are present in the AccurateRip database
No errors occurred
End of status report
---- CUETools DB Plugin V2.1.3
[CTDB TOCID: 8tjs6ZHtOmDxAe0fwm_GoYMCoeo-] disk not present in database, Submit result: 8tjs6ZHtOmDxAe0fwm_GoYMCoeo- has been uploaded
==== Log checksum FB9A5FFB91A74EB29A3A05AC2CCCC2852A903CA9804FCB1294536A44AA38821E ====

Отчёт auCDtect Task manager:

-----------------------
DON'T MODIFY THIS FILE
-----------------------
PERFORMER: auCDtect Task Manager, ver. 1.5.1RC6 build 1.5.1.7
Copyright (c) 2008-2010 y-soft. All rights reserved
http://y-soft.org
ANALYZER: auCDtect: CD records authenticity detector, version 0.8.2
Copyright (c) 2004 Oleg Berngardt. All rights reserved.
Copyright (c) 2004 Alexander Djourik. All rights reserved.
FILE: 25 Mike Foyle vs Signalrunners - Love Theme Dusk (Mike's Broken Record Mix).flac
  Size: 26013317 Hash: 34016F02FF68275CF63E8CA2E55B12C2 Accuracy: -m0
  Conclusion: CDDA 100%
  Signature: A4848386090E7FDABDE24598EA845A1CB6118091
FILE: 24 Tenishia - Where Do We Begin (Andrew Rayel Remix).flac
  Size: 27016620 Hash: 140EB4C909551A3F737D80A73AC8FFDB Accuracy: -m0
  Conclusion: CDDA 100%
  Signature: C6AC849FC8A165A4B6D6C7B21AC14CBA7DE43CE9
FILE: 23 Falcon - Aquila.flac
  Size: 30092288 Hash: ECA2F8BF52A459B75ABA8FC7B22C4EEF Accuracy: -m0
  Conclusion: CDDA 99%
  Signature: AA65F24F952995D90EBDD5BED305A42CF097CA35
FILE: 22 Mark Burton vs Sunlounger & Zara Taylor - Try Understatement To Be Love (Armin van Buuren Mashup).flac
  Size: 25651650 Hash: 74F72E9BFE7DF40E80520A7AFC9C27F0 Accuracy: -m0
  Conclusion: CDDA 100%
  Signature: 7F0297D58C11D49ED7394EEE7ED0CAF5AC12DA9D
FILE: 21 Tonny Nesse - Hole In The Sky (Arctic Moon Remix).flac
  Size: 26050851 Hash: 3D8F899ADE112E20EA5DB74337377516 Accuracy: -m0
  Conclusion: CDDA 100%
  Signature: 05BB86C68121A474860C3870D80A56D029AEC4B7
FILE: 20 Sonic Element - Destruction.flac
  Size: 29817219 Hash: 45375691ADDF75CE34872658C21E190C Accuracy: -m0
  Conclusion: CDDA 100%
  Signature: EE3C24F9068297734542C88290CC3C00190DD57F
FILE: 19 Matt Bukovski - Blissful Time.flac
  Size: 20194644 Hash: 426FA28A8A6D71034672A4287AB79BDF Accuracy: -m0
  Conclusion: CDDA 100%
  Signature: 6DD57D0CDD2736F57CC55CDC90E7AA2714620B9A
FILE: 18 Emma Hewitt - Rewind (Mikkas Remix).flac
  Size: 26136296 Hash: 2B3E60FAE6D890959367DE1DAEDD7444 Accuracy: -m0
  Conclusion: CDDA 100%
  Signature: DD461009160C222D7E9FBF9F74CAD118608FD7CA
FILE: 17 M.I.K.E. - Any Direction (M.I.K.E. vs Revero Club Mix).flac
  Size: 17136987 Hash: DB69825E420D0920E2FBCE9334FCCB4F Accuracy: -m0
  Conclusion: CDDA 100%
  Signature: 2D4D7B5C585073CE6CD75705E3573DEA2C017B17
FILE: 16 Ashley Wallbridge feat. Elleah - Keep The Fire (Sean Tyas Remix).flac
  Size: 23748845 Hash: E20474DBFD80C50EEA63E1640B372C3F Accuracy: -m0
  Conclusion: CDDA 100%
  Signature: 490C799216F8A0A3DA2DBB969645E67938F7CF14
FILE: 15 Vladimir Bashmakov - I Remember You.flac
  Size: 24503694 Hash: 39768C514C4A4B6C79A6AC967F9AA5B6 Accuracy: -m0
  Conclusion: CDDA 100%
  Signature: 53DBC1AB11B1CF6BAFF64BBDDE378139497C6547
FILE: 14 Planet Perfecto - Bullet In The Gun (Gary Maguire Remix).flac
  Size: 20797327 Hash: D63F5A0122B575855A6F9C60D4E1B18C Accuracy: -m0
  Conclusion: CDDA 100%
  Signature: 3FC74E8FB73EDD5C62FD3FD8A7E83189B03D08E0
FILE: 13 John B & Kirsty Hawkshaw - Connected (Craig Connelly Remix Remix).flac
  Size: 25987283 Hash: 15A43445465C4CDD9C6130FF566D6891 Accuracy: -m0
  Conclusion: CDDA 100%
  Signature: BE57FD339BA64E6A90BCFC41C124E4373DADF327
FILE: 12 Akira Kayosa & Hugh Tolland - Muriwai (Max Graham Remix).flac
  Size: 27605918 Hash: 30B61289500553912E5914A13DB21B8F Accuracy: -m0
  Conclusion: CDDA 100%
  Signature: 26322EFE92082BACA05CCCE74E6AB06DB6992F1A
FILE: 11 Wach presents Oussama Mlaouhia - Abbey (James Dymond Remix).flac
  Size: 26257935 Hash: C5C65444C039A8F43CF78BBEA53D5D86 Accuracy: -m0
  Conclusion: CDDA 100%
  Signature: 7216ECFFEFE08D1BAB4B29F25C0211331B485A3F
FILE: 10 Faruk Sabanci feat. Cami - Awaken.flac
  Size: 19167061 Hash: B28AEA94C84510CAC997762CFDAF7CD3 Accuracy: -m0
  Conclusion: CDDA 99%
  Signature: 4D868EE3DAF54D747052BAD198F06EFBD12EED81
FILE: 09 Store N Forward - Roses (Club Mix).flac
  Size: 18104907 Hash: BAC4DC99C5B0A7FEA5715EB370AD205C Accuracy: -m0
  Conclusion: CDDA 100%
  Signature: 4294DD36D7BC1F923EFA7DC973B6CACA4631FD37
FILE: 08 Ben Gold feat. The Glass Child - Fall With Me.flac
  Size: 19618000 Hash: 0283C50596CD62D359E7D0EC8CFBCAD8 Accuracy: -m0
  Conclusion: CDDA 100%
  Signature: 73DD27C688629FB1D0933D715DA769BBB5725A8C
FILE: 07 York - In The Thunder (Purple Stories Remix).flac
  Size: 24581856 Hash: B7AF0680B36D3201849A9279ADB00170 Accuracy: -m0
  Conclusion: CDDA 42%
  Signature: DDF237201071EC1AD3F7C131305DD36EE64780F7
FILE: 06 Juventa - 405.flac
  Size: 25871138 Hash: 4998A66630C46C030B155F9717A35C23 Accuracy: -m0
  Conclusion: CDDA 100%
  Signature: B5D688645A2C512BA83CA619AFD07D67B683D443
FILE: 05 Aeris feat. Jess Morgan - What Do You Feel (Re-Locate vs Robert Nickson Banging Remix).flac
  Size: 35351815 Hash: 3C99172B5F69170419D4654B80D27FF6 Accuracy: -m0
  Conclusion: CDDA 100%
  Signature: D560A11643F44BE30777C6C964A9DA87BFB42E22
FILE: 04 Andrew Rayel feat. Jano - How Do I Know.flac
  Size: 32165985 Hash: D39457B54348787CF51316406F8ED228 Accuracy: -m0
  Conclusion: CDDA 100%
  Signature: 32D29450C1260D8CAEF26497D60D34CE45E73655
FILE: 03 Gabriel & Dresden feat. Betsie Larkin - Play It Back (Maor Levi Remix).flac
  Size: 24240985 Hash: 079181DB996643DC2255967E331D1DFF Accuracy: -m0
  Conclusion: CDDA 100%
  Signature: 5D5F0D6388B8D2F5426439329383575FF6DC4321
FILE: 02 Rick Mitchells - Sub Zero.flac
  Size: 18332640 Hash: 03B326DE44ABB090E61BE1A30213AD4C Accuracy: -m0
  Conclusion: CDDA 100%
  Signature: 16B649F210BE7D62C8A188ED8F3D3D876CFFD7D7
FILE: 01 Dash Berlin feat. Emma Hewitt - Waiting (W&W Remix).flac
  Size: 20483716 Hash: 9C6B8F972F8AFFD3954E084F35DDA46B Accuracy: -m0
  Conclusion: CDDA 100%
  Signature: 99240192017BA2C93CAF0122B7E346FDB87F67EF
Время раздачи: 24/7

[Цитировать]



Показать сообщения:    

Текущее время: 06-Дек 03:54

Часовой пояс: UTC + 3


Вы не можете начинать темы
Вы не можете отвечать на сообщения
Вы не можете редактировать свои сообщения
Вы не можете удалять свои сообщения
Вы не можете голосовать в опросах
Вы не можете прикреплять файлы к сообщениям
Вы не можете скачивать файлы

!ВНИМАНИЕ!
Сайт не предоставляет электронные версии произведений, а занимается лишь коллекционированием и каталогизацией ссылок, присылаемых и публикуемых на форуме нашими читателями. Если вы являетесь правообладателем какого-либо представленного материала и не желаете, чтобы ссылка на него находилась в нашем каталоге, свяжитесь с нами, и мы незамедлительно удалим ее. Файлы для обмена на трекере предоставлены пользователями сайта, и администрация не несет ответственности за их содержание. Просьба не заливать файлы, защищенные авторскими правами, а также файлы нелегального содержания!