[ Сегодня идет свободное скачивание без начисления Download ]


Статистика раздачи
Нет
 
   
 
Top  
 
 
[sh]VA - Dream Dance Vol. 66 (2013)[/sh]-

Год: 2013
Жанр: Trance
Продолжительность: 03:53:50
Лейбл: Sony Music
Каталог №: 88691921892
Сканы: Комплект
Кодек: FLAC
Битрейт: Lossless
Тип рипа: image+.cue

Трек лист:


Трек лист:
01. Dream Dance Alliance (D.D. Alliance) - Deep Ocean (Edit)
02. Swedish House Mafia - Don't You Worry Child (Radio Edit)
03. Tiesto & Allure - Pair Of Dice (Original Edit)
04. Armin Van Buuren feat. Jan Vayne - Serenity (Andrew Rayel Aether Radio Edit)
05. Dash Berlin Feat. Kate Walsh - When You Were Around
06. Atb With Rudee Feat. Ramona Nerra - In And Out Of Love (Airplay Mix)
07. Cosmic Gate With Emma Hewitt - Calm Down (Radio Edit)
08. Markus Schulz Feat. Ana Diaz - Nothing Without Me (Radio Edit)
09. Ferry Corsten Feat. Betsie Larkin - Not Coming Down (Dash 4am Remix Edit)
10. 4 Strings Feat. Ana Criado - Breathe Life In (Original Mix Edit)
11. Sebastian Ingrosso & Tommy Trash - Reload (Original Instrumental Edit)
12. Scot Project - P (Paradize) (Funk Up Mix Edit)
13. Rank 1 - 7 Insted Of 8 (Original Edit)
14. Andy Moor Feat. Sue Mclaren - Trespass (Antillas & Dankann Radio Edit)
15. The Aston Shuffle Vs Tommy Trash - Sunrise (Won't Get Lost) (Tommy Trash Version)
16. Edx & Nadia Ali - This Is Your Life (Leventina Radio Mix)
17. Sequentia - 5 Years (Radio Edit)
18. Maison & Dragen - Hour Of The Wolf (Radio Edit)
19. Marcel Woods - Guabe (Radio Edit)
20. Holmes & Watson - I Would Fall (Radio Edit)
21. Dabruck & Klein Vs Morgan Page - Liaison (Radio Edit)
Продолжительность: 01:18:24

Отчёт ЕАС:

Exact Audio Copy V1.0 beta 3 from 29. August 2011
Отчёт EAC об извлечении, выполненном 5. января 2013, 13:10
Various / Dream Dance Vol. 66 \ CD 1
Дисковод: HL-DT-STDVDRAM GSA-H10A   Adapter: 0  ID: 1
Режим чтения                 : Достоверность
Использование точного потока : Да
Отключение кэша аудио        : Да
Использование указателей C2  : Нет
Коррекция смещения при чтении                     : 667
Способность читать области Lead-in и Lead-out     : Нет
Заполнение пропущенных сэмплов тишиной            : Да
Удаление блоков с тишиной в начале и конце        : Нет
При вычислениях CRC использовались нулевые сэмплы : Да
Интерфейс                                         : Встроенный Win32-интерфейс для Win NT/2000
Выходной формат          : Пользовательский кодировщик
Выбранный битрейт        : 768 kBit/s
Качество                 : Высокий
Добавление ID3-тега      : Нет
Утилита сжатия           : C:\Program Files\Exact Audio Copy\FLAC\FLAC.EXE
Дополнительные параметры : -6 -V -T "ARTIST=%artist%" -T "TITLE=%title%" -T "ALBUM=%albumtitle%" -T "DATE=%year%" -T "TRACKNUMBER=%tracknr%" -T "GENRE=%genre%" -T "COMMENT=%comment%" -T "BAND=%albuminterpret%" -T "ALBUMARTIST=%albuminterpret%" -T "COMPOSER=%composer%" %haslyrics%--tag-from-file=LYRICS="%lyricsfile%"%haslyrics% -T "DISCNUMBER=%cdnumber%" -T "TOTALDISCS=%totalcds%" -T "TOTALTRACKS=%numtracks%" %hascover%--picture="%coverfile%"%hascover% %source% -o %dest%
TOC извлечённого CD
     Трек |   Старт  | Длительность | Начальный сектор | Конечный сектор
    ---------------------------------------------------------------------
       1  |  0:00.00 |    3:41.27   |           0      |      16601
       2  |  3:41.27 |    3:32.03   |       16602      |      32504
       3  |  7:13.30 |    3:05.26   |       32505      |      46405
       4  | 10:18.56 |    3:57.17   |       46406      |      64197
       5  | 14:15.73 |    2:59.37   |       64198      |      77659
       6  | 17:15.35 |    3:33.61   |       77660      |      93695
       7  | 20:49.21 |    3:33.68   |       93696      |     109738
       8  | 24:23.14 |    4:30.20   |      109739      |     130008
       9  | 28:53.34 |    4:25.36   |      130009      |     149919
      10  | 33:18.70 |    3:32.42   |      149920      |     165861
      11  | 36:51.37 |    3:27.30   |      165862      |     181416
      12  | 40:18.67 |    3:31.33   |      181417      |     197274
      13  | 43:50.25 |    3:46.10   |      197275      |     214234
      14  | 47:36.35 |    3:53.28   |      214235      |     231737
      15  | 51:29.63 |    5:52.69   |      231738      |     258206
      16  | 57:22.57 |    3:54.61   |      258207      |     275817
      17  | 61:17.43 |    3:38.73   |      275818      |     292240
      18  | 64:56.41 |    3:45.03   |      292241      |     309118
      19  | 68:41.44 |    3:05.71   |      309119      |     323064
      20  | 71:47.40 |    3:22.26   |      323065      |     338240
      21  | 75:09.66 |    3:14.14   |      338241      |     352804
Характеристики диапазона извлечения и сообщения об ошибках
Выбранный диапазон
     Имя файла D:\Раздачи\Dream_Dance_Vol_1_66_1996_2013_[(стерилизуемый трекер).org]\Dream Dance 66\CD1\Various - Dream Dance Vol. 66 - CD 1.wav
     Пиковый уровень 100.0 %
     Скорость извлечения 2.6 X
     Качество диапазона 99.9 %
     CRC теста 24883FDC
     CRC копии 24883FDC
     Копирование... OK
Ошибок не произошло
AccurateRip: сводка
Трек  1  отсутствует в базе данных
Трек  2  отсутствует в базе данных
Трек  3  отсутствует в базе данных
Трек  4  отсутствует в базе данных
Трек  5  отсутствует в базе данных
Трек  6  отсутствует в базе данных
Трек  7  отсутствует в базе данных
Трек  8  отсутствует в базе данных
Трек  9  отсутствует в базе данных
Трек 10  отсутствует в базе данных
Трек 11  отсутствует в базе данных
Трек 12  отсутствует в базе данных
Трек 13  отсутствует в базе данных
Трек 14  отсутствует в базе данных
Трек 15  отсутствует в базе данных
Трек 16  отсутствует в базе данных
Трек 17  отсутствует в базе данных
Трек 18  отсутствует в базе данных
Трек 19  отсутствует в базе данных
Трек 20  отсутствует в базе данных
Трек 21  отсутствует в базе данных
Ни одного трека нет в базе AccurateRip
Конец отчёта
==== Контрольная сумма отчёта DC984C02FDDE8D6F33E0BFE8331AF886645A71E856FCAF702415D6B8A3275A0E ====

Отчёт auCDtect Task manager:

-----------------------
DON'T MODIFY THIS FILE
-----------------------
PERFORMER: auCDtect Task Manager, ver. 1.5.1RC6 build 1.5.1.7
Copyright (c) 2008-2010 y-soft. All rights reserved
http://y-soft.org
ANALYZER: auCDtect: CD records authenticity detector, version 0.8.2
Copyright (c) 2004 Oleg Berngardt. All rights reserved.
Copyright (c) 2004 Alexander Djourik. All rights reserved.
FILE: Various - Dream Dance Vol. 66 - CD 1.flac
  Size: 628957375 Hash: EDA42896D126B7EFA37CCA6E996653C7 Accuracy: -m0
  Conclusion: CDDA 100%
  Signature: 5614B468D8F11314C496FCA73573245CB21E385A


Трек лист:
01. DJ Shog - Another World (10 Years) (CJ Stone Vocal Edit)
02. Pulsedriver - Bring It On Down (Vocal Edit)
03. Rocco & Bass-T - My Heart Beats For The Night (Radio Edit)
04. Brooklyn Bounce & Giorno - Raving (G! Mix Edit)
05. Basslovers United - Undeniable (Scoon & Delore Remix Edit)
06. Cc.K Meets Scoon & Delore - Human Kind (Cc.K Mix Edit)
07. Scooter - Too Much Silence (Album Edit)
08. Megara Vs DJ Lee - Legacy (Club Edit)
09. Jack Holiday & Mike Candys - The Riddle Anthem
10. Leuchtturm Feat. Sandberg - Lichtreise (Original Kurzmischung)
11. Desh - L.O.V.E. (Edit)
12. Sem Thomasson Feat. Rama Writes - Nobody (Like Me) (Regi Radio Mix)
13. Other Ego - Lights (Ole Van Dansk Remix Edit)
14. Ehrencrona - Crossfire (Radio Edit)
15. Peter Aristone Ft Stonebridge & Matt Joko - Crash & Burn (Radio Edit)
16. Andy Jay Powell & Mike Nero - Life On Line (Festival Edit)
17. Sunset Project Vs. Sem - Partyfreaks (Single Edit)
18. Dj Kryst-Off & Money-G / Shaun Baker - Music Is My Life (Mg Traxx Mix Edit)
19. Alex Megane - Turn Me On (Newdance Edit)
20. Komo Feat. Sara - Keep On Moving On (Radio Edit)
21. Hornyshakerz Feat. De Vision - Time To Be Alive 2012 (Gordon & Doyle Remix Edit)
22. Marc Van Linden Feat. Shena - There's Nothing I Won't Do
Продолжительность: 01:16:08

Отчёт ЕАС:

Exact Audio Copy V1.0 beta 3 from 29. August 2011
Отчёт EAC об извлечении, выполненном 5. января 2013, 14:34
Various / Dream Dance Vol. 66 \ CD 2
Дисковод: HL-DT-STDVDRAM GSA-H10A   Adapter: 0  ID: 1
Режим чтения                 : Достоверность
Использование точного потока : Да
Отключение кэша аудио        : Да
Использование указателей C2  : Нет
Коррекция смещения при чтении                     : 667
Способность читать области Lead-in и Lead-out     : Нет
Заполнение пропущенных сэмплов тишиной            : Да
Удаление блоков с тишиной в начале и конце        : Нет
При вычислениях CRC использовались нулевые сэмплы : Да
Интерфейс                                         : Встроенный Win32-интерфейс для Win NT/2000
Выходной формат          : Пользовательский кодировщик
Выбранный битрейт        : 768 kBit/s
Качество                 : Высокий
Добавление ID3-тега      : Нет
Утилита сжатия           : C:\Program Files\Exact Audio Copy\FLAC\FLAC.EXE
Дополнительные параметры : -6 -V -T "ARTIST=%artist%" -T "TITLE=%title%" -T "ALBUM=%albumtitle%" -T "DATE=%year%" -T "TRACKNUMBER=%tracknr%" -T "GENRE=%genre%" -T "COMMENT=%comment%" -T "BAND=%albuminterpret%" -T "ALBUMARTIST=%albuminterpret%" -T "COMPOSER=%composer%" %haslyrics%--tag-from-file=LYRICS="%lyricsfile%"%haslyrics% -T "DISCNUMBER=%cdnumber%" -T "TOTALDISCS=%totalcds%" -T "TOTALTRACKS=%numtracks%" %hascover%--picture="%coverfile%"%hascover% %source% -o %dest%
TOC извлечённого CD
     Трек |   Старт  | Длительность | Начальный сектор | Конечный сектор
    ---------------------------------------------------------------------
       1  |  0:00.00 |    3:15.73   |           0      |      14697
       2  |  3:15.73 |    3:33.41   |       14698      |      30713
       3  |  6:49.39 |    3:10.03   |       30714      |      44966
       4  |  9:59.42 |    3:16.49   |       44967      |      59715
       5  | 13:16.16 |    4:06.72   |       59716      |      78237
       6  | 17:23.13 |    3:46.63   |       78238      |      95250
       7  | 21:10.01 |    3:46.31   |       95251      |     112231
       8  | 24:56.32 |    3:33.56   |      112232      |     128262
       9  | 28:30.13 |    2:52.21   |      128263      |     141183
      10  | 31:22.34 |    3:33.26   |      141184      |     157184
      11  | 34:55.60 |    3:12.70   |      157185      |     171654
      12  | 38:08.55 |    3:43.30   |      171655      |     188409
      13  | 41:52.10 |    3:08.67   |      188410      |     202576
      14  | 45:01.02 |    3:36.39   |      202577      |     218815
      15  | 48:37.41 |    3:08.09   |      218816      |     232924
      16  | 51:45.50 |    3:45.55   |      232925      |     249854
      17  | 55:31.30 |    3:16.42   |      249855      |     264596
      18  | 58:47.72 |    3:56.60   |      264597      |     282356
      19  | 62:44.57 |    2:47.60   |      282357      |     294941
      20  | 65:32.42 |    3:25.46   |      294942      |     310362
      21  | 68:58.13 |    3:43.66   |      310363      |     327153
      22  | 72:42.04 |    3:26.24   |      327154      |     342627
Характеристики диапазона извлечения и сообщения об ошибках
Выбранный диапазон
     Имя файла D:\Раздачи\Dream_Dance_Vol_1_66_1996_2013_[(стерилизуемый трекер).org]\Dream Dance 66\CD2\Various - Dream Dance Vol. 66 - CD 2.wav
     Пиковый уровень 100.0 %
     Скорость извлечения 5.4 X
     Качество диапазона 100.0 %
     CRC теста E88012F8
     CRC копии E88012F8
     Копирование... OK
Ошибок не произошло
AccurateRip: сводка
Трек  1  отсутствует в базе данных
Трек  2  отсутствует в базе данных
Трек  3  отсутствует в базе данных
Трек  4  отсутствует в базе данных
Трек  5  отсутствует в базе данных
Трек  6  отсутствует в базе данных
Трек  7  отсутствует в базе данных
Трек  8  отсутствует в базе данных
Трек  9  отсутствует в базе данных
Трек 10  отсутствует в базе данных
Трек 11  отсутствует в базе данных
Трек 12  отсутствует в базе данных
Трек 13  отсутствует в базе данных
Трек 14  отсутствует в базе данных
Трек 15  отсутствует в базе данных
Трек 16  отсутствует в базе данных
Трек 17  отсутствует в базе данных
Трек 18  отсутствует в базе данных
Трек 19  отсутствует в базе данных
Трек 20  отсутствует в базе данных
Трек 21  отсутствует в базе данных
Трек 22  отсутствует в базе данных
Ни одного трека нет в базе AccurateRip
Конец отчёта
==== Контрольная сумма отчёта BF1EE1DDE146A5BAD9745C59E47FB5916824478CB6E04740321DC996000AC95E ====

Отчёт auCDtect Task manager:

-----------------------
DON'T MODIFY THIS FILE
-----------------------
PERFORMER: auCDtect Task Manager, ver. 1.5.1RC6 build 1.5.1.7
Copyright (c) 2008-2010 y-soft. All rights reserved
http://y-soft.org
ANALYZER: auCDtect: CD records authenticity detector, version 0.8.2
Copyright (c) 2004 Oleg Berngardt. All rights reserved.
Copyright (c) 2004 Alexander Djourik. All rights reserved.
FILE: Various - Dream Dance Vol. 66 - CD 2.flac
  Size: 617509020 Hash: 5CA803661B362A5BC074BD34743283E6 Accuracy: -m0
  Conclusion: CDDA 100%
  Signature: CBE27A8E9469C19F7160E9CC8E8A87DDFFB95145


Трек лист:
01. Christian Burns, Paul Oakenfold & Jes - As We Collide (Radio Edit)
02. Estiva & Cardinal Feat. Arielle Maren - Wait Forever (Radio Edit)
03. Aruna - Save The Day (Myon & Shane 54 Summer Of Love Radio Edit)
04. Steve Brian & David Berkeley - George Square (San Ko Radio Edit)
05. Giuseppe Ottaviani Feat. Amba Shepherd - Lost For Words (Radio Edit)
06. Roger Shah Feat. Thorpe, Adrina - Island (Antillas Vocal Edit)
07. Burns / Laura Welsh - Lies (Otto Knows Remix)
08. Talla 2xlc Feat. Skye - Rise
09. Lange - We Are Lucky People (Radio Edit)
10. Ecotek & James Egbert Feat. Laura Brehm - Love Will Carry Us (Original Radio Mix)
11. Letthemusicplay Feat. Utrb - All I Can Give You (Ashley Wallbridge Radio Edit)
12. Ddz - Shiftiness (Radio Edit)
13. Cold Rush - Bullet (Radio Edit)
14. Trance Arts Feat. Carie - I Feel Alive (Original Edit)
15. Kimura Feat. Dee Dee - The Chosen (Cold Rush Remix Edit)
16. Juventa - 405 (Radio Edit)
17. Raven & Kleekamp - Destination (Original Edit)
18. Gary Maguire & Stereo Wildlife - Always Different (Original Edit)
19. Danny Fervent - Daydream (Original Edit)
20. Dj Snowman - Music Experience (Radio Mix)
21. Space Raven - Paragraph To Elya (Original Mix)
Продолжительность: 01:19:18

Отчёт ЕАС:

Exact Audio Copy V1.0 beta 3 from 29. August 2011
Отчёт EAC об извлечении, выполненном 5. января 2013, 15:47
Various / Dream Dance Vol. 66 \ CD 3
Дисковод: HL-DT-STDVDRAM GSA-H10A   Adapter: 0  ID: 1
Режим чтения                 : Достоверность
Использование точного потока : Да
Отключение кэша аудио        : Да
Использование указателей C2  : Нет
Коррекция смещения при чтении                     : 667
Способность читать области Lead-in и Lead-out     : Нет
Заполнение пропущенных сэмплов тишиной            : Да
Удаление блоков с тишиной в начале и конце        : Нет
При вычислениях CRC использовались нулевые сэмплы : Да
Интерфейс                                         : Встроенный Win32-интерфейс для Win NT/2000
Выходной формат          : Пользовательский кодировщик
Выбранный битрейт        : 768 kBit/s
Качество                 : Высокий
Добавление ID3-тега      : Нет
Утилита сжатия           : C:\Program Files\Exact Audio Copy\FLAC\FLAC.EXE
Дополнительные параметры : -6 -V -T "ARTIST=%artist%" -T "TITLE=%title%" -T "ALBUM=%albumtitle%" -T "DATE=%year%" -T "TRACKNUMBER=%tracknr%" -T "GENRE=%genre%" -T "COMMENT=%comment%" -T "BAND=%albuminterpret%" -T "ALBUMARTIST=%albuminterpret%" -T "COMPOSER=%composer%" %haslyrics%--tag-from-file=LYRICS="%lyricsfile%"%haslyrics% -T "DISCNUMBER=%cdnumber%" -T "TOTALDISCS=%totalcds%" -T "TOTALTRACKS=%numtracks%" %hascover%--picture="%coverfile%"%hascover% %source% -o %dest%
TOC извлечённого CD
     Трек |   Старт  | Длительность | Начальный сектор | Конечный сектор
    ---------------------------------------------------------------------
       1  |  0:00.00 |    3:26.06   |           0      |      15455
       2  |  3:26.06 |    3:58.15   |       15456      |      33320
       3  |  7:24.21 |    3:43.55   |       33321      |      50100
       4  | 11:08.01 |    3:58.70   |       50101      |      68020
       5  | 15:06.71 |    3:45.10   |       68021      |      84905
       6  | 18:52.06 |    4:53.46   |       84906      |     106926
       7  | 23:45.52 |    6:19.40   |      106927      |     135391
       8  | 30:05.17 |    3:08.37   |      135392      |     149528
       9  | 33:13.54 |    3:36.61   |      149529      |     165789
      10  | 36:50.40 |    2:44.65   |      165790      |     178154
      11  | 39:35.30 |    3:28.21   |      178155      |     193775
      12  | 43:03.51 |    3:50.69   |      193776      |     211094
      13  | 46:54.45 |    3:51.40   |      211095      |     228459
      14  | 50:46.10 |    3:42.34   |      228460      |     245143
      15  | 54:28.44 |    4:07.29   |      245144      |     263697
      16  | 58:35.73 |    3:53.11   |      263698      |     281183
      17  | 62:29.09 |    3:06.73   |      281184      |     295206
      18  | 65:36.07 |    3:35.11   |      295207      |     311342
      19  | 69:11.18 |    3:28.08   |      311343      |     326950
      20  | 72:39.26 |    3:01.74   |      326951      |     340599
      21  | 75:41.25 |    3:36.50   |      340600      |     356849
Характеристики диапазона извлечения и сообщения об ошибках
Выбранный диапазон
     Имя файла D:\Раздачи\Dream_Dance_Vol_1_66_1996_2013_[(стерилизуемый трекер).org]\Dream Dance 66\CD3\Various - Dream Dance Vol. 66 - CD 3.wav
     Пиковый уровень 100.0 %
     Скорость извлечения 4.1 X
     Качество диапазона 100.0 %
     CRC теста 4FD6A22F
     CRC копии 4FD6A22F
     Копирование... OK
Ошибок не произошло
AccurateRip: сводка
Трек  1  отсутствует в базе данных
Трек  2  отсутствует в базе данных
Трек  3  отсутствует в базе данных
Трек  4  отсутствует в базе данных
Трек  5  отсутствует в базе данных
Трек  6  отсутствует в базе данных
Трек  7  отсутствует в базе данных
Трек  8  отсутствует в базе данных
Трек  9  отсутствует в базе данных
Трек 10  отсутствует в базе данных
Трек 11  отсутствует в базе данных
Трек 12  отсутствует в базе данных
Трек 13  отсутствует в базе данных
Трек 14  отсутствует в базе данных
Трек 15  отсутствует в базе данных
Трек 16  отсутствует в базе данных
Трек 17  отсутствует в базе данных
Трек 18  отсутствует в базе данных
Трек 19  отсутствует в базе данных
Трек 20  отсутствует в базе данных
Трек 21  отсутствует в базе данных
Ни одного трека нет в базе AccurateRip
Конец отчёта
==== Контрольная сумма отчёта 3DBA5C46743A3517E80CE46D18812D0B27BF79D6513C05F0916B5736DB278CA2 ====

Отчёт auCDtect Task manager:

-----------------------
DON'T MODIFY THIS FILE
-----------------------
PERFORMER: auCDtect Task Manager, ver. 1.5.1RC6 build 1.5.1.7
Copyright (c) 2008-2010 y-soft. All rights reserved
http://y-soft.org
ANALYZER: auCDtect: CD records authenticity detector, version 0.8.2
Copyright (c) 2004 Oleg Berngardt. All rights reserved.
Copyright (c) 2004 Alexander Djourik. All rights reserved.
FILE: Various - Dream Dance Vol. 66 - CD 3.flac
  Size: 636804512 Hash: AEAFF74E63345894E11164383EE7EAA0 Accuracy: -m0
  Conclusion: CDDA 100%
  Signature: F7EF89264B9FF35F349BF36F305109FFACA08B8E
Время раздачи: 24/7

[Цитировать]

Подскажите,а как FLAC на болванку записать,чтоб в машине слушать?

[Цитировать]



Показать сообщения:    

Текущее время: 10-Дек 15:41

Часовой пояс: UTC + 3


Вы не можете начинать темы
Вы не можете отвечать на сообщения
Вы не можете редактировать свои сообщения
Вы не можете удалять свои сообщения
Вы не можете голосовать в опросах
Вы не можете прикреплять файлы к сообщениям
Вы не можете скачивать файлы

!ВНИМАНИЕ!
Сайт не предоставляет электронные версии произведений, а занимается лишь коллекционированием и каталогизацией ссылок, присылаемых и публикуемых на форуме нашими читателями. Если вы являетесь правообладателем какого-либо представленного материала и не желаете, чтобы ссылка на него находилась в нашем каталоге, свяжитесь с нами, и мы незамедлительно удалим ее. Файлы для обмена на трекере предоставлены пользователями сайта, и администрация не несет ответственности за их содержание. Просьба не заливать файлы, защищенные авторскими правами, а также файлы нелегального содержания!