[ Сегодня идет свободное скачивание без начисления Download ]


Статистика раздачи
Нет
 
   
 
Top  
 
 
[sh]Американский психопат / American Psycho[/sh]- -[sh]Русское название:[/sh] Американский психопат
[sh]Оригинальное название:[/sh] American Psycho
[sh]Год выпуска:[/sh] 2000
[sh]Производство:[/sh] США
[sh]Жанр:[/sh] Криминал, Драма-[sh]Перевод:[/sh] Многоголосый закадровый, Одноголосый
[sh]Вид субтитров:[/sh] Вшитые отключаемые
[sh]Язык субтитров:[/sh] Русский-[sh]Режиссер:[/sh] Мэри Хэррон
[sh]Актеры:[/sh] Кристиан Бэйл, Уиллем Дефо, Джош Лукас, Риз Уизерспун, Кэра Сеймур, Джастин Теру, Джаред Лето, Клоэ Севиньи, Саманта Мэтис, Мэтт Росс-[sh]Описание фильма:[/sh]
Днем он ничем не отличается от окружающих, и в толпе вы не обратите на него внимания. Но ночью этот благовоспитанный гражданин превращается в изощренного убийцу, терроризирующего спящий город. Современный дикарь, презирающий законы человечества, питается только испепеляющим пламенем своей ненависти, которая растет с каждым новым преступлением. Лавина ужаса приближается к критической черте. Скоро наступит момент, когда ее уже нельзя будет остановить.- -[sh]Дата мировой премьеры:[/sh] 21 января 2000
[sh]Дата выхода DVD релиза:[/sh] 11 ноября 2010, «Columbia/Sony»
[sh]Дата выхода Blu-Ray релиза:[/sh] 26 февраля 2009, «Columbia/Sony»-[sh]Продолжительность:[/sh] 01:42:02
[sh]Качество видео:[/sh] BDRip [1080p]
[sh]Видеокодек:[/sh] MPEG-4 AVC/H.264
[sh]Видео:[/sh] 1920x816, ~9894 Кбит/с
[sh]Аудио 1:[/sh] AC3, 6 ch, 640 Кбит/с (Многоголосый, BD CEE)
[sh]Аудио 2:[/sh] AC3, 6 ch, 448 Кбит/с (Многоголосый, D2Lab)
[sh]Аудио 3:[/sh] AC3, 6 ch, 448 Кбит/с (Одноголосый, Иванов)
[sh]Аудио 4:[/sh] DTS, 6 ch, 1510 Кбит/с (Оригинал, Английский)
-

MediaInfo:

Общее
Уникальный идентификатор : 192219254162088085464266230152164502903 (0x909C14ED6D6A230DA61F836FA8A36D77)
Полное имя : Amerikanskij.psihopat.2000.BDRip.1080p.mkv
Формат : Matroska
Версия формата : Version 2
Размер файла : 9,22 Гбайт
Продолжительность : 1 ч. 42 м.
Общий поток : 12,9 Мбит/сек
Название фильма : ReJIiZ by BenderBEST
Дата кодирования : UTC 2012-10-02 12:39:43
Программа кодирования : mkvmerge v5.6.0 ('Kenya Kane') built on May 27 2012 16:44:04
Библиотека кодирования : libebml v1.2.3 + libmatroska v1.3.0
Видео
Идентификатор : 1
Формат : AVC
Формат/Информация : Advanced Video Codec
Профиль формата : [email protected]
Параметр CABAC формата : Да
Параметр ReFrames формата : 5 кадров
Идентификатор кодека : V_MPEG4/ISO/AVC
Продолжительность : 1 ч. 42 м.
Битрейт : 9894 Кбит/сек
Ширина : 1920 пикселей
Высота : 816 пикселей
Соотношение сторон : 2,35:1
Частота кадров : 23,976 кадра/сек
Цветовое пространство : YUV
Субдискретизация насыщенности : 4:2:0
Битовая глубина : 8 бит
Тип развёртки : Прогрессивная
Бит/(Пиксели*Кадры) : 0.263
Размер потока : 6,87 Гбайт (74%)
Библиотека кодирования : x264 core 76 r1271 496d79d
Настройки программы : cabac=1 / ref=5 / deblock=1:-3:-3 / analyse=0x3:0x113 / me=umh / subme=9 / psy=1 / psy_rd=1.0:0.0 / mixed_ref=1 / me_range=32 / chroma_me=1 / trellis=0 / 8x8dct=1 / cqm=0 / deadzone=6,6 / chroma_qp_offset=-2 / threads=3 / nr=0 / decimate=0 / mbaff=0 / bframes=8 / b_pyramid=0 / b_adapt=2 / b_bias=0 / direct=1 / wpredb=1 / keyint=250 / keyint_min=25 / scenecut=40 / rc=2pass / mbtree=0 / bitrate=9894 / ratetol=1.0 / qcomp=1.00 / qpmin=10 / qpmax=51 / qpstep=4 / cplxblur=20.0 / qblur=0.5 / ip_ratio=1.40 / pb_ratio=1.30 / aq=1:0.97
Язык : English
Default : Да
Forced : Нет
Коэффициенты матрицы : BT.709-5, BT.1361, IEC 61966-2-4 709, SMPTE RP177
Аудио #1
Идентификатор : 2
Формат : AC-3
Формат/Информация : Audio Coding 3
Расширение режима : CM (complete main)
Идентификатор кодека : A_AC3
Продолжительность : 1 ч. 42 м.
Вид битрейта : Постоянный
Битрейт : 640 Кбит/сек
Каналы : 6 каналов
Расположение каналов : Front: L C R, Side: L R, LFE
Частота : 48,0 КГц
Битовая глубина : 16 бит
Метод сжатия : С потерями
Размер потока : 467 Мбайт (5%)
Заголовок : BD CEE
Язык : Russian
Default : Да
Forced : Нет
Аудио #2
Идентификатор : 3
Формат : AC-3
Формат/Информация : Audio Coding 3
Расширение режима : CM (complete main)
Идентификатор кодека : A_AC3
Продолжительность : 1 ч. 42 м.
Вид битрейта : Постоянный
Битрейт : 448 Кбит/сек
Каналы : 6 каналов
Расположение каналов : Front: L C R, Side: L R, LFE
Частота : 48,0 КГц
Битовая глубина : 16 бит
Метод сжатия : С потерями
Размер потока : 327 Мбайт (3%)
Заголовок : D2Lab
Язык : Russian
Default : Нет
Forced : Нет
Аудио #3
Идентификатор : 4
Формат : AC-3
Формат/Информация : Audio Coding 3
Расширение режима : CM (complete main)
Идентификатор кодека : A_AC3
Продолжительность : 1 ч. 42 м.
Вид битрейта : Постоянный
Битрейт : 448 Кбит/сек
Каналы : 6 каналов
Расположение каналов : Front: L C R, Side: L R, LFE
Частота : 48,0 КГц
Битовая глубина : 16 бит
Метод сжатия : С потерями
Размер потока : 327 Мбайт (3%)
Заголовок : Иванов
Язык : Russian
Default : Нет
Forced : Нет
Аудио #4
Идентификатор : 5
Формат : DTS
Формат/Информация : Digital Theater Systems
Идентификатор кодека : A_DTS
Продолжительность : 1 ч. 42 м.
Вид битрейта : Постоянный
Битрейт : 1510 Кбит/сек
Каналы : 6 каналов
Расположение каналов : Front: L C R, Side: L R, LFE
Частота : 48,0 КГц
Битовая глубина : 24 бит
Метод сжатия : С потерями
Размер потока : 1,08 Гбайт (12%)
Язык : English
Default : Нет
Forced : Нет
Текст
Идентификатор : 6
Формат : UTF-8
Идентификатор кодека : S_TEXT/UTF8
Идентификатор кодека/Информация : UTF-8 Plain Text
Язык : Russian
Default : Да
Forced : Нет
Меню
00:00:00.000 : en:Main Titles/ Dinner and Dancing
00:04:42.067 : en:My Name Is Patrick Bateman
00:09:06.234 : en:Traditional Moral Values
00:15:14.668 : en:Calling Cards
00:20:07.235 : en:Mask of Sanity
00:24:47.268 : en:Hip to Be Square
00:31:16.169 : en:Detective Kimball
00:37:03.503 : en:Making Plans
00:40:04.070 : en:In Too Deep
00:45:23.771 : en:Card Envy
00:49:36.538 : en:Returning Videotapes
00:51:53.406 : en:Can We Talk?
00:55:18.906 : en:Murders & Executions
00:59:26.039 : en:So Many Possibilities
01:04:55.673 : en:Discussing Alibis
01:09:10.007 : en:Totally Disease Free
01:12:21.274 : en:Greatest Love of All
01:15:30.041 : en:Erratic Behavior
01:18:28.942 : en:Shooting Spree
01:21:48.009 : en:A Pretty Sick Guy
01:24:55.710 : en:Paul's Apartment
01:30:10.110 : en:Simply Not Possible
01:34:16.011 : en:No Catharsis
01:36:59.178 : en:End Credits

Знаете ли вы, что...

-- Когда ролью Бэйтмана заинтересовался Леонардо ДиКаприо, бюджет фильма резко вырос, а из проекта попросили уйти не только Кристиана Бэйла, но и режиссера Мэри Хэррон. К счастью, ДиКаприо убедили не подавать этой ролью дурной пример своим многочисленным поклонникам, и Бэйл с Хэррон вернулись в проект.
-- К проекту также долгое время проявлял интерес Оливер Стоун.
-- Роль Бэйтмана также предлагали Эдварду Нортону.
-- Дэвид Кроненберг был не прочь снять фильм, если бы главную роль сыграл Брэд Питт, а сценарий написал бы сам Эллис.
-- Бэйтман упоминает имя некоего Клиффа Хакстэйбла. Это имя героя Билла Косби в сериале «Шоу Косби».
-- Бэйтман работает в вымышленной фирме «Пирс и Пирс». В этой же фирме работал Шерман МакКой из «Костра тщеславия» (1990).
-- По телевизору Бэйтмана показывают «Техасскую резню бензопилой» (1974) Тоуба Хупера.
-- Бэйтман также смотрит порнофильм «Белый ангел» (1998).
-- Бэйтман рассказывает по телефону своему юристу о событиях, которые имели место в романе Эллиса, но не в самом фильме.
-- На всех визитных карточках в фильмах можно прочитать одну и ту же должность — вице-президент.
-- Группа канадских активистов в Торонто добивалась запрета фильма, поскольку чуть ранее здесь состоялся процесс над серийным убийцей Полом Бернардо, который заявил, что на убийства его вдохновлял роман Эллиса.
-- Главной претензией, которую предъявляли к фильму поклонники романа, было то, что Мэри Хэррон заставила сомневаться зрителей в том, что убийства Бэйтмана произошли на самом деле, а не оказались только фантазиями его больного разума (в романе этого не было).
-- Несмотря на то, что действие картины разворачивается в 1987 году, Рональд Рейган выступает в конце фильма по телевизору «Sony Trinitron» модели конца 90-х годов.
Скриншоты:


Время раздачи: Обычно с 19:00 до 00:00

[Цитировать]



Показать сообщения:    

Текущее время: 05-Дек 07:31

Часовой пояс: UTC + 3


Вы не можете начинать темы
Вы не можете отвечать на сообщения
Вы не можете редактировать свои сообщения
Вы не можете удалять свои сообщения
Вы не можете голосовать в опросах
Вы не можете прикреплять файлы к сообщениям
Вы не можете скачивать файлы

!ВНИМАНИЕ!
Сайт не предоставляет электронные версии произведений, а занимается лишь коллекционированием и каталогизацией ссылок, присылаемых и публикуемых на форуме нашими читателями. Если вы являетесь правообладателем какого-либо представленного материала и не желаете, чтобы ссылка на него находилась в нашем каталоге, свяжитесь с нами, и мы незамедлительно удалим ее. Файлы для обмена на трекере предоставлены пользователями сайта, и администрация не несет ответственности за их содержание. Просьба не заливать файлы, защищенные авторскими правами, а также файлы нелегального содержания!