[ Today is free to download without increasing Download ]

DL-List and Torrent activity
Муха-Цокотуха Год выпуска: 1960
Страна: СССР
Производство: Союзмультфильм
Жанр: мультфильм, короткометражка
Режиссер: Владимир Сутеев
В ролях: Светлана Суховей, Сергей Журавель, Геннадий Овсянников
Перевод: Не требуется
Субтитры: Отсутствуют
Описание: Экранизация одноимённой стихотворной сказки К. Чуковского о том, как Муха-Цокотуха нашла денежку, купила самовар и праздновала свои именины. В разгар веселья Муху похищает страшный Паук...
Качество: DVDRip
Продолжительность: 00:09:58
Формат: AVI
Видео кодек: XviD
Аудио кодек: AC3
Видео: 720x540 (1.33:1), 25 fps, XviD, ~2737 kbps avg, 0.28 bit/pixel
Аудио: 48 kHz, MP3, 2 ch, ~192 kbps avg

Media Info

Complete name                    : D:\Users\Ерулан\Desktop\торренты\муха-цокотуха\Muha-Tzokotuha.avi
Format                           : AVI
Format/Info                      : Audio Video Interleave
File size                        : 210 MiB
Duration                         : 9mn 58s
Overall bit rate                 : 2 940 Kbps
Writing application              : VirtualDubMod (build 2542/release)
Writing library                  : VirtualDubMod build 2542/release
ID                               : 0
Format                           : MPEG-4 Visual
Format profile                   : AdvancedSimple@L5
Format settings, BVOP            : Yes
Format settings, QPel            : No
Format settings, GMC             : No warppoints
Format settings, Matrix          : Default (H.263)
Muxing mode                      : Packed bitstream
Codec ID                         : XVID
Codec ID/Hint                    : XviD
Duration                         : 9mn 58s
Bit rate                         : 2 738 Kbps
Width                            : 720 pixels
Height                           : 540 pixels
Display aspect ratio             : 4:3
Frame rate                       : 25.000 fps
Resolution                       : 24 bits
Colorimetry                      : 4:2:0
Scan type                        : Progressive
Bits/(Pixel*Frame)               : 0.282
Stream size                      : 195 MiB (93%)
Writing library                  : XviD 1.1.2 (UTC 2006-11-01)
ID                               : 1
Format                           : AC-3
Format/Info                      : Audio Coding 3
Codec ID                         : 2000
Duration                         : 9mn 58s
Bit rate mode                    : Constant
Bit rate                         : 192 Kbps
Channel(s)                       : 2 channels
Channel positions                : L R
Sampling rate                    : 48.0 KHz
Stream size                      : 13.7 MiB (7%)
Alignment                        : Aligned on interleaves
Interleave, duration             : 40 ms (1.00 video frame)
Interleave, preload duration     : 512 ms



Display posts:    

Current time is: 22-Oct 02:41

All times are UTC + 3

You cannot post new topics in this forum
You cannot reply to topics in this forum
You cannot edit your posts in this forum
You cannot delete your posts in this forum
You cannot vote in polls in this forum
You cannot attach files in this forum
You cannot download files in this forum

The site does not give electronic versions of products, and is engaged only in a collecting and cataloguing of the references sent and published at a forum by our readers. If you are the legal owner of any submitted material and do not wish that the reference to it was in our catalogue, contact us and we shall immediately remove her. Files for an exchange on tracker are given by users of a site, and the administration does not bear the responsibility for their maintenance. The request to not fill in the files protected by copyrights, and also files of the illegal maintenance!