[ Сегодня идет свободное скачивание без начисления Download ]


Статистика раздачи
Нет
 
   
 
Top  
 
 
Муха-Цокотуха Год выпуска: 1960
Страна: СССР
Производство: Союзмультфильм
Жанр: мультфильм, короткометражка
Режиссер: Владимир Сутеев
В ролях: Светлана Суховей, Сергей Журавель, Геннадий Овсянников
Перевод: Не требуется
Субтитры: Отсутствуют
Описание: Экранизация одноимённой стихотворной сказки К. Чуковского о том, как Муха-Цокотуха нашла денежку, купила самовар и праздновала свои именины. В разгар веселья Муху похищает страшный Паук...
[kp]585267[/kp]
Качество: DVDRip
Продолжительность: 00:09:58
Формат: AVI
Видео кодек: XviD
Аудио кодек: AC3
Видео: 720x540 (1.33:1), 25 fps, XviD, ~2737 kbps avg, 0.28 bit/pixel
Аудио: 48 kHz, MP3, 2 ch, ~192 kbps avg

Media Info

General
Complete name                    : D:\Users\Ерулан\Desktop\торренты\муха-цокотуха\Muha-Tzokotuha.avi
Format                           : AVI
Format/Info                      : Audio Video Interleave
File size                        : 210 MiB
Duration                         : 9mn 58s
Overall bit rate                 : 2 940 Kbps
Writing application              : VirtualDubMod 1.5.10.2 (build 2542/release)
Writing library                  : VirtualDubMod build 2542/release
Video
ID                               : 0
Format                           : MPEG-4 Visual
Format profile                   : AdvancedSimple@L5
Format settings, BVOP            : Yes
Format settings, QPel            : No
Format settings, GMC             : No warppoints
Format settings, Matrix          : Default (H.263)
Muxing mode                      : Packed bitstream
Codec ID                         : XVID
Codec ID/Hint                    : XviD
Duration                         : 9mn 58s
Bit rate                         : 2 738 Kbps
Width                            : 720 pixels
Height                           : 540 pixels
Display aspect ratio             : 4:3
Frame rate                       : 25.000 fps
Resolution                       : 24 bits
Colorimetry                      : 4:2:0
Scan type                        : Progressive
Bits/(Pixel*Frame)               : 0.282
Stream size                      : 195 MiB (93%)
Writing library                  : XviD 1.1.2 (UTC 2006-11-01)
Audio
ID                               : 1
Format                           : AC-3
Format/Info                      : Audio Coding 3
Codec ID                         : 2000
Duration                         : 9mn 58s
Bit rate mode                    : Constant
Bit rate                         : 192 Kbps
Channel(s)                       : 2 channels
Channel positions                : L R
Sampling rate                    : 48.0 KHz
Stream size                      : 13.7 MiB (7%)
Alignment                        : Aligned on interleaves
Interleave, duration             : 40 ms (1.00 video frame)
Interleave, preload duration     : 512 ms

Скриншоты



[Цитировать]



Показать сообщения:    

Текущее время: 07-Дек 00:53

Часовой пояс: UTC + 3


Вы не можете начинать темы
Вы не можете отвечать на сообщения
Вы не можете редактировать свои сообщения
Вы не можете удалять свои сообщения
Вы не можете голосовать в опросах
Вы не можете прикреплять файлы к сообщениям
Вы не можете скачивать файлы

!ВНИМАНИЕ!
Сайт не предоставляет электронные версии произведений, а занимается лишь коллекционированием и каталогизацией ссылок, присылаемых и публикуемых на форуме нашими читателями. Если вы являетесь правообладателем какого-либо представленного материала и не желаете, чтобы ссылка на него находилась в нашем каталоге, свяжитесь с нами, и мы незамедлительно удалим ее. Файлы для обмена на трекере предоставлены пользователями сайта, и администрация не несет ответственности за их содержание. Просьба не заливать файлы, защищенные авторскими правами, а также файлы нелегального содержания!