[ Сегодня идет свободное скачивание без начисления Download ]


Статистика раздачи
Нет
 
   
 
Top  
 
 
-Остаться в живых / Lost (1-6 сезоны, 121 серии из 121) (2004-2010) [720p] BDRip- -Остаться в живых / LOST (сезон 1) (2004-2005) [720p] BDRip- Русское название: Остаться в живых (сезон 1)
Оригинальное название: LOST
Год выпуска: 2004-2005
Страна: США
Жанр: Фантастика, Триллер, Драма, Приключения, Детектив-
Премьера (мир): 22 сентября 2004
Дата российской премьеры: 10 июля 2005
Релиз на DVD: 15 октября 2009
Режиссеры: Джей Джей Абрамс, Джек Бендер, Кевин Хукс, Майкл Зинберг, Грег Ятанес, Марита Грабяк, Стивен Уильямс, Род Холкомб, Такер Гейтс, Дэниель Атиас, Роберт Мендел
Актеры: Мэтью Фокс, Эванджелин Лилли, Доминик Монахэн, Гарольд Перрино-мл., Джордж Гарсия, Малкольм Дэвид Келли, Фредерик Ленн, Джон Диксон, Майкл Артур, Джош Холлоуэй, Терри О’Куинн, Нэвин Эндрюс, Майкл Эмерсон, Эмили де Рэйвин, Дэниэл Дэй Ким, Юн-жин Ким, Генри Йен Кьюсик, Элизабет Митчелл
Описание фильма:
Красавец-лайнер, совершающий полет из Сиднея в Лос-Анджелес, неожиданно терпит крушение. 48 пассажиров, оставшихся в живых, оказываются на пустынном острове посреди океана. Люди в панике. Надежда быть найденными довольно призрачна. Поэтому остается только одно: собраться с силами и постараться выжить на острове, начиненном множеством опасностей....-Продолжительность: 24 х ~ 00:42:00
Качество видео: BDRip
Видеокодек: AVC MPEG-4(H.264)
Битрейт видео: ~4546 kbps avg
Размер кадра: 1280х720, 16:9, 0.206 bit/pixel
Аудиокодек: AC3
Битрейт аудио: 48.0 kHz, AC3, 2 ch ~320 Kbps avg / полное дублирование (Первый канал)
Субтитры: Русские


Релиз группа: LostFilm

Список серий:

1). Пилот. Часть 1 (Pilot: Part 1).
2). Пилот. Часть 2 (Pilot: Part 2).
3). Чистая доска (Tabula Rasa).
4). Поход (Walkabout).
5). Белый кролик (White Rabbit)
6). Дом восходящего солнца (House of the Rising Sun).
7). Мотылек (The Moth).
8). Мошенник (Confidence Man).
9). Уединение (Solitary).
10). Взрощенный другими (Raised by Another).
11). У всех лучших ковбоев были проблемы с родителями (All the Best Cowboys Have Daddy Issues).
12). Что бы в этом кейсе не было (Whatever the Case May Be).
13). Чувство и разум (Hearts and Minds).
14). Особенный (Special). Исправлено!
15). Возвращение домой (Homecoming).
16). Внезаконники (Outlaws).
17). В переводе (...In Translation).
18). Числа (Numbers).
19). Бог из машины (Deus Ex Machina).
20). Не навреди (Do No Harm).
21). Большая польза (The Greater Good).
22). Рожденная бежать (Born to Run).
23). Исход. Часть 1 (Exodus: Part 1).
24). Исход. Часть 2 (Exodus: Part 2).
25). Исход. Часть 3 (Exodus: Part 3).

MediaInfo:

Уникальный идентификатор : 196673617938652148312922977411718016697 (0x93F5F6047B9A6A87BDF587E7EB896EB9)
Полное имя : Ostatsja.v.zhivyh.1.sezon.BDRip.720p.mkv
Формат : Matroska
Версия формата : Version 1
Размер файла : 1,44 Гбайт
Продолжительность : 42 м.
Общий поток : 4869 Кбит/сек
Дата кодирования : UTC 2010-01-29 15:34:08
Программа кодирования : mkvmerge v2.2.0 ('Turn It On Again') built on Mar 4 2008 12:58:26
Библиотека кодирования : libebml v0.7.7 + libmatroska v0.8.1
Видео
Идентификатор : 1
Формат : AVC
Формат/Информация : Advanced Video Codec
Профиль формата : High@L3.1
Параметр CABAC формата : Да
Параметр ReFrames формата : 5 кадров
Идентификатор кодека : V_MPEG4/ISO/AVC
Продолжительность : 42 м.
Битрейт : 4546 Кбит/сек
Ширина : 1280 пикселей
Высота : 720 пикселей
Соотношение сторон : 16:9
Частота кадров : 23,976 кадра/сек
Цветовое пространство : YUV
Субдискретизация насыщенности : 4:2:0
Битовая глубина : 8 бит
Тип развёртки : Прогрессивная
Бит/(Пиксели*Кадры) : 0.206
Размер потока : 1,32 Гбайт (91%)
Заголовок : Lost.s01.e01.2004
Библиотека кодирования : x264 core 80 r1376M 3feaec2
Настройки программы : cabac=1 / ref=5 / deblock=1:-1:-1 / analyse=0x3:0x133 / me=hex / subme=7 / psy=1 / psy_rd=1.0:0.0 / mixed_ref=1 / me_range=16 / chroma_me=1 / trellis=2 / 8x8dct=1 / cqm=0 / deadzone=21,11 / fast_pskip=0 / chroma_qp_offset=-2 / threads=6 / sliced_threads=0 / nr=0 / decimate=1 / mbaff=0 / constrained_intra=0 / bframes=3 / b_pyramid=0 / b_adapt=2 / b_bias=0 / direct=1 / wpredb=1 / wpredp=2 / keyint=250 / keyint_min=25 / scenecut=40 / rc_lookahead=40 / rc=2pass / mbtree=1 / bitrate=4546 / ratetol=1.0 / qcomp=0.60 / qpmin=10 / qpmax=51 / qpstep=4 / cplxblur=20.0 / qblur=0.5 / ip_ratio=1.40 / aq=1:1.00
Язык : English
Аудио
Идентификатор : 2
Формат : AC-3
Формат/Информация : Audio Coding 3
Профиль формата : Dolby Digital
Расширение режима : CM (complete main)
Идентификатор кодека : A_AC3
Продолжительность : 42 м.
Вид битрейта : Постоянный
Битрейт : 320 Кбит/сек
Каналы : 2 канала
Расположение каналов : Front: L R
Частота : 48,0 КГц
Битовая глубина : 16 бит
Метод сжатия : С потерями
Размер потока : 96,9 Мбайт (7%)
Заголовок : AC3 2ch 320kbps (Дубляж,1канал ТВ)
Язык : Russian
Текст
Идентификатор : 3
Формат : ASS
Идентификатор кодека : S_TEXT/ASS
Идентификатор кодека/Информация : Advanced Sub Station Alpha
Метод сжатия : Без потерь
Заголовок : Subtitles
Язык : Russian
Скриншоты:

Остаться в живых / LOST (сезон 2) (2005-2006) [720p] BDRip- Русское название: Остаться в живых (сезон 2)
Оригинальное название: LOST
Год выпуска: 2005-2006
Страна: США
Жанр: Фантастика, Триллер, Драма, Приключения, Детектив-
Премьера (мир): 22 сентября 2004
Дата российской премьеры: 10 июля 2005
Релиз на DVD: 15 октября 2009
Режиссеры: Джей Джей Абрамс, Джек Бендер, Кевин Хукс, Майкл Зинберг, Грег Ятанес, Марита Грабяк, Стивен Уильямс, Род Холкомб, Такер Гейтс, Дэниель Атиас, Роберт Мендел
Актеры: Мэтью Фокс, Эванджелин Лилли, Доминик Монахэн, Гарольд Перрино-мл., Джордж Гарсия, Малкольм Дэвид Келли, Фредерик Ленн, Джон Диксон, Майкл Артур, Джош Холлоуэй, Терри О’Куинн, Нэвин Эндрюс, Майкл Эмерсон, Эмили де Рэйвин, Дэниэл Дэй Ким, Юн-жин Ким, Генри Йен Кьюсик, Элизабет Митчелл
Описание фильма:
Красавец-лайнер, совершающий полет из Сиднея в Лос-Анджелес, неожиданно терпит крушение. 48 пассажиров, оставшихся в живых, оказываются на пустынном острове посреди океана. Люди в панике. Надежда быть найденными довольно призрачна. Поэтому остается только одно: собраться с силами и постараться выжить на острове, начиненном множеством опасностей....-Продолжительность: 23 х ~ 00:43:00
Качество видео: BDRip
Видеокодек: AVC MPEG-4(H.264)
Битрейт видео: ~4439 kbps avg
Размер кадра: 1280х720, 16:9, 0.201 bit/pixel
Аудиокодек: AC3
Битрейт аудио: 48.0 kHz, AC3, 2 ch ~320 Kbps avg / полное дублирование (Первый канал)
Субтитры: Русские


Релиз группа: LostFilm

Список серий:

1). Человек науки, человек веры (Man Of Science Man Of Faith).
2). По течению (Adrift).
3). Ориентация (Orientation).
4). Все ненавидят Хёрли (Everybody Hates Hugo).
5). И Обнаруженное (And Found).
6). Покинутое (Abandoned).
7). Другие 48 дней (The Other 48 Days).
8). Столкновение (Collision).
9). Что сделала Кейт (What Kate Did).
10). 23-й Псалом (The 23rd Psalm).
11). Отряд охотников (The Hunting Party).
12). Огонь + Вода (Fire + Water).
13). Длинная афера (The Long Con).
14). Один из них (One of Them).
15). Декретный отпуск (Maternity Leave).
16). Вся правда (The Whole Truth).
17). Взаперти (Lockdown).
18). Дэйв (Dave).
19). S.O.S.
20). Двое (Two for the Road).
21). "?"
22). Три минуты (3 Minutes).
23-24). Жить вместе, умереть поодиночке (Live Together Die Alone).

MediaInfo:

Уникальный идентификатор : 190550201991127013221928118950959425398 (0x8F5AA24D530398B58A2D6B59C3B2A776)
Полное имя : Ostatsja.v.zhivyh.2.sezon.BDRip.720p.mkv
Формат : Matroska
Версия формата : Version 1
Размер файла : 1,44 Гбайт
Продолжительность : 43 м.
Общий поток : 4761 Кбит/сек
Дата кодирования : UTC 2010-02-12 02:28:56
Программа кодирования : mkvmerge v2.2.0 ('Turn It On Again') built on Mar 4 2008 12:58:26
Библиотека кодирования : libebml v0.7.7 + libmatroska v0.8.1
Видео
Идентификатор : 1
Формат : AVC
Формат/Информация : Advanced Video Codec
Профиль формата : High@L3.1
Параметр CABAC формата : Да
Параметр ReFrames формата : 5 кадров
Идентификатор кодека : V_MPEG4/ISO/AVC
Продолжительность : 43 м.
Битрейт : 4439 Кбит/сек
Ширина : 1280 пикселей
Высота : 720 пикселей
Соотношение сторон : 16:9
Частота кадров : 23,976 кадра/сек
Цветовое пространство : YUV
Субдискретизация насыщенности : 4:2:0
Битовая глубина : 8 бит
Тип развёртки : Прогрессивная
Бит/(Пиксели*Кадры) : 0.201
Размер потока : 1,31 Гбайт (91%)
Заголовок : Lost.s02.e01.2005
Библиотека кодирования : x264 core 80 r1376M 3feaec2
Настройки программы : cabac=1 / ref=5 / deblock=1:-1:-1 / analyse=0x3:0x133 / me=hex / subme=7 / psy=1 / psy_rd=1.0:0.0 / mixed_ref=1 / me_range=16 / chroma_me=1 / trellis=2 / 8x8dct=1 / cqm=0 / deadzone=21,11 / fast_pskip=0 / chroma_qp_offset=-2 / threads=6 / sliced_threads=0 / nr=0 / decimate=1 / mbaff=0 / constrained_intra=0 / bframes=3 / b_pyramid=0 / b_adapt=2 / b_bias=0 / direct=1 / wpredb=1 / wpredp=2 / keyint=250 / keyint_min=25 / scenecut=40 / rc_lookahead=40 / rc=2pass / mbtree=1 / bitrate=4439 / ratetol=1.0 / qcomp=0.60 / qpmin=10 / qpmax=51 / qpstep=4 / cplxblur=20.0 / qblur=0.5 / ip_ratio=1.40 / aq=1:1.00
Язык : English
Аудио
Идентификатор : 2
Формат : AC-3
Формат/Информация : Audio Coding 3
Профиль формата : Dolby Digital
Расширение режима : CM (complete main)
Идентификатор кодека : A_AC3
Продолжительность : 43 м.
Вид битрейта : Постоянный
Битрейт : 320 Кбит/сек
Каналы : 2 канала
Расположение каналов : Front: L R
Частота : 48,0 КГц
Битовая глубина : 16 бит
Метод сжатия : С потерями
Размер потока : 99,1 Мбайт (7%)
Заголовок : AC3 2ch 320kbps (Дубляж,1канал ТВ)
Язык : Russian
Текст
Идентификатор : 3
Формат : ASS
Идентификатор кодека : S_TEXT/ASS
Идентификатор кодека/Информация : Advanced Sub Station Alpha
Метод сжатия : Без потерь
Заголовок : Subtitles
Язык : Russian
Остаться в живых / LOST (сезон 3) (2006-2007) [720p] BDRip- Русское название: Остаться в живых (сезон 3)
Оригинальное название: LOST
Год выпуска: 2006-2007
Страна: США
Жанр: Фантастика, Триллер, Драма, Приключения, Детектив-
Премьера (мир): 22 сентября 2004
Дата российской премьеры: 10 июля 2005
Релиз на DVD: 15 октября 2009
Режиссеры: Джей Джей Абрамс, Джек Бендер, Кевин Хукс, Майкл Зинберг, Грег Ятанес, Марита Грабяк, Стивен Уильямс, Род Холкомб, Такер Гейтс, Дэниель Атиас, Роберт Мендел
Актеры: Мэтью Фокс, Эванджелин Лилли, Доминик Монахэн, Гарольд Перрино-мл., Джордж Гарсия, Малкольм Дэвид Келли, Фредерик Ленн, Джон Диксон, Майкл Артур, Джош Холлоуэй, Терри О’Куинн, Нэвин Эндрюс, Майкл Эмерсон, Эмили де Рэйвин, Дэниэл Дэй Ким, Юн-жин Ким, Генри Йен Кьюсик, Элизабет Митчелл
Описание фильма:
Красавец-лайнер, совершающий полет из Сиднея в Лос-Анджелес, неожиданно терпит крушение. 48 пассажиров, оставшихся в живых, оказываются на пустынном острове посреди океана. Люди в панике. Надежда быть найденными довольно призрачна. Поэтому остается только одно: собраться с силами и постараться выжить на острове, начиненном множеством опасностей....-Продолжительность: 22 х ~ 00:43:00
Качество видео: BDRip
Видеокодек: AVC MPEG-4(H.264)
Битрейт видео: ~4573 kbps avg
Размер кадра: 1280х720, 16:9, 0.207 bit/pixel
Аудиокодек: AC3
Битрейт аудио: 48.0 kHz, AC3, 2 ch ~192 Kbps avg / полное дублирование (Первый канал)



Релиз группа
: LostFilm

Список серий:

1). Повесть о двух городах (A Tale Of Two Cities).
2). Стеклянная балерина (The Glass Ballerina).
3). Дальнейшие указания (Further Instructions).
4). Каждый за себя (Every Man for Himself).
5). Цена жизни (The Cost of Living).
6). Я согласна (I DO).
7). Не в Портленде (Not in Portland).
8). Видения (Flashes Before Your Eyes).
9). Чужой среди чужих (Stranger in a Strange Land).
10). Триша Танака умерла (Tricia Tanaka Is Dead).
11). Введите 77 (Enter 77).
12). Авиапочта (Par Avion).
13). Человек из Таллахасси (The Man from Tallahassee).
14). Голая правда (Expose).
15). Брошенные (Left Behind).
16). Одна из нас (One of Us).
17). Безвыходное положение (Catch-22).
18). Дата зачатия (D.O.C.).
19). Гауптвахта (The Brig).
20). Человек за ширмой (The Man Behind the Curtain).
21). Избранное (Greatest Hits).
22-23). В Зазеркалье.

MediaInfo:

Уникальный идентификатор : 196673617938652148312922977411718016697 (0x93F5F6047B9A6A87BDF587E7EB896EB9)
Полное имя : Ostatsja.v.zhivyh.3.sezon.BDRip.720p.mkvПолное имя
Формат : Matroska
Версия формата : Version 1
Размер файла : 1,44 Гбайт
Продолжительность : 43 м.
Общий поток : 4768 Кбит/сек
Дата кодирования : UTC 2010-02-20 02:45:15
Программа кодирования : mkvmerge v2.2.0 ('Turn It On Again') built on Mar 4 2008 12:58:26
Библиотека кодирования : libebml v0.7.7 + libmatroska v0.8.1
Видео
Идентификатор : 1
Формат : AVC
Формат/Информация : Advanced Video Codec
Профиль формата : High@L3.1
Параметр CABAC формата : Да
Параметр ReFrames формата : 5 кадров
Идентификатор кодека : V_MPEG4/ISO/AVC
Продолжительность : 43 м.
Битрейт : 4573 Кбит/сек
Ширина : 1280 пикселей
Высота : 720 пикселей
Соотношение сторон : 16:9
Частота кадров : 23,976 кадра/сек
Цветовое пространство : YUV
Субдискретизация насыщенности : 4:2:0
Битовая глубина : 8 бит
Тип развёртки : Прогрессивная
Бит/(Пиксели*Кадры) : 0.207
Размер потока : 1,36 Гбайт (94%)
Заголовок : Lost.s03.e01.2006
Библиотека кодирования : x264 core 80 r1376M 3feaec2
Настройки программы : cabac=1 / ref=5 / deblock=1:-1:-1 / analyse=0x3:0x133 / me=hex / subme=7 / psy=1 / psy_rd=1.0:0.0 / mixed_ref=1 / me_range=16 / chroma_me=1 / trellis=2 / 8x8dct=1 / cqm=0 / deadzone=21,11 / fast_pskip=0 / chroma_qp_offset=-2 / threads=6 / sliced_threads=0 / nr=0 / decimate=1 / mbaff=0 / constrained_intra=0 / bframes=3 / b_pyramid=0 / b_adapt=2 / b_bias=0 / direct=1 / wpredb=1 / wpredp=2 / keyint=250 / keyint_min=25 / scenecut=40 / rc_lookahead=40 / rc=2pass / mbtree=1 / bitrate=4573 / ratetol=1.0 / qcomp=0.60 / qpmin=10 / qpmax=51 / qpstep=4 / cplxblur=20.0 / qblur=0.5 / ip_ratio=1.40 / aq=1:1.00
Язык : English
Аудио
Идентификатор : 2
Формат : AC-3
Формат/Информация : Audio Coding 3
Расширение режима : CM (complete main)
Идентификатор кодека : A_AC3
Продолжительность : 43 м.
Вид битрейта : Постоянный
Битрейт : 192 Кбит/сек
Каналы : 2 канала
Расположение каналов : Front: L R
Частота : 48,0 КГц
Битовая глубина : 16 бит
Метод сжатия : С потерями
Размер потока : 59,5 Мбайт (4%)
Заголовок : AC3 2ch 192kbps (Дубляж,1канал ТВ)
Язык : Russian
Остаться в живых / LOST (сезон 4) (2007-2008) [720p] BDRip- Русское название: Остаться в живых (сезон 4)
Оригинальное название: LOST
Год выпуска: 2007-2008
Страна: США
Жанр: Фантастика, Триллер, Драма, Приключения, Детектив-
Премьера (мир): 22 сентября 2004
Дата российской премьеры: 10 июля 2005
Релиз на DVD: 15 октября 2009
Режиссеры: Джей Джей Абрамс, Джек Бендер, Кевин Хукс, Майкл Зинберг, Грег Ятанес, Марита Грабяк, Стивен Уильямс, Род Холкомб, Такер Гейтс, Дэниель Атиас, Роберт Мендел
Актеры: Мэтью Фокс, Эванджелин Лилли, Доминик Монахэн, Гарольд Перрино-мл., Джордж Гарсия, Малкольм Дэвид Келли, Фредерик Ленн, Джон Диксон, Майкл Артур, Джош Холлоуэй, Терри О’Куинн, Нэвин Эндрюс, Майкл Эмерсон, Эмили де Рэйвин, Дэниэл Дэй Ким, Юн-жин Ким, Генри Йен Кьюсик, Элизабет Митчелл
Описание фильма:
Красавец-лайнер, совершающий полет из Сиднея в Лос-Анджелес, неожиданно терпит крушение. 48 пассажиров, оставшихся в живых, оказываются на пустынном острове посреди океана. Люди в панике. Надежда быть найденными довольно призрачна. Поэтому остается только одно: собраться с силами и постараться выжить на острове, начиненном множеством опасностей....-Продолжительность: 14 х ~ 00:43:00
Качество видео: BDRip
Видеокодек: AVC MPEG-4(H.264)
Битрейт видео: ~4591 kbps avg
Размер кадра: 1280х720, 16:9, 0.208 bit/pixel
Аудиокодек: AC3
Битрейт аудио: 48.0 kHz, AC3, 2 ch ~192 Kbps avg / полное дублирование (Первый канал)
Субтитры: Русские


Релиз группа: LostFilm


Список серий:

1). Начало конца (The Beginning of the End).
2). Объявлены погибшими (Confirmed Dead).
3). Экономист (The Economist).
4). Просчет (Eggtown).
5). Постоянная величина (The Constant).
6). Соперница (The Other Woman).
7). Чи Ён (Ji Yeon).
8). Знакомьтесь - Кевин Джонсон (Meet Kevin Johnson).
9). Облик грядущего (The Shape of Things to Come).
10). Счастливая привычная жизнь (Something Nice Back Home).
11). Отшельник (Cabin Fever).
12). Долгожданное возвращение, часть 1 (There's No Place Like Home: Part 1).
13-14). Долгожданное возвращение: часть 2 и 3 (There's No Place Like Home: Part 2 & 3).

MediaInfo:

Уникальный идентификатор : 196673617938652148312922977411718016697 (0x93F5F6047B9A6A87BDF587E7EB896EB9)
Полное имя : Ostatsja.v.zhivyh.4.sezon.BDRip.720p.mkv
Формат : Matroska
Версия формата : Version 1
Размер файла : 1,44 Гбайт
Продолжительность : 43 м.
Общий поток : 4785 Кбит/сек
Дата кодирования : UTC 2010-02-26 09:35:48
Программа кодирования : mkvmerge v2.2.0 ('Turn It On Again') built on Mar 4 2008 12:58:26
Библиотека кодирования : libebml v0.7.7 + libmatroska v0.8.1
Видео
Идентификатор : 1
Формат : AVC
Формат/Информация : Advanced Video Codec
Профиль формата : High@L3.1
Параметр CABAC формата : Да
Параметр ReFrames формата : 5 кадров
Идентификатор кодека : V_MPEG4/ISO/AVC
Продолжительность : 43 м.
Битрейт : 4591 Кбит/сек
Ширина : 1280 пикселей
Высота : 720 пикселей
Соотношение сторон : 16:9
Частота кадров : 23,976 кадра/сек
Цветовое пространство : YUV
Субдискретизация насыщенности : 4:2:0
Битовая глубина : 8 бит
Тип развёртки : Прогрессивная
Бит/(Пиксели*Кадры) : 0.208
Размер потока : 1,36 Гбайт (94%)
Заголовок : Lost.s04.e01.2008
Библиотека кодирования : x264 core 80 r1376M 3feaec2
Настройки программы : cabac=1 / ref=5 / deblock=1:-1:-1 / analyse=0x3:0x133 / me=hex / subme=7 / psy=1 / psy_rd=1.0:0.0 / mixed_ref=1 / me_range=16 / chroma_me=1 / trellis=2 / 8x8dct=1 / cqm=0 / deadzone=21,11 / fast_pskip=0 / chroma_qp_offset=-2 / threads=6 / sliced_threads=0 / nr=0 / decimate=1 / mbaff=0 / constrained_intra=0 / bframes=3 / b_pyramid=0 / b_adapt=2 / b_bias=0 / direct=1 / wpredb=1 / wpredp=2 / keyint=250 / keyint_min=25 / scenecut=40 / rc_lookahead=40 / rc=2pass / mbtree=1 / bitrate=4591 / ratetol=1.0 / qcomp=0.60 / qpmin=10 / qpmax=51 / qpstep=4 / cplxblur=20.0 / qblur=0.5 / ip_ratio=1.40 / aq=1:1.00
Язык : English
Аудио
Идентификатор : 2
Формат : AC-3
Формат/Информация : Audio Coding 3
Расширение режима : CM (complete main)
Идентификатор кодека : A_AC3
Продолжительность : 43 м.
Вид битрейта : Постоянный
Битрейт : 192 Кбит/сек
Каналы : 2 канала
Расположение каналов : Front: L R
Частота : 48,0 КГц
Битовая глубина : 16 бит
Метод сжатия : С потерями
Размер потока : 59,2 Мбайт (4%)
Заголовок : AC3 2ch 192kbps (Дубляж,1канал ТВ)
Язык : Russian
Текст
Идентификатор : 3
Формат : ASS
Идентификатор кодека : S_TEXT/ASS
Идентификатор кодека/Информация : Advanced Sub Station Alpha
Метод сжатия : Без потерь
Заголовок : Subtitles
Язык : Russian
Остаться в живых / LOST (сезон 5) (2008-2009) [720p] BDRip- Русское название: Остаться в живых (сезон 5)
Оригинальное название: LOST
Год выпуска: 2008-2009
Страна: США
Жанр: Фантастика, Триллер, Драма, Приключения, Детектив-
Премьера (мир): 22 сентября 2004
Дата российской премьеры: 10 июля 2005
Релиз на DVD: 15 октября 2009
Режиссеры: Джей Джей Абрамс, Джек Бендер, Кевин Хукс, Майкл Зинберг, Грег Ятанес, Марита Грабяк, Стивен Уильямс, Род Холкомб, Такер Гейтс, Дэниель Атиас, Роберт Мендел
Актеры: Мэтью Фокс, Эванджелин Лилли, Доминик Монахэн, Гарольд Перрино-мл., Джордж Гарсия, Малкольм Дэвид Келли, Фредерик Ленн, Джон Диксон, Майкл Артур, Джош Холлоуэй, Терри О’Куинн, Нэвин Эндрюс, Майкл Эмерсон, Эмили де Рэйвин, Дэниэл Дэй Ким, Юн-жин Ким, Генри Йен Кьюсик, Элизабет Митчелл
Описание фильма:
Красавец-лайнер, совершающий полет из Сиднея в Лос-Анджелес, неожиданно терпит крушение. 48 пассажиров, оставшихся в живых, оказываются на пустынном острове посреди океана. Люди в панике. Надежда быть найденными довольно призрачна. Поэтому остается только одно: собраться с силами и постараться выжить на острове, начиненном множеством опасностей....-Продолжительность: 16 х ~ 00:43:00
Качество видео: BDRip
Видеокодек: AVC MPEG-4(H.264)
Битрейт видео: ~4598 kbps avg
Размер кадра: 1280х720, 16:9, 0.208 bit/pixel
Аудиокодек: AC3
Битрейт аудио: 48.0 kHz, AC3, 2 ch ~192 Kbps avg / полное дублирование (Первый канал)
Субтитры: Русские


Релиз группа: LostFilm

Список серий:

1). Потому что вас нет (Because You Left).
2). Ложь (The Lie).
3). Бомба (Jughead).
4). Маленький Принц (The Little Prince).
5). Остров смерти (This Place Is Death).
6). 316.
7). Жизнь и смерть Джереми Бентама (The Life and Death of Jeremy Bentham).
8). Лефлёр (LaFleur).
9). Добро пожаловать (Namaste).
10). Это наш ты (He's Our You).
11). Обратной дороги нет (Whatever Happened, Happened).
12). Мертвый — значит мертвый (Dead Is Dead).
13). Некоторые любят планету Хот горячее (Some Like It Hoth).
14). Переменная величина (The Variable).
15). Следуй за лидером (Follow the Leader).
16-17). Катаклизм (The Incident).

MediaInfo:

Уникальный идентификатор : 196673617938652148312922977411718016697 (0x93F5F6047B9A6A87BDF587E7EB896EB9)
Полное имя : Ostatsja.v.zhivyh.5.sezon.BDRip.720p.mkv
Формат : Matroska
Версия формата : Version 1
Размер файла : 1,44 Гбайт
Продолжительность : 43 м.
Общий поток : 4792 Кбит/сек
Дата кодирования : UTC 2010-03-01 21:32:06
Программа кодирования : mkvmerge v2.2.0 ('Turn It On Again') built on Mar 4 2008 12:58:26
Библиотека кодирования : libebml v0.7.7 + libmatroska v0.8.1
Видео
Идентификатор : 1
Формат : AVC
Формат/Информация : Advanced Video Codec
Профиль формата : High@L3.1
Параметр CABAC формата : Да
Параметр ReFrames формата : 5 кадров
Идентификатор кодека : V_MPEG4/ISO/AVC
Продолжительность : 43 м.
Битрейт : 4598 Кбит/сек
Ширина : 1280 пикселей
Высота : 720 пикселей
Соотношение сторон : 16:9
Частота кадров : 23,976 кадра/сек
Цветовое пространство : YUV
Субдискретизация насыщенности : 4:2:0
Битовая глубина : 8 бит
Тип развёртки : Прогрессивная
Бит/(Пиксели*Кадры) : 0.208
Размер потока : 1,36 Гбайт (94%)
Заголовок : Lost.s05.e01.2009
Библиотека кодирования : x264 core 80 r1376M 3feaec2
Настройки программы : cabac=1 / ref=5 / deblock=1:-1:-1 / analyse=0x3:0x133 / me=hex / subme=7 / psy=1 / psy_rd=1.0:0.0 / mixed_ref=1 / me_range=16 / chroma_me=1 / trellis=2 / 8x8dct=1 / cqm=0 / deadzone=21,11 / fast_pskip=0 / chroma_qp_offset=-2 / threads=6 / sliced_threads=0 / nr=0 / decimate=1 / mbaff=0 / constrained_intra=0 / bframes=3 / b_pyramid=0 / b_adapt=2 / b_bias=0 / direct=1 / wpredb=1 / wpredp=2 / keyint=250 / keyint_min=25 / scenecut=40 / rc_lookahead=40 / rc=2pass / mbtree=1 / bitrate=4598 / ratetol=1.0 / qcomp=0.60 / qpmin=10 / qpmax=51 / qpstep=4 / cplxblur=20.0 / qblur=0.5 / ip_ratio=1.40 / aq=1:1.00
Язык : English
Аудио
Идентификатор : 2
Формат : AC-3
Формат/Информация : Audio Coding 3
Расширение режима : CM (complete main)
Идентификатор кодека : A_AC3
Продолжительность : 43 м.
Вид битрейта : Постоянный
Битрейт : 192 Кбит/сек
Каналы : 2 канала
Расположение каналов : Front: L R
Частота : 48,0 КГц
Битовая глубина : 16 бит
Метод сжатия : С потерями
Размер потока : 59,2 Мбайт (4%)
Заголовок : AC3 2ch 192kbps (Дубляж,1канал ТВ)
Язык : Russian
Текст
Идентификатор : 3
Формат : ASS
Идентификатор кодека : S_TEXT/ASS
Идентификатор кодека/Информация : Advanced Sub Station Alpha
Метод сжатия : Без потерь
Заголовок : Subtitles
Язык : Russian
Остаться в живых / LOST (сезон 6) (2009-2010) [720p] BDRip- Русское название: Остаться в живых (сезон 6)
Оригинальное название: LOST
Год выпуска: 2009-2010
Страна: США
Жанр: Фантастика, Триллер, Драма, Приключения, Детектив-
Премьера (мир): 22 сентября 2004
Дата российской премьеры: 10 июля 2005
Релиз на DVD: 15 октября 2009
Режиссеры: Джей Джей Абрамс, Джек Бендер, Кевин Хукс, Майкл Зинберг, Грег Ятанес, Марита Грабяк, Стивен Уильямс, Род Холкомб, Такер Гейтс, Дэниель Атиас, Роберт Мендел
Актеры: Мэтью Фокс, Эванджелин Лилли, Доминик Монахэн, Гарольд Перрино-мл., Джордж Гарсия, Малкольм Дэвид Келли, Фредерик Ленн, Джон Диксон, Майкл Артур, Джош Холлоуэй, Терри О’Куинн, Нэвин Эндрюс, Майкл Эмерсон, Эмили де Рэйвин, Дэниэл Дэй Ким, Юн-жин Ким, Генри Йен Кьюсик, Элизабет Митчелл
Описание фильма:
Красавец-лайнер, совершающий полет из Сиднея в Лос-Анджелес, неожиданно терпит крушение. 48 пассажиров, оставшихся в живых, оказываются на пустынном острове посреди океана. Люди в панике. Надежда быть найденными довольно призрачна. Поэтому остается только одно: собраться с силами и постараться выжить на острове, начиненном множеством опасностей....-Продолжительность: 16 х ~ 00:42:00
Качество видео: BDRip
Видеокодек: AVC MPEG-4(H.264)
Битрейт видео: ~4774 kbps avg
Размер кадра: 1280х720, 16:9, 0.216 bit/pixel
Аудиокодек: AC3
Битрейт аудио:
Аудио 1#: 48.0 kHz, AC3, 2 ch ~192 Kbps avg / полное дублирование (Первый канал)
Аудио 2#: 48.0 kHz, DTS, 6 ch ~755 Kbps avg / многоголосый закадровый (Lostfilm)
Аудио 3#: 48.0 kHz, DTS, 6 ch ~1510 Kbps avg / английский
Аудио 4#: 48.0 kHz, AC3, 2 ch ~192 Kbps avg / английский
Субтитры: Русские, английские


Релиз группа: LostFilm

Список серий:

1-2). Аэропорт Лос-Анджелеса (LA X).
3). Поступки Кейт (What Kate Does).
4). Замена (The Substitute).
5). Маяк (Lighthouse).
6). Закат (Sundown).
7). Доктор Лаинус (Dr. Linus).
8). Разведка (Recon).
9). Давным-давно (Ab Aeterno).
10). Пакет (The Package).
11). И жили они долго и счастливо (Happily Ever After).
12). Все любят Хьюго (Everybody Loves Hugo).
13). Последний рекрут (The Last Recruit).
14). Кандидат (The Candidate).
15). Из-за моря (Across the Sea).
16). За что они погибли (What They Died For).
17-18). Конец (The End).

MediaInfo:

Уникальный идентификатор : 196673617938652148312922977411718016697 (0x93F5F6047B9A6A87BDF587E7EB896EB9)
Полное имя : Ostatsja.v.zhivyh.6.sezon.BDRip.720p.mkv
Формат : Matroska
Версия формата : Version 2
Размер файла : 4,36 Гбайт
Продолжительность : 42 м.
Режим общего битрейта : Переменный
Общий поток : 7426 Кбит/сек
Дата кодирования : UTC 2011-02-23 17:14:17
Программа кодирования : mkvmerge v3.0.0 ('Hang up your Hang-Ups') built on Dec 12 2009 15:20:35
Библиотека кодирования : libebml v0.7.9 + libmatroska v0.8.1
Видео
Идентификатор : 1
Формат : AVC
Формат/Информация : Advanced Video Codec
Профиль формата : High@L4.1
Параметр CABAC формата : Да
Параметр ReFrames формата : 3 кадра
Идентификатор кодека : V_MPEG4/ISO/AVC
Продолжительность : 1 ч. 24 м.
Вид битрейта : Переменный
Битрейт : 4774 Кбит/сек
Максимальный битрейт : 40,0 Мбит/сек
Ширина : 1280 пикселей
Высота : 720 пикселей
Соотношение сторон : 16:9
Частота кадров : 23,976 кадра/сек
Цветовое пространство : YUV
Субдискретизация насыщенности : 4:2:0
Битовая глубина : 8 бит
Тип развёртки : Прогрессивная
Бит/(Пиксели*Кадры) : 0.216
Размер потока : 2,72 Гбайт (62%)
Библиотека кодирования : x264 core 98 r1649 c54c47d
Настройки программы : cabac=1 / ref=4 / deblock=1:0:0 / analyse=0x3:0x133 / me=umh / subme=8 / psy=1 / psy_rd=1.00:0.00 / mixed_ref=1 / me_range=16 / chroma_me=1 / trellis=1 / 8x8dct=1 / cqm=0 / deadzone=21,11 / fast_pskip=0 / chroma_qp_offset=-2 / threads=3 / sliced_threads=0 / slices=4 / nr=0 / decimate=1 / interlaced=0 / constrained_intra=0 / bframes=3 / b_pyramid=1 / b_adapt=2 / b_bias=0 / direct=1 / weightb=1 / weightp=0 / keyint=24 / keyint_min=2 / scenecut=40 / intra_refresh=0 / rc_lookahead=24 / rc=2pass / mbtree=1 / bitrate=4774 / ratetol=1.0 / qcomp=0.60 / qpmin=10 / qpmax=51 / qpstep=4 / cplxblur=20.0 / qblur=0.5 / vbv_maxrate=40000 / vbv_bufsize=30000 / ip_ratio=1.40 / aq=1:1.00 / nal_hrd=vbr
Основные цвета : BT.709-5, BT.1361, IEC 61966-2-4, SMPTE RP177
Характеристики трансфера : BT.709-5, BT.1361
Коэффициенты матрицы : BT.709-5, BT.1361, IEC 61966-2-4 709, SMPTE RP177
Аудио #1
Идентификатор : 2
Формат : AC-3
Формат/Информация : Audio Coding 3
Расширение режима : CM (complete main)
Идентификатор кодека : A_AC3
Продолжительность : 1 ч. 24 м.
Вид битрейта : Постоянный
Битрейт : 192 Кбит/сек
Каналы : 2 канала
Расположение каналов : Front: L R
Частота : 48,0 КГц
Битовая глубина : 16 бит
Метод сжатия : С потерями
Размер потока : 116 Мбайт (3%)
Заголовок : Dub
Язык : Russian
Аудио #2
Идентификатор : 3
Формат : DTS
Формат/Информация : Digital Theater Systems
Идентификатор кодека : A_DTS
Продолжительность : 1 ч. 24 м.
Вид битрейта : Постоянный
Битрейт : 755 Кбит/сек
Каналы : 6 каналов
Расположение каналов : Front: L C R, Side: L R, LFE
Частота : 48,0 КГц
Битовая глубина : 24 бит
Метод сжатия : С потерями
Размер потока : 454 Мбайт (10%)
Заголовок : Lostfilm
Язык : Russian
Аудио #3
Идентификатор : 4
Формат : DTS
Формат/Информация : Digital Theater Systems
Идентификатор кодека : A_DTS
Продолжительность : 1 ч. 24 м.
Вид битрейта : Постоянный
Битрейт : 1510 Кбит/сек
Каналы : 6 каналов
Расположение каналов : Front: L C R, Side: L R, LFE
Частота : 48,0 КГц
Битовая глубина : 24 бит
Метод сжатия : С потерями
Размер потока : 908 Мбайт (20%)
Язык : English
Аудио #4
Идентификатор : 5
Формат : AC-3
Формат/Информация : Audio Coding 3
Профиль формата : Dolby Digital
Расширение режима : CM (complete main)
Идентификатор кодека : A_AC3
Продолжительность : 1 ч. 24 м.
Вид битрейта : Постоянный
Битрейт : 192 Кбит/сек
Каналы : 2 канала
Расположение каналов : Front: L R
Частота : 48,0 КГц
Битовая глубина : 16 бит
Метод сжатия : С потерями
Размер потока : 116 Мбайт (3%)
Заголовок : Producer's comments
Язык : English
Текст #1
Идентификатор : 6
Формат : ASS
Идентификатор кодека : S_TEXT/ASS
Идентификатор кодека/Информация : Advanced Sub Station Alpha
Метод сжатия : Без потерь
Заголовок : Forced
Язык : Russian
Текст #2
Идентификатор : 7
Формат : ASS
Идентификатор кодека : S_TEXT/ASS
Идентификатор кодека/Информация : Advanced Sub Station Alpha
Метод сжатия : Без потерь
Язык : Russian
Текст #3
Идентификатор : 8
Формат : ASS
Идентификатор кодека : S_TEXT/ASS
Идентификатор кодека/Информация : Advanced Sub Station Alpha
Метод сжатия : Без потерь
Заголовок : Producer's comments
Язык : Russian
Текст #4
Идентификатор : 9
Формат : ASS
Идентификатор кодека : S_TEXT/ASS
Идентификатор кодека/Информация : Advanced Sub Station Alpha
Метод сжатия : Без потерь
Язык : English
Текст #5
Идентификатор : 10
Формат : ASS
Идентификатор кодека : S_TEXT/ASS
Идентификатор кодека/Информация : Advanced Sub Station Alpha
Метод сжатия : Без потерь
Заголовок : Producer's comments
Язык : English

[Цитировать]



Показать сообщения:    

Текущее время: 08-Дек 17:14

Часовой пояс: UTC + 3


Вы не можете начинать темы
Вы не можете отвечать на сообщения
Вы не можете редактировать свои сообщения
Вы не можете удалять свои сообщения
Вы не можете голосовать в опросах
Вы не можете прикреплять файлы к сообщениям
Вы не можете скачивать файлы

!ВНИМАНИЕ!
Сайт не предоставляет электронные версии произведений, а занимается лишь коллекционированием и каталогизацией ссылок, присылаемых и публикуемых на форуме нашими читателями. Если вы являетесь правообладателем какого-либо представленного материала и не желаете, чтобы ссылка на него находилась в нашем каталоге, свяжитесь с нами, и мы незамедлительно удалим ее. Файлы для обмена на трекере предоставлены пользователями сайта, и администрация не несет ответственности за их содержание. Просьба не заливать файлы, защищенные авторскими правами, а также файлы нелегального содержания!