[ Сегодня идет свободное скачивание без начисления Download ]


Статистика раздачи
Нет
 
   
 
Top  
 
 
- Коллекционер / The Collector (1965) [720p] BDRip
- «Almost a love story» - Название: Коллекционер
Оригинальное название: The Collector
Год выпуска: 1965
Жанр: Триллер
Выпущено: Великобритания, США, Collector Company, Columbia Pictures Corporation
Описание фильма:
Для мелкого клерка, страдающего комплексом неполноценности, смыслом жизни было коллекционирование бабочек. Но однажды его коллекция пополняется необычным "экспонатом". Им становится красивая студентка, в которую он безнадежно влюблен. Не видя другого способа заполучить девушку, он похищает ее и прячет в уединенном особняке. Похититель обещает отпустить пленницу через месяц. Ему кажется, это достаточный срок для того, чтобы она смогла его полюбить…
Режиссер: Уильям Уайлер
В ролях: Теренс Стэмп, Саманта Эггар, Мона Уошборн, Морис Дэллимор, Аллисон Амес, Гордон Барклай, Уильям Биклей, Дэвид Хэвиланд, Кеннет Мор, Эдина Ронай
Продолжительность: 01:59:12
Перевод: Многоголосый закадровый
Субтитры: Английские

Рейтинг MPAA: PG13 – лицам до 13 лет обязательное присутствие родителей!!!
Дата мировой премьеры: 5 июня 1965
Видеокодек: MPEG-4 AVC
Битрейт видео: ~ 4142 Кбит/сек
Размер кадра: 1280x692
Качество видео: BDRip
Аудио:
1. Dolby Digital Русский 2.0 / 48 kHz / 192 kbps (Многоголосый закадровый)
2. Dolby Digital Английский 2.0 / 48 kHz / 192 kbps

Награды и номинации

Оскар, 1966 год
Номинации:
Лучшая женская роль (Саманта Эггар)
Лучший режиссер (Уильям Уайлер)
Лучший адаптированный сценарий
Золотой глобус, 1966 год
Победитель:
Лучшая женская роль (драма) (Саманта Эггар)
Номинации:
Лучший фильм (драма)
Лучший режиссер (Уильям Уайлер)
Лучший сценарий
Каннский кинофестиваль, 1965 год
Победитель:
Серебряная премия за лучшую мужскую роль (Теренс Стэмп)
Серебряная премия за лучшую женскую роль (Саманта Эггар)
Номинации:
Золотая пальмовая ветвь

MediaInfo

Общее
Уникальный идентификатор : 247234026108432772389793856880414739885 (0xB9FF8A9A3284A85AB52DC4613512CDAD)
Полное имя : E:\Video\Kollekcioner.1965.x264.BDRip.720p.mkv
Формат : Matroska
Версия формата : Version 4 / Version 2
Размер файла : 3,84 Гбайт
Продолжительность : 1 ч. 59 м.
Общий поток : 4617 Кбит/сек
Дата кодирования : UTC 2010-02-22 21:41:31
Программа кодирования : mkvmerge v5.9.0 ('On The Loose') built on Dec 9 2012 15:37:01
Библиотека кодирования : libebml v1.3.0 + libmatroska v1.4.0
Видео
Идентификатор : 1
Формат : AVC
Формат/Информация : Advanced Video Codec
Профиль формата : High@L4.1
Параметр CABAC формата : Да
Параметр ReFrames формата : 9 кадров
Идентификатор кодека : V_MPEG4/ISO/AVC
Продолжительность : 1 ч. 59 м.
Битрейт : 4142 Кбит/сек
Ширина : 1280 пикселей
Высота : 692 пикселя
Соотношение сторон : 1,85:1
Режим частоты кадров : Постоянный
Частота кадров : 23,976 кадра/сек
Цветовое пространство : YUV
Субдискретизация насыщенности : 4:2:0
Битовая глубина : 8 бит
Тип развёртки : Прогрессивная
Бит/(Пиксели*Кадры) : 0.195
Размер потока : 3,45 Гбайт (90%)
Библиотека кодирования : x264 core 129 r2230 1cffe9f
Настройки программы : cabac=1 / ref=9 / deblock=1:-1:-1 / analyse=0x3:0x113 / me=umh / subme=9 / psy=1 / psy_rd=1.00:0.15 / mixed_ref=1 / me_range=24 / chroma_me=1 / trellis=2 / 8x8dct=1 / cqm=0 / deadzone=21,11 / fast_pskip=1 / chroma_qp_offset=-3 / threads=6 / lookahead_threads=1 / sliced_threads=0 / nr=0 / decimate=1 / interlaced=0 / bluray_compat=0 / constrained_intra=0 / bframes=8 / b_pyramid=2 / b_adapt=2 / b_bias=0 / direct=1 / weightb=1 / open_gop=0 / weightp=2 / keyint=230 / keyint_min=23 / scenecut=40 / intra_refresh=0 / rc=crf / mbtree=0 / crf=22.0 / qcomp=0.60 / qpmin=0 / qpmax=69 / qpstep=4 / ip_ratio=1.40 / pb_ratio=1.30 / aq=1:1.00
Язык : English
Default : Да
Forced : Нет
Аудио #1
Идентификатор : 2
Формат : AC-3
Формат/Информация : Audio Coding 3
Расширение режима : CM (complete main)
Параметр Endianness формата : Big
Идентификатор кодека : A_AC3
Продолжительность : 1 ч. 59 м.
Вид битрейта : Постоянный
Битрейт : 192 Кбит/сек
Каналы : 2 канала
Расположение каналов : Front: L R
Частота : 48,0 КГц
Битовая глубина : 16 бит
Метод сжатия : С потерями
Размер потока : 164 Мбайт (4%)
Заголовок : MVO
Язык : Russian
Default : Да
Forced : Нет
Аудио #2
Идентификатор : 3
Формат : AC-3
Формат/Информация : Audio Coding 3
Расширение режима : CM (complete main)
Параметр Endianness формата : Big
Идентификатор кодека : A_AC3
Продолжительность : 1 ч. 59 м.
Вид битрейта : Постоянный
Битрейт : 192 Кбит/сек
Каналы : 2 канала
Расположение каналов : Front: L R
Частота : 48,0 КГц
Битовая глубина : 16 бит
Метод сжатия : С потерями
Размер потока : 164 Мбайт (4%)
Заголовок : Original
Язык : English
Default : Нет
Forced : Нет
Текст
Идентификатор : 4
Формат : UTF-8
Идентификатор кодека : S_TEXT/UTF8
Идентификатор кодека/Информация : UTF-8 Plain Text
Заголовок : английский (для слабослышащих)
Язык : English
Default : Нет
Forced : Нет
Скриншоты:
-Раздача: 24/7-Не забываем говорить спасибо, Вам не сложно, а мне приятно)))
Прошу с раздачи не уходить! Скачал сам, дай и другим скачать!!!
Приятного просмотра)))

[Цитировать]



Показать сообщения:    

Текущее время: 10-Дек 02:13

Часовой пояс: UTC + 3


Вы не можете начинать темы
Вы не можете отвечать на сообщения
Вы не можете редактировать свои сообщения
Вы не можете удалять свои сообщения
Вы не можете голосовать в опросах
Вы не можете прикреплять файлы к сообщениям
Вы не можете скачивать файлы

!ВНИМАНИЕ!
Сайт не предоставляет электронные версии произведений, а занимается лишь коллекционированием и каталогизацией ссылок, присылаемых и публикуемых на форуме нашими читателями. Если вы являетесь правообладателем какого-либо представленного материала и не желаете, чтобы ссылка на него находилась в нашем каталоге, свяжитесь с нами, и мы незамедлительно удалим ее. Файлы для обмена на трекере предоставлены пользователями сайта, и администрация не несет ответственности за их содержание. Просьба не заливать файлы, защищенные авторскими правами, а также файлы нелегального содержания!