[ Сегодня идет свободное скачивание без начисления Download ]


Статистика раздачи
Нет
 
   
 
Top  
 
 
[sh]Метод Лавровой 2 (1-8 серии из 20) (2012) SATRip[/sh]
- -Русское название: Метод Лавровой 2
Год выпуска: 2013
Производство: Россия, Леан-М
Жанр: Драма, мелодрама, детектив-Режиссер: Владислав Николаев, Андрей Ушатинский
Актеры: Юрий Батурин, Дмитрий Блохин, Светлана Ходченкова, Артем Григорьев, Павел Прилучный, Сергей Беляев, Елена Валюшкина, Максим Виноградов, Наталья Тищенко, Борис Невзоров, Алексей Демидов, Андрей Андреев (I), Мария Климова, Елена Коллегова-Описание фильма:
Чтобы быть великолепным сыщиком, не нужно уметь играть на скрипке. Не требуется носить идеальные усы. Даже не обязательно курить сигару или употреблять викодин. Сегодня достаточно знать высшую математику, быть красивой блондинкой и уметь превосходно распутывать сложнейшие преступления. И еще необходимо иметь свой метод.
Катя Лаврова — красивая дочка высокопоставленного начальника МВД, отличница с красным дипломом и лучший опер Управления. Она обладает мужской логикой, острым умом и отточенным чувством юмора. Еще недавно ее ждала прекрасная карьера, но неожиданно она ушла из отдела. Причину никому не объяснила. С тех пор работает внештатным консультантом криминальной полиции и помогает в раскрытии самых загадочных преступлений.
В новом сезоне Кате Лавровой и её курсантам предстоит расследовать череду загадочных убийств участников археологической экспедиции, поломать голову над чертовщиной, происходящей в одной из деревень, распутать дело, в котором замешаны оборотни, и спасти от приговора курсанта, обвиняемого в жестоком убийстве.- -Продолжительность: ~ 00:45:00 серия
Качество видео: SATRip-Видеокодек: XviD
Битрейт видео: ~ 1600 Кбит/сек
Размер кадра: 720x400
Аудио: Русский, МР3, 2 ch, 128 Кбит/с
-

Внимание! Раздача ведётся путём добавления новых серий. Описание обновления торрента:

Внимание!
Раздача ведётся путём добавления новых серий; при каждом добавлении создётся новый торрент. Чтобы начать докачку новой серии, пользователям необходимо сделать следующее:
(1) остановить скачивание,
(2) удалить старый торрент у себя из клиента (старые серии удалять не надо),
(3) скачать новый торрент и запустить его у себя в клиенте вместо старого, при этом указать клиенту путь в старую папку куда и должно происходить скачивание новых серий.
Ваш клиент при этом должен произвести хеширование (проверку) старой папки (если не производит сам - помогите ему сделать это), и будет докачивать только те серии которых у вас ещё нет. Старые серии при этом не удаляются, а продолжают раздаваться!
Eсли вы уже удалили старые серии, то предотвратить повторную закачку старых серий можно, отжав галочку в соответсвующих местах при запуске нового торрента. По возможности, желательно не удалять старые серии как можно дольше чтобы релизёр не столько продолжал раздавать старые серии, а смог сконцентрироваться на новых.

MediaInfo

Общее
Полное имя                               : E:\Раздачи\Обновляемые\Метод Лавровой 2\Metod.Lavrovoy.s02.e01.avi
Формат                                   : AVI
Формат/Информация                        : Audio Video Interleave
Размер файла                             : 606 Мбайт
Продолжительность                        : 48 м.
Общий поток                              : 1740 Кбит/сек
Программа кодирования                    : VirtualDubModRus 1.5.10.2 (build 2542/release)
Библиотека кодирования                   : VirtualDubMod build 2542/release
Видео
Идентификатор                            : 0
Формат                                   : MPEG-4 Visual
Профиль формата                          : Advanced Simple@L5
Параметр BVOP формата                    : 2
Параметр QPel формата                    : Нет
Параметр GMC формата                     : Без точки перехода
Параметр матрицы формата                 : Default (H.263)
Режим смешивания                         : Сжатый битовый поток
Идентификатор кодека                     : XVID
Идентификатор кодека/Подсказка           : XviD
Продолжительность                        : 48 м.
Битрейт                                  : 1602 Кбит/сек
Ширина                                   : 720 пикселей
Высота                                   : 400 пикселей
Соотношение сторон                       : 16:9
Частота кадров                           : 25,000 кадров/сек
Цветовое пространство                    : YUV
Субдискретизация насыщенности            : 4:2:0
Битовая глубина                          : 8 бит
Тип развёртки                            : Прогрессивная
Метод сжатия                             : С потерями
Бит/(Пиксели*Кадры)                      : 0.222
Размер потока                            : 558 Мбайт (92%)
Библиотека кодирования                   : XviD 64
Аудио
Идентификатор                            : 1
Формат                                   : MPEG Audio
Версия формата                           : Version 1
Профиль формата                          : Layer 3
Режим                                    : Joint stereo
Расширение режима                        : MS Stereo
Идентификатор кодека                     : 55
Идентификатор кодека/Подсказка           : MP3
Продолжительность                        : 48 м.
Вид битрейта                             : Постоянный
Битрейт                                  : 128 Кбит/сек
Каналы                                   : 2 канала
Частота                                  : 48,0 КГц
Метод сжатия                             : С потерями
Размер потока                            : 44,6 Мбайт (7%)
Выравнивание                             : Разделение по промежуткам
Продолжительность промежутка             : 40  мс. (1,00 видеокадр)
Время предзагрузки промежутка            : 500  мс.
Библиотека кодирования                   : LAME3.98.2
Скриншоты:

-

[Цитировать]



Показать сообщения:    

Текущее время: 11-Дек 03:18

Часовой пояс: UTC + 3


Вы не можете начинать темы
Вы не можете отвечать на сообщения
Вы не можете редактировать свои сообщения
Вы не можете удалять свои сообщения
Вы не можете голосовать в опросах
Вы не можете прикреплять файлы к сообщениям
Вы не можете скачивать файлы

!ВНИМАНИЕ!
Сайт не предоставляет электронные версии произведений, а занимается лишь коллекционированием и каталогизацией ссылок, присылаемых и публикуемых на форуме нашими читателями. Если вы являетесь правообладателем какого-либо представленного материала и не желаете, чтобы ссылка на него находилась в нашем каталоге, свяжитесь с нами, и мы незамедлительно удалим ее. Файлы для обмена на трекере предоставлены пользователями сайта, и администрация не несет ответственности за их содержание. Просьба не заливать файлы, защищенные авторскими правами, а также файлы нелегального содержания!