[ Сегодня идет свободное скачивание без начисления Download ]


Статистика раздачи
Нет
 
   
 
Top  
 
 
Назад в СССР (4 серии из 4) (2010) DVD5
«Путешествие успешного бизнесмена в 1975 год»
- Русское название: Назад в СССР
Год выпуска: 2010
Производство: Россия, Кинокомпания «Магнум»
Жанр: Мелодрама
Перевод: Не требуется [Русский язык]
Субтитры: Отсутствуют
Режиссер: Валерий Рожнов
Сценарий: Валерий Рожнов
Актеры: Марат Башаров, Карина Андоленко, Евгений Миллер, Владимир Качан, Александр Макогон, Кристина Бабушкина, Сергей Баталов, Анатолий Узденский, Поля Полякова
Описание фильма:
Антон — преуспевающий бизнесмен, переживающий кризис среднего возраста. Он не чувствует себя счастливым, имея все, что он мог бы пожелать. Он много выпивает, и по совету близкого друга, начинает посещать общество анонимных алкоголиков.
Там он знакомится с человеком, называющим себя Сталкером, который предлагает приключение и ощущения, которых он никогда не испытывал. Антон соглашается и очень скоро понимает, что оказался в 1975 году.- Дата мировой премьеры: 11 декабря 2010
Дата выхода DVD релиза: 24 марта 2011, «Новый Диск»-Продолжительность: 4 серии ~ 00:48:00
Качество видео: DVD5
Видеокодек: MPEG2
Битрейт видео: ~ 3259.66 Кбит/сек
Размер кадра: 720x576@768x576
Аудио : Русский, AC3, 2 ch, 224 Кбит/сек
Доп. материалы на диске: Отсутствуют

DVDInfo

Title: Назад в СССР (4 серии из 4) (2010) DVD5
Size: 4.34 Gb ( 4 548 050,00 KBytes ) - DVD-5
Enabled regions: 1, 2, 3, 4, 5, 6, 7, 8
VTS_01 :
  Play Length: 00:00:00
  Video: PAL 4:3 (720x576) VBR
VTS_02 :
  Play Length: 00:00:00
  Video: PAL 16:9 (720x576) VBR, Auto Letterboxed
VTS_03 :
  Play Length: 00:00:00
  Video: PAL 16:9 (720x576) VBR, Auto Letterboxed
VTS_04 :
  Play Length: 00:00:00
  Video: PAL 16:9 (720x576) VBR, Auto Letterboxed
VTS_05 :
  Play Length: 00:00:00
  Video: PAL 16:9 (720x576) VBR, Auto Letterboxed
VTS_06 :
  Play Length: 00:00:00
  Video: PAL 16:9 (720x576) VBR, Auto Letterboxed
VTS_07 :
  Play Length: 00:00:00
  Video: PAL 16:9 (720x576) VBR, Auto Letterboxed
VTS_08 :
  Play Length: 00:00:00
  Video: PAL 16:9 (720x576) VBR, Auto Letterboxed
VTS_09 :
  Play Length: 00:00:00
  Video: PAL 16:9 (720x576) VBR, Auto Letterboxed
VTS_10 :
  Play Length: 00:00:00
  Video: PAL 16:9 (720x576) VBR, Auto Letterboxed
VTS_11 :
  Play Length: 00:48:39
  Video: PAL 4:3 (720x576) VBR
  Audio:
      Not specified (Dolby AC3, 2 ch)
VTS_12 :
  Play Length: 00:46:48
  Video: PAL 4:3 (720x576) VBR
  Audio:
      Not specified (Dolby AC3, 2 ch)
VTS_13 :
  Play Length: 00:46:41
  Video: PAL 4:3 (720x576) VBR
  Audio:
      Not specified (Dolby AC3, 2 ch)
VTS_14 :
  Play Length: 00:46:28
  Video: PAL 4:3 (720x576) VBR
  Audio:
      Not specified (Dolby AC3, 2 ch)
* Menus Information *
VIDEO_TS Menu
Video:
      NTSC 4:3 (720x480) VBR
      Auto Pan&Scan, Auto Letterboxed
English Language Unit :
      Title Menu
VTS_01 Menu
Video:
      PAL 4:3 (720x576) VBR
Audio:
      Not specified (Dolby AC3, 2 ch)
English Language Unit :
      Root Menu
      Chapter (PTT) Menu
VTS_02 Menu
Video:
      NTSC 4:3 (720x480) VBR
      Auto Pan&Scan, Auto Letterboxed
English Language Unit :
      Root Menu
      Chapter (PTT) Menu
VTS_03 Menu
Video:
      NTSC 4:3 (720x480) VBR
      Auto Pan&Scan, Auto Letterboxed
English Language Unit :
      Root Menu
      Chapter (PTT) Menu
VTS_04 Menu
Video:
      NTSC 4:3 (720x480) VBR
      Auto Pan&Scan, Auto Letterboxed
English Language Unit :
      Root Menu
      Chapter (PTT) Menu
VTS_05 Menu
Video:
      NTSC 4:3 (720x480) VBR
      Auto Pan&Scan, Auto Letterboxed
English Language Unit :
      Root Menu
      Chapter (PTT) Menu
VTS_06 Menu
Video:
      NTSC 4:3 (720x480) VBR
      Auto Pan&Scan, Auto Letterboxed
English Language Unit :
      Root Menu
      Chapter (PTT) Menu
VTS_07 Menu
Video:
      NTSC 4:3 (720x480) VBR
      Auto Pan&Scan, Auto Letterboxed
English Language Unit :
      Root Menu
      Chapter (PTT) Menu
VTS_08 Menu
Video:
      NTSC 4:3 (720x480) VBR
      Auto Pan&Scan, Auto Letterboxed
English Language Unit :
      Root Menu
      Chapter (PTT) Menu
VTS_09 Menu
Video:
      NTSC 4:3 (720x480) VBR
      Auto Pan&Scan, Auto Letterboxed
English Language Unit :
      Root Menu
      Chapter (PTT) Menu
VTS_10 Menu
Video:
      NTSC 4:3 (720x480) VBR
      Auto Pan&Scan, Auto Letterboxed
English Language Unit :
      Root Menu
      Chapter (PTT) Menu
VTS_11 Menu
Video:
      NTSC 4:3 (720x480) VBR
      Auto Pan&Scan, Auto Letterboxed
English Language Unit :
      Root Menu
      Chapter (PTT) Menu
VTS_12 Menu
Video:
      NTSC 4:3 (720x480) VBR
      Auto Pan&Scan, Auto Letterboxed
English Language Unit :
      Root Menu
      Chapter (PTT) Menu
VTS_13 Menu
Video:
      NTSC 4:3 (720x480) VBR
      Auto Pan&Scan, Auto Letterboxed
English Language Unit :
      Root Menu
      Chapter (PTT) Menu
VTS_14 Menu
Video:
      NTSC 4:3 (720x480) VBR
      Auto Pan&Scan, Auto Letterboxed
English Language Unit :
      Root Menu
      Chapter (PTT) Menu

MediaInfo

Общее
Полное имя                               : E:\Раздачи\Видео\Назад в СССР (4 серии из 4) (2010) DVD5\VIDEO_TS\VTS_11_1.VOB
Формат                                   : MPEG-PS
Размер файла                             : 1024 Мбайт
Продолжительность                        : 43 м.
Режим общего битрейта                    : Переменный
Общий поток                              : 3293 Кбит/сек
Видео
Идентификатор                            : 224 (0xE0)
Формат                                   : MPEG Video
Версия формата                           : Version 2
Профиль формата                          : Main@Main
Параметр BVOP формата                    : Да
Параметр матрицы формата                 : Выборочная
Продолжительность                        : 43 м.
Вид битрейта                             : Переменный
Битрейт                                  : 3004 Кбит/сек
Максимальный битрейт                     : 9000 Кбит/сек
Ширина                                   : 720 пикселей
Высота                                   : 576 пикселей
Соотношение сторон                       : 4:3
Частота кадров                           : 25,000 кадров/сек
Стандарт вещания                         : PAL
Цветовое пространство                    : YUV
Субдискретизация насыщенности            : 4:2:0
Битовая глубина                          : 8 бит
Тип развёртки                            : Прогрессивная
Порядок развёртки                        : Нижнее поле первое
Метод сжатия                             : С потерями
Бит/(Пиксели*Кадры)                      : 0.290
Размер потока                            : 934 Мбайт (91%)
Аудио
Идентификатор                            : 189 (0xBD)-128 (0x80)
Формат                                   : AC-3
Формат/Информация                        : Audio Coding 3
Расширение режима                        : CM (complete main)
Параметр Endianness формата              : Big
Режим смешивания                         : DVD-Video
Продолжительность                        : 43 м.
Вид битрейта                             : Постоянный
Битрейт                                  : 224 Кбит/сек
Каналы                                   : 2 канала
Расположение каналов                     : Front: L R
Частота                                  : 48,0 КГц
Битовая глубина                          : 16 бит
Метод сжатия                             : С потерями
Размер потока                            : 69,6 Мбайт (7%)
Меню

Скриншоты меню

Скриншоты:

Назад в СССР на NNM-CLUB-Время раздачи: 9.00 - 23.00 (по мере возможности...)

[Цитировать]



Показать сообщения:    

Текущее время: 11-Дек 03:18

Часовой пояс: UTC + 3


Вы не можете начинать темы
Вы не можете отвечать на сообщения
Вы не можете редактировать свои сообщения
Вы не можете удалять свои сообщения
Вы не можете голосовать в опросах
Вы не можете прикреплять файлы к сообщениям
Вы не можете скачивать файлы

!ВНИМАНИЕ!
Сайт не предоставляет электронные версии произведений, а занимается лишь коллекционированием и каталогизацией ссылок, присылаемых и публикуемых на форуме нашими читателями. Если вы являетесь правообладателем какого-либо представленного материала и не желаете, чтобы ссылка на него находилась в нашем каталоге, свяжитесь с нами, и мы незамедлительно удалим ее. Файлы для обмена на трекере предоставлены пользователями сайта, и администрация не несет ответственности за их содержание. Просьба не заливать файлы, защищенные авторскими правами, а также файлы нелегального содержания!