[ Сегодня идет свободное скачивание без начисления Download ]


Статистика раздачи
Нет
 
   
 
Top  
 
 
[sh]Обратная сторона Луны (2012) SATRip (AVC) [16 серий][/sh]- -Русское название: Обратная сторона Луны
Год выпуска: 2012
Жанр: Фантастика, Драма-Дата российской премьеры: 5 ноября 2012 (Первый канал)
Дата выхода DVD: 13 декабря 2012, «Флагман-Трейд»-Описание фильма:
Третий год старший лейтенант полиции Михаил Соловьев идет по следу Маньяка, терроризирующего столицу убийствами молодых женщин. Во время операции задержания Маньяк сбивает Соловьева автомобилем. Придя в себя после аварии, Михаил обнаруживает, что переместился во времени и оказался в 1979 году. Не понимая до конца, что с ним произошло, он, тем не менее, старается адаптироваться к новым обстоятельствам, работая советским милиционером. А попутно пытается выяснить, в чем причина случившейся с ним метаморфозы.-Режиссер: Александр Котт
Актеры: Павел Деревянко, Светлана Смирнова-Марцинкевич, Иван Шибанов, Карина Разумовская, Евгений Богомолов, Олег Алмазов, Дмитрий Гусев, Александр Ляпин, Сергей Беляев, Сергей Галахов, Ирина Марцинкевич, Ирина Нарбекова, Анна Корнеева, Анна Цуканова-Котт, Сергей Карякин, Максим Костромыкин, Александр Сирин, Татьяна Масс, Андрюс Паулавичюс, Светлана Солянкина, Юрий Гурьев, Прадьюмна Чаттерджи, Денис Курочка, Семен Трескунов, Роман Дервоед, Артур Федорович-Продолжительность: 16 х 00:50:00 -Качество видео: SATRip (AVC)
Видеокодек: MPEG-4 AVC/H.264
Видео: [email protected], 1450 Кбит/с
Аудио: MP3, 2 ch, 192 Кбит/с
-

MediaInfo:

Полное имя: D:\Обратная сторона Луны\Обратная сторона Луны - 01 серия.mkv
Формат : Matroska
Версия формата : Version 2
Размер файла : 803 Мбайт
Продолжительность : 1 ч. 15 м.
Режим общего битрейта : Переменный
Общий поток : 1492 Кбит/сек
Дата кодирования : UTC 2012-11-24 13:09:43
Программа кодирования : mkvmerge v4.0.0 ('The Stars were mine') сборка от Jun 6 2010 16:18:42
Библиотека кодирования : libebml v1.0.0 + libmatroska v1.0.0
Видео
Идентификатор : 1
Формат : AVC
Формат/Информация : Advanced Video Codec
Профиль формата : [email protected]
Параметр CABAC формата : Да
Параметр ReFrames формата : 8 кадров
Идентификатор кодека : V_MPEG4/ISO/AVC
Продолжительность : 1 ч. 15 м.
Битрейт : 1303 Кбит/сек
Ширина : 720 пикселей
Высота : 576 пикселей
Соотношение сторон : 16:9
Частота кадров : 25,000 кадров/сек
Стандарт вещания : PAL
Цветовое пространство : YUV
Субдискретизация насыщенности : 4:2:0
Битовая глубина : 8 бит
Тип развёртки : Прогрессивная
Бит/(Пиксели*Кадры) : 0.126
Размер потока : 684 Мбайт (85%)
Библиотека кодирования : x264 core 120 r2164 da19765
Настройки программы : cabac=1 / ref=8 / deblock=1:-2:-1 / analyse=0x3:0x133 / me=hex / subme=9 / psy=1 / psy_rd=1.00:0.20 / mixed_ref=1 / me_range=16 / chroma_me=1 / trellis=2 / 8x8dct=1 / cqm=0 / deadzone=21,11 / fast_pskip=0 / chroma_qp_offset=-3 / threads=3 / sliced_threads=0 / nr=0 / decimate=1 / interlaced=0 / bluray_compat=0 / constrained_intra=0 / bframes=3 / b_pyramid=2 / b_adapt=1 / b_bias=0 / direct=3 / weightb=0 / open_gop=0 / weightp=2 / keyint=50 / keyint_min=25 / scenecut=40 / intra_refresh=0 / rc_lookahead=40 / rc=2pass / mbtree=1 / bitrate=1303 / ratetol=1.0 / qcomp=0.60 / qpmin=10 / qpmax=51 / qpstep=4 / cplxblur=20.0 / qblur=0.5 / ip_ratio=1.40 / aq=1:1.00
Язык : English
Default : Нет
Forced : Нет
Аудио
Идентификатор : 2
Формат : MPEG Audio
Версия формата : Version 1
Профиль формата : Layer 3
Идентификатор кодека : A_MPEG/L3
Идентификатор кодека/Подсказка : MP3
Продолжительность : 1 ч. 13 м.
Вид битрейта : Переменный
Битрейт : 192 Кбит/сек
Каналы : 2 канала
Частота : 48,0 КГц
Метод сжатия : С потерями
Размер потока : 101 Мбайт (13%)
Язык : Russian
Скриншоты:

Время раздачи: c 19:00 до 23:00, выходные 10:00 до 23:30

[Цитировать]



Показать сообщения:    

Текущее время: 05-Дек 21:42

Часовой пояс: UTC + 3


Вы не можете начинать темы
Вы не можете отвечать на сообщения
Вы не можете редактировать свои сообщения
Вы не можете удалять свои сообщения
Вы не можете голосовать в опросах
Вы не можете прикреплять файлы к сообщениям
Вы не можете скачивать файлы

!ВНИМАНИЕ!
Сайт не предоставляет электронные версии произведений, а занимается лишь коллекционированием и каталогизацией ссылок, присылаемых и публикуемых на форуме нашими читателями. Если вы являетесь правообладателем какого-либо представленного материала и не желаете, чтобы ссылка на него находилась в нашем каталоге, свяжитесь с нами, и мы незамедлительно удалим ее. Файлы для обмена на трекере предоставлены пользователями сайта, и администрация не несет ответственности за их содержание. Просьба не заливать файлы, защищенные авторскими правами, а также файлы нелегального содержания!