[ Сегодня идет свободное скачивание без начисления Download ]


Статистика раздачи
Нет
 
   
 
Top  
 
 
[sh]Демоны (16 серий из 16) (2011) 2хDVD9[/sh]- -Русское название: Демоны
Год выпуска: 2011
Производство: Россия, Star Media
Жанр: Детектив
Язык: Оригинал (русский)
Субтитры: Отсутствуют-Дата российской премьеры: 25 апреля 2011
Дата выхода DVD релиза: 26 апреля 2012-Режиссер: Александр Буденный
Актеры: Александр Дьяченко, Семен Стругачев, Елена Шевченко, Александр Рапопорт, Александр Баширов, Михаил Хмуров, Игорь Савочкин, Алена Ивченко, Константин Воробьев, Андрей Межулис, Сергей Стрельников, Александр Кобзарь, Шухрат Иргашев, Евгений Ефремов, Игорь Писный, Поля Полякова, Алексей Смолка, Елена Баламутова, Сергей Калантай, Яна Соболевская, Виктор Сарайкин, Евгений Паперный, Ольга Лежнева, Виолетта Трыкова, Татьяна Коновалова, Андрис Лиелайс
Описание фильма:
Горькая и непреложная истина, что огромный капитал, как правило, замешан на крови, изломанных судьбах, обесценивании человеческой морали и человеческой жизни вообще, что рано или поздно приходит расплата за совершенные в прошлом грехи, и расплата часто более страшная, чем собственная смерть – смерть близких и друзей. События происходят в неком российском городе, «лихие 90-е» остались позади, бизнес легализован, жизнь более или менее налажена, юристы, адвокаты, милиция – все «прикормлены», но сила инерции, да и жизненная необходимость заставляют криминальную группу Демона (Дмитрия) держаться вместе, находиться в постоянной боевой готовности, так как капитал, связи и возможности Демона – большой соблазн, как для сильных мира, начиная от депутатов и верхушки правоохранительных органов, и заканчивая воровскими авторитетами, но и даже близким окружением Демона. Новый виток трагических событий не заставил себя ждать, начавшись с малого и непонятного и закончившись полным крахом империи Демона.- -Продолжительность: 16 х ~ 00:48:00
Качество видео: DVD9-Видеокодек: MPEG-2
Битрейт видео: ~000 Кбит/сек
Размер кадра: 720х576@768x576
Аудиокодек: AC3 2.0
Битрейт аудио: AC3, 2 ch, 192 Кбит/с
-

MediaInfo

Общее
Полное имя : G:\NNM-Club.ru\Demoni.(01-16.serji.iz.16).2011.2xDVD9\DVD-1\VIDEO_TS\VTS_01_6.VOB
Формат : MPEG-PS
Размер файла : 1024 Мбайт
Продолжительность : 5 м. 58 с.
Общий поток : 23,9 Мбит/сек
Видео
Идентификатор : 224 (0xE0)
Формат : MPEG Video
Версия формата : Version 2
Профиль формата : Main@Main
Параметр BVOP формата : Да
Параметр матрицы формата : По умолчанию
Параметры GOP формата : M=3, N=15
Продолжительность : 5 м. 58 с.
Вид битрейта : Переменный
Битрейт : 23,3 Мбит/сек
Номинальный битрейт : 7000 Кбит/сек
Ширина : 720 пикс.
Высота : 576 пикс.
Соотношение сторон : 4:3
Частота кадров : 25,000 кадр/сек
Стандарт вещания : PAL
Цветовое пространство : YUV
Подвыборка цветности : 4:2:0
Битовая глубина : 8 бит
Тип развёртки : Чересстрочная
Порядок развёртки : Верхнее поле первое
Метод сжатия : С потерями
Бит/(Пиксели*Кадры) : 2.245
Размер потока : 995 Мбайт (97%)
Аудио
Идентификатор : 189 (0xBD)-128 (0x80)
Формат : AC-3
Формат/Информация : Audio Coding 3
Расширение режима : CM (complete main)
Режим смешивания : DVD-Video
Продолжительность : 5 м. 58 с.
Вид битрейта : Постоянный
Битрейт : 192 Кбит/сек
Канал(ы) : 2 канала(ов)
Расположение каналов : Front: L R
Частота : 48,0 КГц
Битовая глубина : 16 бит
Метод сжатия : С потерями
Задержка видео : -200 мс.
Размер потока : 8,21 Мбайт (1%)
Меню
Общее
Полное имя : G:\NNM-Club.ru\Demoni.(01-16.serji.iz.16).2011.2xDVD9\DVD-1\VIDEO_TS\VIDEO_TS.BUP
Формат : DVD Video
Профиль формата : Menu
Размер файла : 12,0 Кбайт
Видео
Идентификатор : 224 (0xE0)
Формат : MPEG Video
Версия формата : Version 2
Вид битрейта : Переменный
Ширина : 720 пикс.
Высота : 576 пикс.
Соотношение сторон : 4:3
Частота кадров : 25,000 кадр/сек
Стандарт вещания : PAL
Метод сжатия : С потерями
Аудио
Формат : AC-3
Формат/Информация : Audio Coding 3
Канал(ы) : 2 канала(ов)
Частота : 48,0 КГц
Метод сжатия : С потерями
Текст
Формат : RLE
Формат/Информация : Run-length encoding
Битовая глубина : 2 бит
Общее
Полное имя : G:\NNM-Club.ru\Demoni.(01-16.serji.iz.16).2011.2xDVD9\DVD-1\VIDEO_TS\VIDEO_TS.IFO
Формат : DVD Video
Профиль формата : Menu
Размер файла : 12,0 Кбайт
Видео
Идентификатор : 224 (0xE0)
Формат : MPEG Video
Версия формата : Version 2
Вид битрейта : Переменный
Ширина : 720 пикс.
Высота : 576 пикс.
Соотношение сторон : 4:3
Частота кадров : 25,000 кадр/сек
Стандарт вещания : PAL
Метод сжатия : С потерями
Аудио
Формат : AC-3
Формат/Информация : Audio Coding 3
Канал(ы) : 2 канала(ов)
Частота : 48,0 КГц
Метод сжатия : С потерями
Текст
Формат : RLE
Формат/Информация : Run-length encoding
Битовая глубина : 2 бит
Общее
Полное имя : G:\NNM-Club.ru\Demoni.(01-16.serji.iz.16).2011.2xDVD9\DVD-1\VIDEO_TS\VIDEO_TS.VOB
Формат : MPEG-PS
Размер файла : 29,5 Мбайт
Продолжительность : 19 с.
Общий поток : 12,4 Мбит/сек
Видео
Идентификатор : 224 (0xE0)
Формат : MPEG Video
Версия формата : Version 2
Профиль формата : Main@Main
Параметр BVOP формата : Да
Параметр матрицы формата : По умолчанию
Продолжительность : 19 с.
Вид битрейта : Переменный
Битрейт : 11,7 Мбит/сек
Номинальный битрейт : 8000 Кбит/сек
Ширина : 720 пикс.
Высота : 576 пикс.
Соотношение сторон : 4:3
Частота кадров : 25,000 кадр/сек
Стандарт вещания : PAL
Цветовое пространство : YUV
Подвыборка цветности : 4:2:0
Битовая глубина : 8 бит
Тип развёртки : Чересстрочная
Порядок развёртки : Нижнее поле первое
Метод сжатия : С потерями
Бит/(Пиксели*Кадры) : 1.130
Размер потока : 27,9 Мбайт (94%)
Аудио
Идентификатор : 189 (0xBD)-128 (0x80)
Формат : AC-3
Формат/Информация : Audio Coding 3
Расширение режима : CM (complete main)
Режим смешивания : DVD-Video
Продолжительность : 2 с. 720 мс.
Вид битрейта : Постоянный
Битрейт : 448 Кбит/сек
Канал(ы) : 2 канала(ов)
Расположение каналов : Front: L R
Частота : 48,0 КГц
Битовая глубина : 16 бит
Метод сжатия : С потерями
Размер потока : 149 Кбайт (0%)
Меню
Общее
Полное имя : G:\NNM-Club.ru\Demoni.(01-16.serji.iz.16).2011.2xDVD9\DVD-1\VIDEO_TS\VTS_01_0.BUP
Формат : DVD Video
Профиль формата : Program
Размер файла : 174 Кбайт
Продолжительность : 6 ч. 24 м.
Общий поток : 61 бит/сек
Видео
Идентификатор : 224 (0xE0)
Формат : MPEG Video
Версия формата : Version 2
Продолжительность : 6 ч. 24 м.
Вид битрейта : Переменный
Ширина : 720 пикс.
Высота : 576 пикс.
Соотношение сторон : 4:3
Частота кадров : 25,000 кадр/сек
Стандарт вещания : PAL
Метод сжатия : С потерями
Аудио
Идентификатор : 128 (0x80)
Формат : AC-3
Формат/Информация : Audio Coding 3
Продолжительность : 6 ч. 24 м.
Канал(ы) : 2 канала(ов)
Частота : 48,0 КГц
Метод сжатия : С потерями
Язык : English
Меню
Продолжительность : 6 ч. 24 м.
00:00:00.000 : Chapter 1
00:14:59.880 : Chapter 2
00:29:59.760 : Chapter 3
00:48:38.000 : Chapter 4
01:03:37.720 : Chapter 5
01:18:38.160 : Chapter 6
01:36:18.000 : Chapter 7
01:51:18.240 : Chapter 8
02:06:17.840 : Chapter 9
02:24:39.960 : Chapter 10
02:39:39.800 : Chapter 11
02:54:39.720 : Chapter 12
03:13:34.000 : Chapter 13
03:28:34.200 : Chapter 14
03:43:34.120 : Chapter 15
03:59:50.680 : Chapter 16
04:14:50.480 : Chapter 17
04:29:50.440 : Chapter 18
04:47:53.120 : Chapter 19
05:02:53.320 : Chapter 20
05:17:53.280 : Chapter 21
05:35:53.520 : Chapter 22
05:50:53.680 : Chapter 23
06:05:53.680 : Chapter 24
List (Audio) : 0
Общее
Полное имя : G:\NNM-Club.ru\Demoni.(01-16.serji.iz.16).2011.2xDVD9\DVD-1\VIDEO_TS\VTS_01_0.IFO
Формат : DVD Video
Профиль формата : Program
Размер файла : 174 Кбайт
Продолжительность : 6 ч. 24 м.
Общий поток : 61 бит/сек
Видео
Идентификатор : 224 (0xE0)
Формат : MPEG Video
Версия формата : Version 2
Продолжительность : 6 ч. 24 м.
Вид битрейта : Переменный
Ширина : 720 пикс.
Высота : 576 пикс.
Соотношение сторон : 4:3
Частота кадров : 25,000 кадр/сек
Стандарт вещания : PAL
Метод сжатия : С потерями
Аудио
Идентификатор : 128 (0x80)
Формат : AC-3
Формат/Информация : Audio Coding 3
Продолжительность : 6 ч. 24 м.
Канал(ы) : 2 канала(ов)
Частота : 48,0 КГц
Метод сжатия : С потерями
Язык : English
Меню
Продолжительность : 6 ч. 24 м.
00:00:00.000 : Chapter 1
00:14:59.880 : Chapter 2
00:29:59.760 : Chapter 3
00:48:38.000 : Chapter 4
01:03:37.720 : Chapter 5
01:18:38.160 : Chapter 6
01:36:18.000 : Chapter 7
01:51:18.240 : Chapter 8
02:06:17.840 : Chapter 9
02:24:39.960 : Chapter 10
02:39:39.800 : Chapter 11
02:54:39.720 : Chapter 12
03:13:34.000 : Chapter 13
03:28:34.200 : Chapter 14
03:43:34.120 : Chapter 15
03:59:50.680 : Chapter 16
04:14:50.480 : Chapter 17
04:29:50.440 : Chapter 18
04:47:53.120 : Chapter 19
05:02:53.320 : Chapter 20
05:17:53.280 : Chapter 21
05:35:53.520 : Chapter 22
05:50:53.680 : Chapter 23
06:05:53.680 : Chapter 24
List (Audio) : 0
Общее
Полное имя : G:\NNM-Club.ru\Demoni.(01-16.serji.iz.16).2011.2xDVD9\DVD-1\VIDEO_TS\VTS_01_0.VOB
Формат : MPEG-PS
Размер файла : 21,1 Мбайт
Продолжительность : 54 с.
Общий поток : 3241 Кбит/сек
Видео
Идентификатор : 224 (0xE0)
Формат : MPEG Video
Версия формата : Version 2
Профиль формата : Main@Main
Параметр BVOP формата : Нет
Параметр матрицы формата : По умолчанию
Продолжительность : 54 с.
Вид битрейта : Постоянный
Битрейт : 1640 Кбит/сек
Номинальный битрейт : 8000 Кбит/сек
Ширина : 720 пикс.
Высота : 576 пикс.
Соотношение сторон : 4:3
Частота кадров : 25,000 кадр/сек
Стандарт вещания : PAL
Цветовое пространство : YUV
Подвыборка цветности : 4:2:0
Битовая глубина : 8 бит
Тип развёртки : Прогрессивная
Порядок развёртки : Верхнее поле первое
Метод сжатия : С потерями
Бит/(Пиксели*Кадры) : 0.158
Размер потока : 10,7 Мбайт (51%)
Аудио
Идентификатор : 189 (0xBD)-160 (0xA0)
Формат : PCM
Параметр Endianness формата : Big
Параметр Sign формата : Signed
Режим смешивания : DVD-Video
Продолжительность : 54 с.
Вид битрейта : Постоянный
Битрейт : 1536 Кбит/сек
Канал(ы) : 2 канала(ов)
Расположение каналов : Front: L R
Частота : 48,0 КГц
Битовая глубина : 16 бит
Размер потока : 10,0 Мбайт (47%)
Текст
Идентификатор : 189 (0xBD)-32 (0x20)
Формат : RLE
Формат/Информация : Run-length encoding
Режим смешивания : DVD-Video
Меню
Общее
Полное имя : G:\NNM-Club.ru\Demoni.(01-16.serji.iz.16).2011.2xDVD9\DVD-1\VIDEO_TS\VTS_01_1.VOB
Формат : MPEG-PS
Размер файла : 1024 Мбайт
Продолжительность : 2 м. 19 с.
Общий поток : 61,4 Мбит/сек
Видео
Идентификатор : 224 (0xE0)
Формат : MPEG Video
Версия формата : Version 2
Профиль формата : Main@Main
Параметр BVOP формата : Да
Параметр матрицы формата : По умолчанию
Продолжительность : 2 м. 19 с.
Вид битрейта : Переменный
Битрейт : 60,0 Мбит/сек
Номинальный битрейт : 7000 Кбит/сек
Ширина : 720 пикс.
Высота : 576 пикс.
Соотношение сторон : 4:3
Частота кадров : 25,000 кадр/сек
Стандарт вещания : PAL
Цветовое пространство : YUV
Подвыборка цветности : 4:2:0
Битовая глубина : 8 бит
Тип развёртки : Чересстрочная
Порядок развёртки : Верхнее поле первое
Метод сжатия : С потерями
Бит/(Пиксели*Кадры) : 5.785
Размер потока : 1000 Мбайт (98%)
Аудио
Идентификатор : 189 (0xBD)-128 (0x80)
Формат : AC-3
Формат/Информация : Audio Coding 3
Расширение режима : CM (complete main)
Режим смешивания : DVD-Video
Продолжительность : 2 м. 19 с.
Вид битрейта : Постоянный
Битрейт : 192 Кбит/сек
Канал(ы) : 2 канала(ов)
Расположение каналов : Front: L R
Частота : 48,0 КГц
Битовая глубина : 16 бит
Метод сжатия : С потерями
Размер потока : 3,20 Мбайт (0%)
Меню
Общее
Полное имя : G:\NNM-Club.ru\Demoni.(01-16.serji.iz.16).2011.2xDVD9\DVD-1\VIDEO_TS\VTS_01_2.VOB
Формат : MPEG-PS
Размер файла : 1024 Мбайт
Продолжительность : 5 м. 28 с.
Общий поток : 26,2 Мбит/сек
Видео
Идентификатор : 224 (0xE0)
Формат : MPEG Video
Версия формата : Version 2
Профиль формата : Main@Main
Параметр BVOP формата : Да
Параметр матрицы формата : По умолчанию
Параметры GOP формата : M=3, N=15
Продолжительность : 5 м. 28 с.
Вид битрейта : Переменный
Битрейт : 25,5 Мбит/сек
Номинальный битрейт : 7000 Кбит/сек
Ширина : 720 пикс.
Высота : 576 пикс.
Соотношение сторон : 4:3
Частота кадров : 25,000 кадр/сек
Стандарт вещания : PAL
Цветовое пространство : YUV
Подвыборка цветности : 4:2:0
Битовая глубина : 8 бит
Тип развёртки : Чересстрочная
Порядок развёртки : Верхнее поле первое
Метод сжатия : С потерями
Бит/(Пиксели*Кадры) : 2.456
Размер потока : 996 Мбайт (97%)
Аудио
Идентификатор : 189 (0xBD)-128 (0x80)
Формат : AC-3
Формат/Информация : Audio Coding 3
Расширение режима : CM (complete main)
Режим смешивания : DVD-Video
Продолжительность : 5 м. 28 с.
Вид битрейта : Постоянный
Битрейт : 192 Кбит/сек
Канал(ы) : 2 канала(ов)
Расположение каналов : Front: L R
Частота : 48,0 КГц
Битовая глубина : 16 бит
Метод сжатия : С потерями
Задержка видео : -224 мс.
Размер потока : 7,51 Мбайт (1%)
Меню
Общее
Полное имя : G:\NNM-Club.ru\Demoni.(01-16.serji.iz.16).2011.2xDVD9\DVD-1\VIDEO_TS\VTS_01_3.VOB
Формат : MPEG-PS
Размер файла : 1024 Мбайт
Продолжительность : 2 м. 9 с.
Общий поток : 66,1 Мбит/сек
Видео
Идентификатор : 224 (0xE0)
Формат : MPEG Video
Версия формата : Version 2
Профиль формата : Main@Main
Параметр BVOP формата : Да
Параметр матрицы формата : По умолчанию
Параметры GOP формата : M=3, N=15
Продолжительность : 2 м. 9 с.
Вид битрейта : Переменный
Битрейт : 64,6 Мбит/сек
Номинальный битрейт : 7000 Кбит/сек
Ширина : 720 пикс.
Высота : 576 пикс.
Соотношение сторон : 4:3
Частота кадров : 25,000 кадр/сек
Стандарт вещания : PAL
Цветовое пространство : YUV
Подвыборка цветности : 4:2:0
Битовая глубина : 8 бит
Тип развёртки : Чересстрочная
Порядок развёртки : Верхнее поле первое
Метод сжатия : С потерями
Бит/(Пиксели*Кадры) : 6.228
Размер потока : 1000 Мбайт (98%)
Аудио
Идентификатор : 189 (0xBD)-128 (0x80)
Формат : AC-3
Формат/Информация : Audio Coding 3
Расширение режима : CM (complete main)
Режим смешивания : DVD-Video
Продолжительность : 2 м. 9 с.
Вид битрейта : Постоянный
Битрейт : 192 Кбит/сек
Канал(ы) : 2 канала(ов)
Расположение каналов : Front: L R
Частота : 48,0 КГц
Битовая глубина : 16 бит
Метод сжатия : С потерями
Задержка видео : -176 мс.
Размер потока : 2,98 Мбайт (0%)
Меню
Общее
Полное имя : G:\NNM-Club.ru\Demoni.(01-16.serji.iz.16).2011.2xDVD9\DVD-1\VIDEO_TS\VTS_01_4.VOB
Формат : MPEG-PS
Размер файла : 1024 Мбайт
Продолжительность : 3 м. 22 с.
Общий поток : 42,5 Мбит/сек
Видео
Идентификатор : 224 (0xE0)
Формат : MPEG Video
Версия формата : Version 2
Профиль формата : Main@Main
Параметр BVOP формата : Да
Параметр матрицы формата : По умолчанию
Параметры GOP формата : M=3, N=15
Продолжительность : 3 м. 22 с.
Вид битрейта : Переменный
Битрейт : 41,4 Мбит/сек
Номинальный битрейт : 7000 Кбит/сек
Ширина : 720 пикс.
Высота : 576 пикс.
Соотношение сторон : 4:3
Частота кадров : 25,000 кадр/сек
Стандарт вещания : PAL
Цветовое пространство : YUV
Подвыборка цветности : 4:2:0
Битовая глубина : 8 бит
Тип развёртки : Чересстрочная
Порядок развёртки : Верхнее поле первое
Метод сжатия : С потерями
Бит/(Пиксели*Кадры) : 3.996
Размер потока : 999 Мбайт (98%)
Аудио
Идентификатор : 189 (0xBD)-128 (0x80)
Формат : AC-3
Формат/Информация : Audio Coding 3
Расширение режима : CM (complete main)
Режим смешивания : DVD-Video
Продолжительность : 3 м. 22 с.
Вид битрейта : Постоянный
Битрейт : 192 Кбит/сек
Канал(ы) : 2 канала(ов)
Расположение каналов : Front: L R
Частота : 48,0 КГц
Битовая глубина : 16 бит
Метод сжатия : С потерями
Задержка видео : -200 мс.
Размер потока : 4,63 Мбайт (0%)
Меню
Общее
Полное имя : G:\NNM-Club.ru\Demoni.(01-16.serji.iz.16).2011.2xDVD9\DVD-1\VIDEO_TS\VTS_01_5.VOB
Формат : MPEG-PS
Размер файла : 1024 Мбайт
Продолжительность : 6 м. 15 с.
Общий поток : 22,8 Мбит/сек
Видео
Идентификатор : 224 (0xE0)
Формат : MPEG Video
Версия формата : Version 2
Профиль формата : Main@Main
Параметр BVOP формата : Да
Параметр матрицы формата : По умолчанию
Параметры GOP формата : M=3, N=15
Продолжительность : 6 м. 15 с.
Вид битрейта : Переменный
Битрейт : 22,2 Мбит/сек
Номинальный битрейт : 7000 Кбит/сек
Ширина : 720 пикс.
Высота : 576 пикс.
Соотношение сторон : 4:3
Частота кадров : 25,000 кадр/сек
Стандарт вещания : PAL
Цветовое пространство : YUV
Подвыборка цветности : 4:2:0
Битовая глубина : 8 бит
Тип развёртки : Чересстрочная
Порядок развёртки : Верхнее поле первое
Метод сжатия : С потерями
Бит/(Пиксели*Кадры) : 2.141
Размер потока : 995 Мбайт (97%)
Аудио
Идентификатор : 189 (0xBD)-128 (0x80)
Формат : AC-3
Формат/Информация : Audio Coding 3
Расширение режима : CM (complete main)
Режим смешивания : DVD-Video
Продолжительность : 6 м. 15 с.
Вид битрейта : Постоянный
Битрейт : 192 Кбит/сек
Канал(ы) : 2 канала(ов)
Расположение каналов : Front: L R
Частота : 48,0 КГц
Битовая глубина : 16 бит
Метод сжатия : С потерями
Задержка видео : -208 мс.
Размер потока : 8,60 Мбайт (1%)
Меню
Общее
Полное имя : G:\NNM-Club.ru\Demoni.(01-16.serji.iz.16).2011.2xDVD9\DVD-1\VIDEO_TS\VTS_01_8.VOB
Формат : MPEG-PS
Размер файла : 429 Мбайт
Продолжительность : 23 м.
Общий поток : 2582 Кбит/сек
Видео
Идентификатор : 224 (0xE0)
Формат : MPEG Video
Версия формата : Version 2
Профиль формата : Main@Main
Параметр BVOP формата : Да
Параметр матрицы формата : По умолчанию
Параметры GOP формата : M=3, N=15
Продолжительность : 23 м.
Вид битрейта : Переменный
Битрейт : 2339 Кбит/сек
Номинальный битрейт : 7000 Кбит/сек
Ширина : 720 пикс.
Высота : 576 пикс.
Соотношение сторон : 4:3
Частота кадров : 25,000 кадр/сек
Стандарт вещания : PAL
Цветовое пространство : YUV
Подвыборка цветности : 4:2:0
Битовая глубина : 8 бит
Тип развёртки : Чересстрочная
Порядок развёртки : Верхнее поле первое
Метод сжатия : С потерями
Бит/(Пиксели*Кадры) : 0.226
Размер потока : 389 Мбайт (91%)
Аудио
Идентификатор : 189 (0xBD)-128 (0x80)
Формат : AC-3
Формат/Информация : Audio Coding 3
Расширение режима : CM (complete main)
Режим смешивания : DVD-Video
Продолжительность : 23 м.
Вид битрейта : Постоянный
Битрейт : 192 Кбит/сек
Канал(ы) : 2 канала(ов)
Расположение каналов : Front: L R
Частота : 48,0 КГц
Битовая глубина : 16 бит
Метод сжатия : С потерями
Задержка видео : -232 мс.
Размер потока : 31,9 Мбайт (7%)
Меню
Общее
Полное имя : G:\NNM-Club.ru\Demoni.(01-16.serji.iz.16).2011.2xDVD9\DVD-1\VIDEO_TS\VTS_01_7.VOB
Формат : MPEG-PS
Размер файла : 1024 Мбайт
Общий поток : 1999 бит/сек
Видео
Идентификатор : 224 (0xE0)
Формат : MPEG Video
Версия формата : Version 2
Профиль формата : Main@Main
Параметр BVOP формата : Да
Параметр матрицы формата : По умолчанию
Параметры GOP формата : M=3, N=15
Вид битрейта : Переменный
Номинальный битрейт : 7000 Кбит/сек
Ширина : 720 пикс.
Высота : 576 пикс.
Соотношение сторон : 4:3
Частота кадров : 25,000 кадр/сек
Стандарт вещания : PAL
Цветовое пространство : YUV
Подвыборка цветности : 4:2:0
Битовая глубина : 8 бит
Тип развёртки : Чересстрочная
Порядок развёртки : Верхнее поле первое
Метод сжатия : С потерями
Бит/(Пиксели*Кадры) : 0.675
Аудио
Идентификатор : 189 (0xBD)-128 (0x80)
Формат : AC-3
Формат/Информация : Audio Coding 3
Расширение режима : CM (complete main)
Режим смешивания : DVD-Video
Вид битрейта : Постоянный
Битрейт : 192 Кбит/сек
Канал(ы) : 2 канала(ов)
Расположение каналов : Front: L R
Частота : 48,0 КГц
Битовая глубина : 16 бит
Метод сжатия : С потерями
Задержка видео : -232 мс.
Размер потока : 96,0 Гбайт
Меню

Disk 1

Title: HITACHI
Size: 7.47 Gb ( 7 831 284 KBytes ) - DVD-9
Enabled regions: 1, 2, 3, 4, 5, 6, 7, 8
VTS_01 :
Play Length: 06:24:09
Video: PAL 4:3 (720x576) VBR
Audio:
English (Dolby AC3, 2 ch)
Menu Video:
PAL 4:3 (720x576) VBR
Menu Audio:
Not specified (Dolby AC3, 2 ch)
Menu Subtitles:
Not specified
Menu Russian Language Unit :
Root Menu

Disk 2

Title: HITACHI
Size: 7.51 Gb ( 7 874 080 KBytes ) - DVD-9
Enabled regions: 1, 2, 3, 4, 5, 6, 7, 8
VTS_01 :
Play Length: 06:26:16
Video: PAL 4:3 (720x576) VBR
Audio:
English (Dolby AC3, 2 ch)
Menu Video:
PAL 4:3 (720x576) VBR
Menu Audio:
Not specified (Dolby AC3, 2 ch)
Menu Subtitles:
Not specified
Menu Russian Language Unit :
Root Menu

Меню DVD

Скриншоты:

[Цитировать]



Показать сообщения:    

Текущее время: 10-Дек 08:06

Часовой пояс: UTC + 3


Вы не можете начинать темы
Вы не можете отвечать на сообщения
Вы не можете редактировать свои сообщения
Вы не можете удалять свои сообщения
Вы не можете голосовать в опросах
Вы не можете прикреплять файлы к сообщениям
Вы не можете скачивать файлы

!ВНИМАНИЕ!
Сайт не предоставляет электронные версии произведений, а занимается лишь коллекционированием и каталогизацией ссылок, присылаемых и публикуемых на форуме нашими читателями. Если вы являетесь правообладателем какого-либо представленного материала и не желаете, чтобы ссылка на него находилась в нашем каталоге, свяжитесь с нами, и мы незамедлительно удалим ее. Файлы для обмена на трекере предоставлены пользователями сайта, и администрация не несет ответственности за их содержание. Просьба не заливать файлы, защищенные авторскими правами, а также файлы нелегального содержания!