[ Сегодня идет свободное скачивание без начисления Download ]


Статистика раздачи
Скачал: [ 1 ]
 
   
 
Top  
 
 
-Трансформеры / Transformers: Trilogy (2007-2011) [1080p] BDRip- Русское название: Трансформеры
Оригинальное название: Transformers: Trilogy
Год выпуска: 2007-2011
Производство: США | Di Bonaventura Pictures, DreamWorks SKG, Paramount Pictures, SprocketHeads, thinkfilm, Hasbro
Перевод: Дублированный
Язык субтитров: Русский (Full,Forced), Украинский, Английский (Full,Commentary), Португальский
Вид субтитров: Вшитые отключаемые-Режиссер: Майкл Бэй-Продюсеры: Кенни Бейтс, Майкл Бэй, Ян Брайс, Аллегра Клегг, Мэттью Кохан-Актеры: Шиа ЛаБеф, Меган Фокс, Джош Дюамель, Тайриз Гибсон, Рэйчел Тейлор, Энтони Андерсон, Джон Войт, Джон Туртурро, Майкл О`Нейлл, Кевин Данн, Джули Уайт, Амори Ноласко, Зак Уорд, Луис Эчагарруга, Трэвис Ван Винкл ...-Роли дублировали: Илья Хвостиков, Татьяна Шитова, Сергей Бурунов, Пётр Иващенко, Константин Карасик ...-Описание фильма:
В течение многих столетий две расы роботов-инопланетян — Автоботы и Десептиконы — вели войну, ставкой в которой была судьба Bселенной. И вот война докатилась до Земли. В то время, когда силы зла ищут ключ к верховной власти, наш последний шанс на спасение находится в руках юного землянина. Единственное, что стоит между несущими зло Десептиконами и высшей властью — это ключ, находящийся в руках простого парнишки.
Обычный подросток, Сэм Уитвикки озабочен повседневными хлопотами — школа, друзья, машины, девочки. Не ведая о том, что он является последним шансом человечества на спасение, Сэм вместе со своей подругой Микаэлой оказывается вовлеченным в противостояние Автоботов и Десептиконов. Только тогда Сэм понимает истинное значение семейного девиза Уитвикки — «без жертв нет победы!»
Продолжительность: 3х ~ 07:27:43
Качество видео: BDRip 1080p
Видеокодек: MPEG-4 AVC/H.264
Битрейт видео: ~ 15,0 Мбит/сек
Размер кадра: 1920 x 800 (2.400) at 23.976 fps : 0.407 Bits/Pixel
Аудиокодек: AC3 5.1 | DTS
Аудио #1: AC3 640 Кбит/сек (6ch), 48,0 КГц : 16 bits [Русский, дубляж]
Аудио #2: AC3 640 Кбит/сек (6ch), 48,0 КГц : 16 bits, DTS 1510 Кбит/сек (6ch), 48,0 КГц : 24 bits [Английский]
Аудио #3: AC3 192~224 Кбит/сек (2ch), 48,0 КГц : 16 bits [Английский, комментарии]
Релиз: Трансформеры / Transformers (2007) [1080p] BDRip
«Наш мир. Их война»
- Русское название: Трансформеры
Оригинальное название: Transformers
Год выпуска: 2007
Производство: США | DreamWorks SKG, Paramount Pictures, Hasbro
Перевод: Дублированный
Язык субтитров: Русский (Full,Forced), Украинский, Английский
Вид субтитров: Вшитые отключаемые-Дата мировой премьеры: 12 июня 2007
Дата российской премьеры: 4 июля 2007, «UPI»
Дата выхода DVD релиза: 14 декабря 2010, «Юниверсал Пикчерс Рус»
Дата выхода Blu-Ray релиза: 28 апреля 2009, «Юниверсал Пикчерс Рус»-Режиссер: Майкл Бэй-Продюсеры: Кенни Бейтс, Майкл Бэй, Ян Брайс, Аллегра Клегг, Мэттью Кохан-Актеры: Шиа ЛаБеф, Меган Фокс, Роузи Хантингтон-Уайтли, Джош Дюамель, Тайриз Гибсон, Рэйчел Тейлор, Энтони Андерсон, Джон Войт, Джон Туртурро, Майкл О`Нейлл, Кевин Данн, Джули Уайт, Амори Ноласко, Зак Уорд, Луис Эчагарруга, Трэвис Ван Винкл ...-Роли дублировали: Илья Хвостиков, Татьяна Шитова, Сергей Бурунов, Пётр Иващенко, Константин Карасик ...-Описание фильма:
В течение многих столетий две расы роботов-инопланетян — Автоботы и Десептиконы — вели войну, ставкой в которой была судьба Bселенной. И вот война докатилась до Земли. В то время, когда силы зла ищут ключ к верховной власти, наш последний шанс на спасение находится в руках юного землянина. Единственное, что стоит между несущими зло Десептиконами и высшей властью — это ключ, находящийся в руках простого парнишки.
Обычный подросток, Сэм Уитвикки озабочен повседневными хлопотами — школа, друзья, машины, девочки. Не ведая о том, что он является последним шансом человечества на спасение, Сэм вместе со своей подругой Микаэлой оказывается вовлеченным в противостояние Автоботов и Десептиконов. Только тогда Сэм понимает истинное значение семейного девиза Уитвикки — «без жертв нет победы!»-Продолжительность: ~ 02:23:27
Качество видео: BDRip 1080p

Видеокодек: MPEG-4 AVC/H.264
Битрейт видео: ~ 15,0 Мбит/сек
Размер кадра: 1920 x 800 (2.400) at 23.976 fps : 0.407 Bits/Pixel
Аудиокодек: AC3 5.1 | DTS
Аудио #1: AC3 640 Кбит/сек (6ch), 48,0 КГц : 16 bits [Русский, дубляж]
Аудио #2: AC3 640 Кбит/сек (6ch), 48,0 КГц : 16 bits [Английский]
Аудио #3: AC3 192 Кбит/сек (2ch), 48,0 КГц : 16 bits [Английский, комментарии]

Знаете ли вы, что...

Слоган к фильму «Наш мир. Их война» должен был появиться на постерах к картине «Чужой против хищника», но в самый последний момент был заменен на «Кто бы ни победил… мы проиграем».
По словам создателей спецэффектов из ILM на рендеринг каждого кадра с CGI-анимацией тратилось около 38 часов. Прежним рекордом владела студия Weta Workshop, в ходе работы над фильмом «Властелин колец: Две башни» тратившая на обработку кадра по 20 часов.
Продюсер картины Дон Мерфи после общения с фанатами френчайза, решил прибегнуть к использованию хорошо знакомых голосов из сериала «Трансформеры». Ветераны Питер Каллен и Фрэнк Уелкер, голосами которых разговаривали лидеры трансформеров — Оптимус Прайм и Мегатрон, прослушивались персонально самим Майклом Бэем, боявшимся, что их постаревшие голоса могут не подойти. Опасения оправдались ровно на половину: голос Каллена был утвержден, а голос Уелкера был заменен на голос Хьюго Уивинга, известного по роли агента Смита в «Матрице».
В первоначальный вариант сценария была включена Арси (Arcee), считавшаяся одним из самых женственных автоботов, что не вызвало ни малейшего ажиотажа среди фанатов. Вскоре Арси исчезла из сценария и была заменена на Айронхайда (Ironhide).
В мультипликационном варианте Бамблби трансформировался из автомобиля Фольксваген Жук, однако в киноверсии Фольксваген заменили на Шевроле Камаро. Сделано это было по желанию Майкла Бэя, боявшегося сравнения персонажа с другим известным «автомобильным киножуком» — Херби. Фанаты оригинального сериала наверняка заметят желтый Фольксваген в сцене покупки Сэмом автомобиля.
Майкл Бэй, которого пригласили режиссировать фильм, сначала счел будущую картину «глупой игрушечной историей», но вскоре передумал, после того, как вспомнил о своем первоначальном отношении к проекту «Индиана Джонс», ставшему в 1981 году настоящим хитом проката. В апреле 2005 года он был официально заявлен режиссером проекта, обогнав кандидата Роланда Эммериха.
Первый комикс о трансформерах был выпущен в 1984 году компанией Marvel Comics. Первоначально планировалось всего четыре выпуска.
Продюсер фильма Стивен Спилберг не заплатил ни одному актеру больше 70,000 долларов, пообещав высокие гонорары в последующих сиквелах.
Над спецэффектами фильма работала команда из 80-ти человек.
В картине Майкла Бэя Оптимус Прайм предстает в виде тягача Peterbilt 379. В ранней картине исполнительного продюсера «Трансформеров» Стивена Спилберга «Дуэль» (1971) главным действующим героем также был тягач Peterbilt 281.
Звуки трансформации позаимствованы из одноименного мультсериала 1984 года.
Согласно высказываниям Лоренцо ди Бонавентуры, все трансформации роботов были тщательно просчитаны математически. Таким образом, внимательные зрители могут понять, куда уходит каждая составная часть робота при обратной трансформации в транспортное средство.
Мегатрону решили сделать лицо, мало напоминающее человеческое, чтобы придать данному персонажу еще более грозный вид.
Пушка Айронхайда состоит из 10 тысяч деталей.
В первой версии сценария фигурировал персонаж Рэведж (Ravage — уничтожение), роботоподное животное, сражающееся за Десептиконов. Позднее от Рэведжа избавились и включили в сценарий другое трансформирующееся существо — Скорпонока. Именно Скорпонок атакует выживших американских военных в одной из сцен первой половины картины.
В первых вариантах сценария был прописан персонаж Юникорн, представляющий собой планету-трансформер. Ожидается, что этот персонаж получит право на кинематографическую жизнь в сиквеле.
В фильме представлено 8 десептиконов и 5 автоботов. На сей шаг авторы сценария пошли намеренно, чтобы подчеркнуть работу автоботов в команде, а также показать, насколько опасна угроза завоевания нашей планеты десептиконами.
Еще один момент, перекочевавший из сериала в фильм,- глаза трансформеров: cиние у автоботов, и красные у десептиконов.
В комнате Сэма можно увидить плакат рок-группы Linkin Park, именно сингл этой группы What I`ve Donе является темой для фильма.
Ровно на 60 минуте, парень бегущий с камерой к месту падения метеорита кричит «Я такой крутизны еще не видел, все вокруг взрывается, это точно в сто раз круче армагеддона». Фильм Армагеддон снял также Майкл Бэй.
Во время синхронного разворота автоботов на шоссе, видно, что Оптимус начинает его первым и за ним встает Джаз. Однако потом Оптимус Прайм едет последним.
По данному фильму была сделана одноименная игра.
Для создания первой части «Трансформеров» пришлось задействовать 20 Тб дискового пространства серверов. Для работы над вторым фильмом едва хватило 145 Тб. Для сравнения, 145 Тб — это объем 35000 DVD-дисков.
Изначально Майкл Бэй не хотел брать Шайю ЛаБафа на роль Сэма, так как считал, что актер слишком стар для этой роли.
Десептикон Брол (Brawl) — модифицированный танк «M1 Abrams», первоначально был назван «Devastator», но позже Бэй признал ошибку и десептикона переименовали в Брола. Несмотря на это, в DVD-версии сохранился неисправленный субтитр «Devastator reporting».

MediaInfo:

Полное имя                               : E:\1-Готовые\Transformers.2007-2011\Transformers.Trilogy.2007-2011.BDRip.1080p.NNM-CLUB\Transformers.I.2007.BDRip.1080p.NNM-CLUB.mkv
Формат                                   : Matroska
Версия формата                           : Version 2
Размер файла                             : 16,5 Гбайт
Продолжительность                        : 2 ч. 23 м.
Общий поток                              : 16,5 Мбит/сек
Дата кодирования                         : UTC 2012-09-19 13:10:51
Программа кодирования                    : mkvmerge v5.2.1 ('A Far Off Place') built on Jan  2 2012 23:21:10
Библиотека кодирования                   : libebml v1.2.3 + libmatroska v1.3.0
Видео
Идентификатор                            : 1
Формат                                   : AVC
Формат/Информация                        : Advanced Video Codec
Профиль формата                          : [url=mailto:High@L4.1]High@L4.1[/url]
Параметр CABAC формата                   : Да
Параметр ReFrames формата                : 5 кадров
Идентификатор кодека                     : V_MPEG4/ISO/AVC
Продолжительность                        : 2 ч. 23 м.
Битрейт                                  : 15,0 Мбит/сек
Ширина                                   : 1920 пикселей
Высота                                   : 800 пикселей
Соотношение сторон                       : 2,40:1
Режим частоты кадров                     : Постоянный
Частота кадров                           : 23,976 кадра/сек
Цветовое пространство                    : YUV
Субдискретизация насыщенности            : 4:2:0
Битовая глубина                          : 8 бит
Тип развёртки                            : Прогрессивная
Бит/(Пиксели*Кадры)                      : 0.407
Размер потока                            : 14,7 Гбайт (89%)
Заголовок                                : Transformers.2007.BDRip.1080p.NNM-CLUB
Библиотека кодирования                   : x264 core 116 r2074 2641b9e
Настройки программы                      : cabac=1 / ref=5 / deblock=1:-3:-3 / analyse=0x3:0x113 / me=tesa / subme=9 / psy=1 / psy_rd=1.00:0.00 / mixed_ref=1 / me_range=64 / chroma_me=1 / trellis=1 / 8x8dct=1 / cqm=0 / deadzone=21,11 / fast_pskip=1 / chroma_qp_offset=-2 / threads=12 / sliced_threads=0 / nr=0 / decimate=1 / interlaced=0 / bluray_compat=0 / constrained_intra=0 / bframes=9 / b_pyramid=2 / b_adapt=1 / b_bias=0 / direct=1 / weightb=1 / open_gop=0 / weightp=2 / keyint=250 / keyint_min=10 / scenecut=40 / intra_refresh=0 / rc_lookahead=40 / rc=2pass / mbtree=1 / bitrate=15000 / ratetol=1.0 / qcomp=0.70 / qpmin=10 / qpmax=51 / qpstep=4 / cplxblur=18.0 / qblur=0.5 / ip_ratio=1.40 / aq=1:1.00
Язык                                     : English
Default                                  : Да
Forced                                   : Нет
Аудио #1
Идентификатор                            : 2
Формат                                   : AC-3
Формат/Информация                        : Audio Coding 3
Расширение режима                        : CM (complete main)
Параметр Endianness формата              : Big
Идентификатор кодека                     : A_AC3
Продолжительность                        : 2 ч. 23 м.
Вид битрейта                             : Постоянный
Битрейт                                  : 640 Кбит/сек
Каналы                                   : 6 каналов
Расположение каналов                     : Front: L C R, Side: L R, LFE
Частота                                  : 48,0 КГц
Битовая глубина                          : 16 бит
Метод сжатия                             : С потерями
Размер потока                            : 657 Мбайт (4%)
Заголовок                                : AC3.640.Kbps.Russian
Язык                                     : Russian
Default                                  : Да
Forced                                   : Нет
Аудио #2
Идентификатор                            : 3
Формат                                   : AC-3
Формат/Информация                        : Audio Coding 3
Расширение режима                        : CM (complete main)
Параметр Endianness формата              : Big
Идентификатор кодека                     : A_AC3
Продолжительность                        : 2 ч. 23 м.
Вид битрейта                             : Постоянный
Битрейт                                  : 640 Кбит/сек
Каналы                                   : 6 каналов
Расположение каналов                     : Front: L C R, Side: L R, LFE
Частота                                  : 48,0 КГц
Битовая глубина                          : 16 бит
Метод сжатия                             : С потерями
Размер потока                            : 657 Мбайт (4%)
Заголовок                                : AC3.640.Kbps.English
Язык                                     : English
Default                                  : Нет
Forced                                   : Нет
Аудио #3
Идентификатор                            : 4
Формат                                   : AC-3
Формат/Информация                        : Audio Coding 3
Профиль формата                          : Dolby Digital
Расширение режима                        : CM (complete main)
Параметр Endianness формата              : Big
Идентификатор кодека                     : A_AC3
Продолжительность                        : 2 ч. 23 м.
Вид битрейта                             : Постоянный
Битрейт                                  : 192 Кбит/сек
Каналы                                   : 2 канала
Расположение каналов                     : Front: L R
Частота                                  : 48,0 КГц
Битовая глубина                          : 16 бит
Метод сжатия                             : С потерями
Размер потока                            : 197 Мбайт (1%)
Заголовок                                : AC3.192.Kbps.English.Commentary
Язык                                     : English
Default                                  : Нет
Forced                                   : Нет
Текст #1
Идентификатор                            : 5
Формат                                   : UTF-8
Идентификатор кодека                     : S_TEXT/UTF8
Идентификатор кодека/Информация          : UTF-8 Plain Text
Заголовок                                : Russian (Full)
Язык                                     : Russian
Default                                  : Да
Forced                                   : Нет
Текст #2
Идентификатор                            : 6
Формат                                   : UTF-8
Идентификатор кодека                     : S_TEXT/UTF8
Идентификатор кодека/Информация          : UTF-8 Plain Text
Заголовок                                : Russian (Forced)
Язык                                     : Russian
Default                                  : Нет
Forced                                   : Нет
Текст #3
Идентификатор                            : 7
Формат                                   : UTF-8
Идентификатор кодека                     : S_TEXT/UTF8
Идентификатор кодека/Информация          : UTF-8 Plain Text
Заголовок                                : Ukrainian (Full)
Язык                                     : Ukrainian
Default                                  : Нет
Forced                                   : Нет
Текст #4
Идентификатор                            : 8
Формат                                   : UTF-8
Идентификатор кодека                     : S_TEXT/UTF8
Идентификатор кодека/Информация          : UTF-8 Plain Text
Заголовок                                : English (Full)
Язык                                     : English
Default                                  : Нет
Forced                                   : Нет
Меню
00:00:00.000                             : en:Chapter 00
00:02:04.707                             : en:Chapter 01
00:08:54.534                             : en:Chapter 02
00:15:33.641                             : en:Chapter 03
00:22:21.381                             : en:Chapter 04
00:27:42.661                             : en:Chapter 05
00:33:25.378                             : en:Chapter 06
00:38:58.002                             : en:Chapter 07
00:45:13.919                             : en:Chapter 08
00:51:46.436                             : en:Chapter 09
00:58:44.687                             : en:Chapter 10
01:06:48.421                             : en:Chapter 11
01:11:53.559                             : en:Chapter 12
01:16:56.445                             : en:Chapter 13
01:23:37.345                             : en:Chapter 14
01:29:04.172                             : en:Chapter 15
01:36:28.741                             : en:Chapter 16
01:43:58.106                             : en:Chapter 17
01:49:45.745                             : en:Chapter 18
01:56:54.007                             : en:Chapter 19
02:03:09.882                             : en:Chapter 20
02:10:43.919                             : en:Chapter 21
02:15:02.302                             : en:Chapter 22
Скриншоты:



Трансформеры: Месть падших / Transformers: Revenge of the Fallen (2009) [1080p] BDRip
«Месть неминуема»
- Русское название: Трансформеры: Месть падших
Оригинальное название: Transformers: Revenge of the Fallen
Год выпуска: 2009
Производство: США | DreamWorks SKG, Paramount Pictures, Hasbro
Перевод: Дублированный
Язык субтитров: Русский (Full,Forced), Украинский, Английский (Full, Commentary), Португальский
Вид субтитров: Вшитые отключаемые-Дата мировой премьеры: 19 июня 2009
Дата российской премьеры: 21 июня 2009, «Централ Партнершип»
Дата выхода DVD релиза: 3 ноября 2009, «Юниверсал Пикчерс Рус»
Дата выхода Blu-Ray релиза: 10 ноября 2009, «Юниверсал Пикчерс Рус»-Режиссер: Майкл Бэй-Продюсеры: Кенни Бейтс, Майкл Бэй, Ян Брайс, Аллегра Клегг, Мэттью Кохан-Актеры: Шиа ЛаБеф, Меган Фокс, Роузи Хантингтон-Уайтли, Джош Дюамель, Тайриз Гибсон, Рэйчел Тейлор, Энтони Андерсон, Джон Войт, Джон Туртурро, Майкл О`Нейлл, Кевин Данн, Джули Уайт, Амори Ноласко, Зак Уорд, Луис Эчагарруга, Трэвис Ван Винкл ...-Роли дублировали: Илья Хвостиков, Татьяна Шитова, Сергей Бурунов, Пётр Иващенко, Константин Карасик ...-Описание фильма:
Прошло два года с тех пор, как юный Сэм Уитвикки спас Вселенную, предотвратив глобальную битву между враждующими воинственными расами инопланетных роботов. Несмотря на свои героические подвиги, Сэм остается обычным подростком с обычными проблемами — поступление в колледж и родителями. Разумеется, отъезд будет тяжело воспринят лучшим другом, роботом — телохранителем Бамблби.
Сэм изо всех сил пытается забыть о конфликте в Мишн Сити и вернуться к нормальной жизни. Однако битва между Автоботами и Десептиконами, несмотря на гриф полной секретности, многое изменила…-Продолжительность: ~ 02:29:53
Качество видео: BDRip 1080p

Видеокодек: MPEG-4 AVC/H.264
Битрейт видео: ~ 15,0 Мбит/сек
Размер кадра: 1920 x 800 (2.400) at 23.976 fps : 0.407 Bits/Pixel
Аудиокодек: AC3 5.1 | DTS
Аудио #1: AC3 640 Кбит/сек (6ch), 48,0 КГц : 16 bits [Русский, дубляж]
Аудио #2: DTS 1510 Кбит/сек (6ch), 48,0 КГц : 24 bits [Английский]
Аудио #3: AC3 224 Кбит/сек (2ch), 48,0 КГц : 16 bits [Английский, комментарии]

Знаете ли вы, что...

Для создания первой части «Трансформеров» пришлось задействовать 20 Тб дискового пространства. Для работы над вторым фильмом едва хватило 145 Тб. Для сравнения, 145 Тб — это объем 35000 DVD-дисков. Если сложить столько дисков без коробок друг на друга, то их высота составит 44 метра.
В первой части было 14 роботов, на этот раз — 46.
Экранное время спецэффектов от студии ILM — 51 минута.
Рендеринг фильма на среднестатистическом домашнем компьютере образца 2009 года занял бы 16 тысяч лет.
Съёмки начались на следующий день, после того как «Трансформеры» получили награду MTV в номинации «Лучший фильм».
Майкл Бэй планировал снять кино с небольшим бюджетом в промежутке между фильмами о трансформерах. Однако, когда график съёмок второй части «Трансформеров» сдвинулся, Бэй отложил свой маленький проект, т. к. не хотел, чтобы сиквел снимал кто-то другой.
Джоне Хилл предлагали роль в фильме, однако он отказался, прочитав всего лишь первые двадцать страниц сценария.
Изначально Роберто Орси и Алекс Куртцман, написавшие сценарий первого фильма, отклонили предложение написать сценарий сиквела из-за занятости на других проектах. Однако, после того, как студия признала сценарии других авторов неприемлемыми, продюсерам удалось убедить Роберто и Алекса, поработать над вторым фильмом.
Автобот Хаунд, трансформирующий в военный джип «Jeep Wrangler», был добавлен в фильм по просьбе Министерства обороны США, после того как они заметили, что в первой картине в основном в военную технику трансформировались десептиконы.
Сиквел вполне мог пасть жертвой забастовки сценаристов, однако Роберто Орси, Алекс Куртцман и Эрен Крюгер успели закончить тритмент в ночь перед началом забастовки.
В июле 2008 Шайа ЛаБаф попал в аварию. Сценаристам пришлось обыграть в фильме травму его руки.
Алекс Куртцман придумал название фильма. Роберто Орси хотел, чтобы фильм назывался «Transformers: More Than Meets the Eye».
Мэттью Мэрсден был фанатом комиксов о трансформерах в детстве.
Эрен Крюгер присоединился к сценарной команде во многом благодаря своему энциклопедическому знанию вселенной трансформеров.
Во время набора актеров и выбора мест съёмок фильм проходил под вымышленным названием «Prime Directive».
Изначально автобот Арси должен был присутствовать в первом фильме.
Десептикон Саундвэйв должен был присутствовать в первом фильме, однако работы над его внешним видом не были завершены в срок. В сиквеле он будет трансформироваться в спутник.
Фильм приурочен к двадцатипятилетию «Трансформеров» (1984).
Группа «Mute Math» записала рок-версию музыкальной темы «Трансформеров» (1984), которая должна была быть использована в первом фильме. Создатели так и не нашли для неё места, однако композиция будет использована в сиквеле.
Три экшн-сцены были сняты камерами IMAX.
По словам Стива Яблонски, в саундтреке сиквела будут присутствовать элементы оригинальной музтемы трансформеров. Стив собирался включить данные элементы в саундтрек первого фильма, однако его идею отклонили.
В некоторых массовках участвовали настоящие моряки ВМФ США.
Древний город Петра, где Сэм и автоботы находят тайник Праймов, также послужил для съемок кульминационной сцены фильма Стивена Спилберга «Индиана Джонс и последний крестовый поход».
В фильме можно заметить постеры двух фильмов — «Монстро» и «Плохие парни 2». Постер первого фильма отсылает к сценаристам Курцману и Орси, которые постоянно сотрудничают с продюсером «Монстро» Дж. Дж Абрамсом. А постер второго фильма отсылает к режиссеру Майклу Бэю, снимавшего «Плохих парней 2».
Робот Девастатор ростом с 10-ти этажное здание.
Когда Девастатор наносит удар по пирамиде, его рука развивает скорость 626 км/час. Детали этого робота, поставленные одна на другую, образовали бы башню, высота которой была бы в 58 раз выше знаменитого Empire State Building в Нью-Йорке. Общая длина деталей Девастатора около 22 км.
Во время пре-продакшна Майкл Бэй заявил, что будет специально инсценировать утечку в сеть различной фальшивой информации, чтобы подстегнуть шумиху вокруг фильма и обсуждение картины на различных киносайтах.
По данному фильму была сделана одноименная игра.
В фильме задействованы как последнее из сохранившихся «классических» семи чудес света — Пирамида Хеопса в Гизе, так и одно из «новых» 7-ми чудес света — Петра в Иордании.
В комнате общежития колледжа висел постер к фильму «Плохие парни 2».
Время обработки одного кадра IMAX — 72 часа каждый кадр.

MediaInfo:

Полное имя                               : E:\1-Готовые\Transformers.2007-2011\Transformers.Trilogy.2007-2011.BDRip.1080p.NNM-CLUB\Transformers.II.2009.BDRip.1080p.NNM-CLUB.mkv
Формат                                   : Matroska
Версия формата                           : Version 2
Размер файла                             : 18,2 Гбайт
Продолжительность                        : 2 ч. 29 м.
Общий поток                              : 17,4 Мбит/сек
Дата кодирования                         : UTC 2012-09-19 12:22:01
Программа кодирования                    : mkvmerge v4.9.1 ('Ich will') built on Jul 11 2011 23:53:15
Библиотека кодирования                   : libebml v1.2.1 + libmatroska v1.1.1
Видео
Идентификатор                            : 1
Формат                                   : AVC
Формат/Информация                        : Advanced Video Codec
Профиль формата                          : [url=mailto:High@L4.1]High@L4.1[/url]
Параметр CABAC формата                   : Да
Параметр ReFrames формата                : 5 кадров
Идентификатор кодека                     : V_MPEG4/ISO/AVC
Битрейт                                  : 15,0 Мбит/сек
Ширина                                   : 1920 пикселей
Высота                                   : 800 пикселей
Соотношение сторон                       : 2,40:1
Режим частоты кадров                     : Переменный
Частота кадров в оригинале               : 23,976 кадра/сек
Цветовое пространство                    : YUV
Субдискретизация насыщенности            : 4:2:0
Битовая глубина                          : 8 бит
Тип развёртки                            : Прогрессивная
Бит/(Пиксели*Кадры)                      : 0.407
Заголовок                                : Transformers.Revenge.of.the.Fallen.2009.BDRip.1080p.NNM-CLUB
Библиотека кодирования                   : x264 core 116 r2074 2641b9e
Настройки программы                      : cabac=1 / ref=5 / deblock=1:-3:-3 / analyse=0x3:0x113 / me=tesa / subme=11 / psy=1 / psy_rd=1.00:0.00 / mixed_ref=1 / me_range=64 / chroma_me=1 / trellis=2 / 8x8dct=1 / cqm=0 / deadzone=21,11 / fast_pskip=1 / chroma_qp_offset=-2 / threads=12 / sliced_threads=0 / nr=0 / decimate=1 / interlaced=0 / bluray_compat=0 / constrained_intra=0 / bframes=9 / b_pyramid=2 / b_adapt=1 / b_bias=0 / direct=3 / weightb=1 / open_gop=0 / weightp=2 / keyint=250 / keyint_min=10 / scenecut=40 / intra_refresh=0 / rc_lookahead=40 / rc=2pass / mbtree=1 / bitrate=15000 / ratetol=1.0 / qcomp=0.70 / qpmin=10 / qpmax=51 / qpstep=4 / cplxblur=18.0 / qblur=0.5 / ip_ratio=1.40 / aq=1:1.00
Язык                                     : English
Default                                  : Да
Forced                                   : Нет
Аудио #1
Идентификатор                            : 2
Формат                                   : AC-3
Формат/Информация                        : Audio Coding 3
Расширение режима                        : CM (complete main)
Параметр Endianness формата              : Big
Идентификатор кодека                     : A_AC3
Продолжительность                        : 2 ч. 29 м.
Вид битрейта                             : Постоянный
Битрейт                                  : 640 Кбит/сек
Каналы                                   : 6 каналов
Расположение каналов                     : Front: L C R, Side: L R, LFE
Частота                                  : 48,0 КГц
Битовая глубина                          : 16 бит
Метод сжатия                             : С потерями
Размер потока                            : 686 Мбайт (4%)
Заголовок                                : AC3.640.Kbps.Russian
Язык                                     : Russian
Default                                  : Да
Forced                                   : Нет
Аудио #2
Идентификатор                            : 3
Формат                                   : DTS
Формат/Информация                        : Digital Theater Systems
Идентификатор кодека                     : A_DTS
Продолжительность                        : 2 ч. 29 м.
Вид битрейта                             : Постоянный
Битрейт                                  : 1510 Кбит/сек
Каналы                                   : 6 каналов
Расположение каналов                     : Front: L C R, Side: L R, LFE
Частота                                  : 48,0 КГц
Битовая глубина                          : 24 бит
Метод сжатия                             : С потерями
Размер потока                            : 1,58 Гбайт (9%)
Заголовок                                : DTS.1510.Kbps.English
Язык                                     : English
Default                                  : Нет
Forced                                   : Нет
Аудио #3
Идентификатор                            : 4
Формат                                   : AC-3
Формат/Информация                        : Audio Coding 3
Расширение режима                        : CM (complete main)
Параметр Endianness формата              : Big
Идентификатор кодека                     : A_AC3
Продолжительность                        : 2 ч. 29 м.
Вид битрейта                             : Постоянный
Битрейт                                  : 224 Кбит/сек
Каналы                                   : 2 канала
Расположение каналов                     : Front: L R
Частота                                  : 48,0 КГц
Битовая глубина                          : 16 бит
Метод сжатия                             : С потерями
Размер потока                            : 240 Мбайт (1%)
Заголовок                                : AC3.224.Kbps.English.Commentary
Язык                                     : English
Default                                  : Нет
Forced                                   : Нет
Текст #1
Идентификатор                            : 5
Формат                                   : UTF-8
Идентификатор кодека                     : S_TEXT/UTF8
Идентификатор кодека/Информация          : UTF-8 Plain Text
Заголовок                                : Russian (Full)
Язык                                     : Russian
Default                                  : Да
Forced                                   : Нет
Текст #2
Идентификатор                            : 6
Формат                                   : UTF-8
Идентификатор кодека                     : S_TEXT/UTF8
Идентификатор кодека/Информация          : UTF-8 Plain Text
Заголовок                                : Russian (Forced)
Язык                                     : Russian
Default                                  : Нет
Forced                                   : Нет
Текст #3
Идентификатор                            : 7
Формат                                   : UTF-8
Идентификатор кодека                     : S_TEXT/UTF8
Идентификатор кодека/Информация          : UTF-8 Plain Text
Заголовок                                : Ukrainian (Full)
Язык                                     : Ukrainian
Default                                  : Нет
Forced                                   : Нет
Текст #4
Идентификатор                            : 8
Формат                                   : UTF-8
Идентификатор кодека                     : S_TEXT/UTF8
Идентификатор кодека/Информация          : UTF-8 Plain Text
Заголовок                                : English (Full)
Язык                                     : English
Default                                  : Нет
Forced                                   : Нет
Текст #5
Идентификатор                            : 9
Формат                                   : UTF-8
Идентификатор кодека                     : S_TEXT/UTF8
Идентификатор кодека/Информация          : UTF-8 Plain Text
Заголовок                                : English (Commentary)
Язык                                     : English
Default                                  : Нет
Forced                                   : Нет
Текст #6
Идентификатор                            : 10
Формат                                   : UTF-8
Идентификатор кодека                     : S_TEXT/UTF8
Идентификатор кодека/Информация          : UTF-8 Plain Text
Язык                                     : Portuguese
Default                                  : Нет
Forced                                   : Нет
Меню
00:00:00.000                             : en:Chapter 00
00:08:49.278                             : en:Chapter 01
00:14:52.641                             : en:Chapter 02
00:18:18.013                             : en:Chapter 03
00:25:07.631                             : en:Chapter 04
00:33:00.520                             : en:Chapter 05
00:37:07.767                             : en:Chapter 06
00:43:33.652                             : en:Chapter 07
00:54:56.543                             : en:Chapter 08
01:03:23.883                             : en:Chapter 09
01:12:26.008                             : en:Chapter 10
01:20:12.182                             : en:Chapter 11
01:26:35.064                             : en:Chapter 12
01:35:41.152                             : en:Chapter 13
01:44:54.079                             : en:Chapter 14
01:50:34.711                             : en:Chapter 15
01:59:01.801                             : en:Chapter 16
02:07:13.709                             : en:Chapter 17
02:15:05.305                             : en:Chapter 18
02:22:14.817                             : en:Chapter 19
Скриншоты:



Трансформеры 3: Тёмная сторона Луны / Transformers: Dark of the Moon (2011) [1080p] BDRip
«Последний шанс цивилизации»
- Русское название: Тёмная сторона Луны
Оригинальное название: Transformers: Dark of the Moon
Год выпуска: 2011
Производство: США | Paramount Pictures, Hasbro, Di Bonaventura Pictures
Перевод: Дублированный
Язык субтитров: Русский (Full,Forced), Украинский, Английский, Португальский
Вид субтитров: Вшитые отключаемые-Дата мировой премьеры: 25 июня 2011
Дата российской премьеры: 29 июня 2011, «Централ Партнершип»
Дата выхода DVD релиза: 24 ноября 2011, «Новый Диск»
Дата выхода Blu-Ray релиза: 24 ноября 2011, «Новый Диск»-Режиссер: Майкл Бэй-Продюсеры: Кенни Бейтс, Майкл Бэй, Ян Брайс, Аллегра Клегг, Мэттью Кохан-Актеры: Шайа ЛаБаф, Роузи Хантингтон-Уайтли, Джош Дюамель, Джон Туртурро, Патрик Демпси, Фрэнсис МакДорманд, Кен Жонг, Алан Тьюдик, Джон Малкович, Тайриз Гибсон ...-Роли дублировали: Илья Хвостиков, Полина Щербакова, Сергей Бурунов, Константин Карасик, Василий Дахненко ...-Описание фильма:
Для наших героев наступили печальные будни: Сэм потерял Микаэлу, правительство выпускает законодательный акт о выселении Автоботов с Земли, а пока Мегатрон скрывается после позорного поражения Фоллена, десептикон Шокуэйв, правитель Кибертрона, готовится нанести визит нашей планете с совсем не добрыми намерениями. Действие заключительной части трилогии на этот раз охватит не только Землю, но и Луну, темная сторона которой хранит не менее темные тайны.-Продолжительность: ~ 02:34:23
Качество видео: BDRip 1080p

Видеокодек: MPEG-4 AVC/H.264
Битрейт видео: ~ 15,0 Мбит/сек
Размер кадра: 1920 x 800 (2.400) at 23.976 fps : 0.407 Bits/Pixel
Аудиокодек: AC3 5.1
Аудио #1: AC3 640 Кбит/сек (6ch), 48,0 КГц : 16 bits [Русский, дубляж]
Аудио #2: AC3 640 Кбит/сек (6ch), 48,0 КГц : 16 bits [Английский]

Знаете ли вы, что...

Мировая премьера фильма состоялась в Москве в рамках Московского международного кинофестиваля 23 июня 2011 года.
Из-за конфликта с режиссером фильма Меган Фокс была вынуждена покинуть проект.
1 миллион американских долларов был потрачен в течение двух съемочных дней в Художественном музее Милуоки.
Майкл Бэй — единственный режиссер, которому было разрешено дважды снять запуск космического шатла («Армагеддон» и «Трансформеры 3»).
Трансформеры созданы компанией по производству игрушек Hasbro в 1984 году, позже ставших медиаимперией из мультсериалов и комиксов. Сегодня права на комиксы Трансформеров принадлежат издательству IDW и они дополняют как кинофраншизу, так и оригинальную вселенную Трансформеров.
Сентинел Прайм (озвучивал в оригинале Леонард Нимой) перед финальной битвой с Оптимусом говорит: «Потребности большинства перекрывают потребности меньшинства». Примечательно, что это фраза является фразой Спока («Звёздный путь»), роль которого исполнял Леонард Нимой.
Главными претендентками на роль Карли были Бруклин Декер и Сара Райт. Также её могли сыграть Джемма Артертон, Эшли Грин, Миранда Керр, Бар Рафаэли, Эмбер Херд, Камилла Белль, Кэти Кэссиди, Хайди Монтаг и Анна Кендрик.
Майклу Бэю достается 8% от продаж всей мерчандайзинговой продукции — игрушек, сувениров, комиксов — связанной с фильмом. К оригинальным игрушкам Трансформеров, не брендированных в стиле кинофраншизы, это не относится.
Во время съемок автомобильной сцены в штате Индиана лопнул буксировочный трос. Оторвавшись, он тяжело ранил водительницу. Габриэла Седийо осталась в живых, но лишилась глаза, получила серьезное повреждение головного мозга и оказалась наполовину парализована.
За весь период съемок фильма было уничтожено 532 автомобиля.
Одну из экшен-сцен Бэй планировал снять в Чикаго, на крыше небоскрёбов-близнецов Marina City, за что их владельцы потребовали $40 тыс. Казалось бы, незначительная по голливудским меркам сумма, но, по мнению Бэя, она была завышенной, и режиссер отказал «вымогателям».

MediaInfo:

Полное имя                               : E:\1-Готовые\Transformers.2007-2011\Transformers.Trilogy.2007-2011.BDRip.1080p.NNM-CLUB\Transformers.III.2011.BDRip.1080p.NNM-CLUB.mkv
Формат                                   : Matroska
Версия формата                           : Version 2
Размер файла                             : 17,6 Гбайт
Продолжительность                        : 2 ч. 34 м.
Общий поток                              : 16,3 Мбит/сек
Дата кодирования                         : UTC 2012-09-24 22:07:12
Программа кодирования                    : mkvmerge v5.2.1 ('A Far Off Place') built on Jan  2 2012 23:21:10
Библиотека кодирования                   : libebml v1.2.3 + libmatroska v1.3.0
Видео
Идентификатор                            : 1
Формат                                   : AVC
Формат/Информация                        : Advanced Video Codec
Профиль формата                          : [url=mailto:High@L4.1]High@L4.1[/url]
Параметр CABAC формата                   : Да
Параметр ReFrames формата                : 5 кадров
Идентификатор кодека                     : V_MPEG4/ISO/AVC
Продолжительность                        : 2 ч. 34 м.
Битрейт                                  : 15,0 Мбит/сек
Ширина                                   : 1920 пикселей
Высота                                   : 800 пикселей
Соотношение сторон                       : 2,40:1
Режим частоты кадров                     : Постоянный
Частота кадров                           : 23,976 кадра/сек
Цветовое пространство                    : YUV
Субдискретизация насыщенности            : 4:2:0
Битовая глубина                          : 8 бит
Тип развёртки                            : Прогрессивная
Бит/(Пиксели*Кадры)                      : 0.407
Размер потока                            : 15,8 Гбайт (90%)
Заголовок                                : Transformers.Dark.of.the.Moon.2011.BDRip.1080p.NNM-CLUB
Библиотека кодирования                   : x264 core 116 r2074 2641b9e
Настройки программы                      : cabac=1 / ref=5 / deblock=1:-3:-3 / analyse=0x3:0x113 / me=tesa / subme=9 / psy=1 / psy_rd=1.00:0.00 / mixed_ref=1 / me_range=64 / chroma_me=1 / trellis=1 / 8x8dct=1 / cqm=0 / deadzone=21,11 / fast_pskip=1 / chroma_qp_offset=-2 / threads=12 / sliced_threads=0 / nr=0 / decimate=1 / interlaced=0 / bluray_compat=0 / constrained_intra=0 / bframes=9 / b_pyramid=2 / b_adapt=1 / b_bias=0 / direct=3 / weightb=1 / open_gop=0 / weightp=2 / keyint=250 / keyint_min=10 / scenecut=40 / intra_refresh=0 / rc_lookahead=40 / rc=2pass / mbtree=1 / bitrate=15000 / ratetol=1.0 / qcomp=0.70 / qpmin=10 / qpmax=51 / qpstep=4 / cplxblur=19.0 / qblur=0.5 / ip_ratio=1.40 / aq=1:1.00
Язык                                     : English
Default                                  : Да
Forced                                   : Нет
Аудио #1
Идентификатор                            : 2
Формат                                   : AC-3
Формат/Информация                        : Audio Coding 3
Расширение режима                        : CM (complete main)
Параметр Endianness формата              : Big
Идентификатор кодека                     : A_AC3
Продолжительность                        : 2 ч. 34 м.
Вид битрейта                             : Постоянный
Битрейт                                  : 640 Кбит/сек
Каналы                                   : 6 каналов
Расположение каналов                     : Front: L C R, Side: L R, LFE
Частота                                  : 48,0 КГц
Битовая глубина                          : 16 бит
Метод сжатия                             : С потерями
Размер потока                            : 707 Мбайт (4%)
Заголовок                                : AC3.640.Kbps.Russian
Язык                                     : Russian
Default                                  : Да
Forced                                   : Нет
Аудио #2
Идентификатор                            : 3
Формат                                   : AC-3
Формат/Информация                        : Audio Coding 3
Расширение режима                        : CM (complete main)
Параметр Endianness формата              : Big
Идентификатор кодека                     : A_AC3
Продолжительность                        : 2 ч. 34 м.
Вид битрейта                             : Постоянный
Битрейт                                  : 640 Кбит/сек
Каналы                                   : 6 каналов
Расположение каналов                     : Front: L C R, Side: L R, LFE
Частота                                  : 48,0 КГц
Битовая глубина                          : 16 бит
Метод сжатия                             : С потерями
Размер потока                            : 707 Мбайт (4%)
Заголовок                                : AC3.640.Kbps.English
Язык                                     : English
Default                                  : Нет
Forced                                   : Нет
Текст #1
Идентификатор                            : 4
Формат                                   : UTF-8
Идентификатор кодека                     : S_TEXT/UTF8
Идентификатор кодека/Информация          : UTF-8 Plain Text
Заголовок                                : Russian (Full)
Язык                                     : Russian
Default                                  : Да
Forced                                   : Нет
Текст #2
Идентификатор                            : 5
Формат                                   : UTF-8
Идентификатор кодека                     : S_TEXT/UTF8
Идентификатор кодека/Информация          : UTF-8 Plain Text
Заголовок                                : Russian (Forced)
Язык                                     : Russian
Default                                  : Нет
Forced                                   : Нет
Текст #3
Идентификатор                            : 6
Формат                                   : UTF-8
Идентификатор кодека                     : S_TEXT/UTF8
Идентификатор кодека/Информация          : UTF-8 Plain Text
Заголовок                                : Ukrainian (Full)
Язык                                     : Ukrainian
Default                                  : Нет
Forced                                   : Нет
Текст #4
Идентификатор                            : 7
Формат                                   : UTF-8
Идентификатор кодека                     : S_TEXT/UTF8
Идентификатор кодека/Информация          : UTF-8 Plain Text
Заголовок                                : English (Full)
Язык                                     : English
Default                                  : Нет
Forced                                   : Нет
Текст #5
Идентификатор                            : 8
Формат                                   : UTF-8
Идентификатор кодека                     : S_TEXT/UTF8
Идентификатор кодека/Информация          : UTF-8 Plain Text
Заголовок                                : Portuguese (Full)
Язык                                     : Portuguese
Default                                  : Нет
Forced                                   : Нет
Меню
00:00:00.000                             : en:Chapter 00
00:08:52.573                             : en:Chapter 01
00:14:26.615                             : en:Chapter 02
00:20:20.928                             : en:Chapter 03
00:28:48.143                             : en:Chapter 04
00:36:18.634                             : en:Chapter 05
00:45:18.549                             : en:Chapter 06
00:51:53.026                             : en:Chapter 07
00:56:34.224                             : en:Chapter 08
01:04:13.307                             : en:Chapter 09
01:12:56.705                             : en:Chapter 10
01:19:09.077                             : en:Chapter 11
01:23:41.391                             : en:Chapter 12
01:28:44.819                             : en:Chapter 13
01:35:13.082                             : en:Chapter 14
01:42:44.158                             : en:Chapter 15
01:49:12.337                             : en:Chapter 16
01:56:42.912                             : en:Chapter 17
02:04:59.116                             : en:Chapter 18
02:11:29.590                             : en:Chapter 19
02:19:10.884                             : en:Chapter 20
02:25:37.520                             : en:Chapter 21
Скриншоты:

/_ad83ce73d61109f90a4c3ad3a4c85ecf.png" class="postLink" rel="nofollow">

Время раздачи: 24/7 (до 10 скачавших)

[Цитировать]



Показать сообщения:    

Текущее время: 20-Фев 23:47

Часовой пояс: UTC + 3


Вы не можете начинать темы
Вы не можете отвечать на сообщения
Вы не можете редактировать свои сообщения
Вы не можете удалять свои сообщения
Вы не можете голосовать в опросах
Вы не можете прикреплять файлы к сообщениям
Вы не можете скачивать файлы

!ВНИМАНИЕ!
Сайт не предоставляет электронные версии произведений, а занимается лишь коллекционированием и каталогизацией ссылок, присылаемых и публикуемых на форуме нашими читателями. Если вы являетесь правообладателем какого-либо представленного материала и не желаете, чтобы ссылка на него находилась в нашем каталоге, свяжитесь с нами, и мы незамедлительно удалим ее. Файлы для обмена на трекере предоставлены пользователями сайта, и администрация не несет ответственности за их содержание. Просьба не заливать файлы, защищенные авторскими правами, а также файлы нелегального содержания!