[ Сегодня идет свободное скачивание без начисления Download ]


Статистика раздачи
Нет
 
   
 
Top  
 
 
-Трансформеры: Трилогия / Transformers: Trilogy (2007-2011) [1080p] BDRemux- Русское название: Трансформеры: Трилогия
Оригинальное название: Transformers: Trilogy
Год выпуска: 2007, 2009, 2011
Выпущено: США
Жанр: фантастика, боевик, приключения, триллер
Режиссер: Майкл Бэй
Сценарий: Роберто Орси, Алекс Куртцман, Джон Роджерс, Эрен Крюгер, Роберто Орси,
В ролях: Шайа ЛаБаф, Меган Фокс, Джош Дюамель, Тайриз Гибсон, Рэйчел Тейлор,
Энтони Андерсон, Джон Войт, Джон Туртурро, Майкл О’Нил, Кевин Данн, Рамон Родригез, Кевин Данн,
Джули Уайт, Изабель Лукас, Джон Бенжамин Хикки, Роузи Хантингтон-Уайтли, Патрик Демпси, Джон Малкович, Питер Каллен-Трансформеры / Transformers [1080p] BDRemux-«Наш мир. Их война»- Русское название: Трансформеры
Оригинальное название: Transformers
Год выпуска: 2007
Страна: США
Жанр: фантастика, боевик
Продолжительность: 02:23:27
Перевод: дублированный, многоголосый закадровый, двухголосый закадровый, одноголосый закадровый-О фильме:
В течение многих столетий две расы роботов-инопланетян — Автоботы и Десептиконы — вели войну, ставкой в которой была судьба Bселенной. И вот война докатилась до Земли. В то время, когда силы зла ищут ключ к верховной власти, наш последний шанс на спасение находится в руках юного землянина. Единственное, что стоит между несущими зло Десептиконами и высшей властью — это ключ, находящийся в руках простого парнишки.
Обычный подросток, Сэм Уитвикки озабочен повседневными хлопотами — школа, друзья, машины, девочки. Не ведая о том, что он является последним шансом человечества на спасение, Сэм вместе со своей подругой Микаэлой оказывается вовлеченным в противостояние Автоботов и Десептиконов. Только тогда Сэм понимает истинное значение семейного девиза Уитвикки — «без жертв нет победы!»-Режиссер: Майкл Бэй
Актepы: Шайа ЛаБаф, Меган Фокс, Джош Дюамель, Тайриз Гибсон, Рэйчел Тейлор,
Энтони Андерсон, Джон Войт, Джон Туртурро, Майкл О’Нил, Кевин Данн

Дата мировой премьеры: 12 июня 2007
Дата российской премьеры: 4 июля 2007, «UPI»
-Видеокодек: MPEG-4 AVC/H.264
Качество видео: BDRemux
Контейнер: MKV
Видео: 1920x1080, 35,2 Mbps(1080p, 23.976 fps, 16:9, High@ L4.1)
Аудио 1: AC-3, 640 kbps, 48 kHz, 16-bit, 6 каналов - Русский дублированный,
Аудио 2: DTS-HRA, 2560 kbps, 48 kHz, 24-bit, 6 каналов - многоголосый закадровый (Позитив ММ)
Аудио 3: AC-3, 448 kbps, 48 kHz, 16-bit, 6 каналов - многоголосый закадровый (Киномания)
Аудио 4: DTS, 1510 kbps, 48 kHz, 24-bit, 6 каналов - двухголосый закадровый (Пётр Гланц и Инна Королёва)
Аудио 5: AC-3, 448 kbps, 48 kHz, 16-bit, 6 каналов - одноголосый (Ю. Живов)
Аудио 6: AC-3, 384 kbps, 48 kHz, 16-bit, 6 каналов - одноголосый (А. Гаврилов)
Аудио 7: TrueHD 5.1, 4059 kbps, 48 kHz, 24-bit - English
Субтитры: русские, английские

MediaInfo

Формат                           : Matroska
Версия формата                   : Version 2
Размер файла                     : 39,9 Гбайт
Продолжительность                : 2 ч. 23 м.
Режим общего битрейта            : Переменный
Общий поток                      : 39,8 Мбит/сек
Название фильма                  : Transformers (2007) [1080p] BDRemux
Дата кодирования                 : UTC 2011-11-02 19:46:27
Программа кодирования            : mkvmerge v5.0.0 ('Die Wahre Liebe') built on Sep 25 2011 20:33:49
Библиотека кодирования           : libebml v1.2.2 + libmatroska v1.3.0
Видео
Идентификатор                    : 1
Формат                           : AVC
Формат/Информация                : Advanced Video Codec
Профиль формата                  : [url=mailto:High@L4.1]High@L4.1[/url]
Параметр CABAC формата           : Да
Параметр ReFrames формата        : 4 кадра
Идентификатор кодека             : V_MPEG4/ISO/AVC
Продолжительность                : 2 ч. 23 м.
Вид битрейта                     : Переменный
Максимальный битрейт             : 35,2 Мбит/сек
Ширина                           : 1920 пикселей
Высота                           : 1080 пикселей
Соотношение сторон               : 16:9
Частота кадров                   : 23,976 кадра/сек
Цветовое пространство            : YUV
Субдискретизация насыщенности    : 4:2:0
Битовая глубина                  : 8 бит
Тип развёртки                    : Прогрессивная
Заголовок                        : Transformers (2007) [1080p] BDRemux (by sergey2925 for NNM-Club.ru)
Язык                             : English
Основные цвета                   : BT.709-5, BT.1361, IEC 61966-2-4, SMPTE RP177
Характеристики трансфера         : BT.709-5, BT.1361
Коэффициенты матрицы             : BT.709-5, BT.1361, IEC 61966-2-4 709, SMPTE RP177
Аудио #1
Идентификатор                    : 2
Формат                           : AC-3
Формат/Информация                : Audio Coding 3
Расширение режима                : CM (complete main)
Идентификатор кодека             : A_AC3
Продолжительность                : 2 ч. 23 м.
Вид битрейта                     : Постоянный
Битрейт                          : 640 Кбит/сек
Каналы                           : 6 каналов
Расположение каналов             : Front: L C R, Side: L R, LFE
Частота                          : 48,0 КГц
Битовая глубина                  : 16 бит
Метод сжатия                     : С потерями
Размер потока                    : 657 Мбайт (2%)
Заголовок                        : RUS.DUB
Язык                             : Russian
Аудио #2
Идентификатор                    : 3
Формат                           : DTS
Формат/Информация                : Digital Theater Systems
Профиль формата                  : HRA / Core
Идентификатор кодека             : A_DTS
Продолжительность                : 2 ч. 23 м.
Вид битрейта                     : Постоянный
Битрейт                          : 2560 Кбит/сек / 1510 Кбит/сек
Каналы                           : 6 каналов
Расположение каналов             : Front: L C R, Side: L R, LFE
Частота                          : 48,0 КГц
Битовая глубина                  : 24 бит
Метод сжатия                     : С потерями
Размер потока                    : 2,56 Гбайт (6%)
Заголовок                        : RUS.MVO.(PozitivMM)
Язык                             : Russian
Аудио #3
Идентификатор                    : 4
Формат                           : AC-3
Формат/Информация                : Audio Coding 3
Расширение режима                : CM (complete main)
Идентификатор кодека             : A_AC3
Продолжительность                : 2 ч. 23 м.
Вид битрейта                     : Постоянный
Битрейт                          : 448 Кбит/сек
Каналы                           : 6 каналов
Расположение каналов             : Front: L C R, Side: L R, LFE
Частота                          : 48,0 КГц
Битовая глубина                  : 16 бит
Метод сжатия                     : С потерями
Размер потока                    : 460 Мбайт (1%)
Заголовок                        : RUS.MVO.(Kinomania)
Язык                             : Russian
Аудио #4
Идентификатор                    : 5
Формат                           : DTS
Формат/Информация                : Digital Theater Systems
Идентификатор кодека             : A_DTS
Продолжительность                : 2 ч. 23 м.
Вид битрейта                     : Постоянный
Битрейт                          : 1510 Кбит/сек
Каналы                           : 6 каналов
Расположение каналов             : Front: L C R, Side: L R, LFE
Частота                          : 48,0 КГц
Битовая глубина                  : 24 бит
Метод сжатия                     : С потерями
Размер потока                    : 1,51 Гбайт (4%)
Заголовок                        : RUS.DVO(Petr Glanz & Inna Koroleva)
Язык                             : Russian
Аудио #5
Идентификатор                    : 6
Формат                           : AC-3
Формат/Информация                : Audio Coding 3
Расширение режима                : CM (complete main)
Идентификатор кодека             : A_AC3
Продолжительность                : 2 ч. 23 м.
Вид битрейта                     : Постоянный
Битрейт                          : 448 Кбит/сек
Каналы                           : 6 каналов
Расположение каналов             : Front: L C R, Side: L R, LFE
Частота                          : 48,0 КГц
Битовая глубина                  : 16 бит
Метод сжатия                     : С потерями
Размер потока                    : 460 Мбайт (1%)
Заголовок                        : RUS.AVO.(Jivov)
Язык                             : Russian
Аудио #6
Идентификатор                    : 7
Формат                           : AC-3
Формат/Информация                : Audio Coding 3
Расширение режима                : CM (complete main)
Идентификатор кодека             : A_AC3
Продолжительность                : 2 ч. 23 м.
Вид битрейта                     : Постоянный
Битрейт                          : 384 Кбит/сек
Каналы                           : 6 каналов
Расположение каналов             : Front: L C R, Side: L R, LFE
Частота                          : 48,0 КГц
Битовая глубина                  : 16 бит
Метод сжатия                     : С потерями
Размер потока                    : 394 Мбайт (1%)
Заголовок                        : RUS.AVO.(Gavrilov)
Язык                             : Russian
Аудио #7
Идентификатор                    : 8
Формат                           : TrueHD
Идентификатор кодека             : A_TRUEHD
Продолжительность                : 2 ч. 23 м.
Вид битрейта                     : Переменный
Максимальный битрейт             : 4059 Кбит/сек
Каналы                           : 6 каналов
Расположение каналов             : Front: L C R, Side: L R, LFE
Частота                          : 48,0 КГц
Битовая глубина                  : 24 бит
Метод сжатия                     : Без потерь
Заголовок                        : Eng.Orig 5.1
Язык                             : English
Текст #1
Идентификатор                    : 9
Формат                           : UTF-8
Идентификатор кодека             : S_TEXT/UTF8
Идентификатор кодека/Информация  : UTF-8 Plain Text
Заголовок                        : Rus.Sub.Full
Язык                             : Russian
Текст #2
Идентификатор                    : 10
Формат                           : UTF-8
Идентификатор кодека             : S_TEXT/UTF8
Идентификатор кодека/Информация  : UTF-8 Plain Text
Заголовок                        : Eng.Sub.Full
Язык                             : English
Меню
00:00:00.000                     : en:Chapter 00
00:02:04.707                     : en:Chapter 01
00:08:54.534                     : en:Chapter 02
00:15:33.641                     : en:Chapter 03
00:22:21.381                     : en:Chapter 04
00:27:42.661                     : en:Chapter 05
00:33:25.378                     : en:Chapter 06
00:38:58.002                     : en:Chapter 07
00:45:13.919                     : en:Chapter 08
00:51:46.436                     : en:Chapter 09
00:58:44.687                     : en:Chapter 10
01:06:48.421                     : en:Chapter 11
01:11:53.559                     : en:Chapter 12
01:16:56.445                     : en:Chapter 13
01:23:37.345                     : en:Chapter 14
01:29:04.172                     : en:Chapter 15
01:36:28.741                     : en:Chapter 16
01:43:58.106                     : en:Chapter 17
01:49:45.745                     : en:Chapter 18
01:56:54.007                     : en:Chapter 19
02:03:09.882                     : en:Chapter 20
02:10:43.919                     : en:Chapter 21
02:15:02.302                     : en:Chapter 22

Знаете ли вы что...

» Слоган к фильму «Наш мир. Их война» должен был появиться на постерах к картине «Чужой против хищника», но в самый последний момент был заменен на «Кто бы не победил… мы проиграем».
Скриншоты:
-Трансформеры: Месть падших / Transformers: Revenge of the Fallen [IMAX Edition] (2009) [1080p] BDRemux-«Месть неминуема»- Русское название: Трансформеры: Месть падших
Оригинальное название: Transformers: Revenge of the Fallen
Год выпуска: 2009
Страна: США
Жанр: фантастика, боевик, триллер, приключения
Продолжительность: 02:30:24
Перевод: дублированный, одноголосый закадровый-О фильме:
Прошло два года с тех пор, как юный Сэм Уитвикки спас Вселенную, предотвратив глобальную битву между враждующими воинственными расами инопланетных роботов. Несмотря на свои героические подвиги, Сэм остается обычным подростком с обычными проблемами — поступлением в колледж и родителями. Разумеется, отъезд будет тяжело воспринят лучшим другом, роботом — телохранителем Бамблби.
Сэм изо всех сил пытается забыть о конфликте в Мишн Сити и вернуться к нормальной жизни. Однако битва между Автоботами и Десептиконами, несмотря на гриф полной секретности, многое изменила…-Режиссер: Майкл Бэй
Актepы: Шайа ЛаБаф, Меган Фокс, Джош Дюамель, Тайриз Гибсон, Джон Туртурро, Рамон Родригез, Кевин Данн, Джули Уайт, Изабель Лукас, Джон Бенжамин Хикки

Дата мировой премьеры: 19 июня 2009
Дата российской премьеры: 21 июня 2009, «Централ Партнершип»
-Видеокодек: MPEG-4 AVC/H.264
Качество видео: BDRemux
Контейнер: MKV
Видео: 1920x1080, 36,0 Mbps(1080p, 23.976 fps, 16:9, High@ L4.1)
Аудио 1: DTS-HD MA, 1561 kbps, 48 kHz, 24-bit, 6 каналов - русский дублированный,
Аудио 2: AC-3, 448 kbps, 48 kHz, 16-bit, 6 каналов - одноголосый (А. Гаврилов)
Аудио 3: AC-3, 448 kbps, 48 kHz, 16-bit, 6 каналов - одноголосый (Ю. Сербин)
Аудио 4: AC-3, 448 kbps, 48 kHz, 16-bit, 6 каналов - одноголосый (Д. Строев)
Аудио 5: DTS-HD MA, 1585 kbps, 48 kHz, 24-bit, 6 каналов - English
Субтитры: русские(полные, форсированные), английские

MediaInfo

Формат                           : Matroska
Версия формата                   : Version 2
Размер файла                     : 43,1 Гбайт
Продолжительность                : 2 ч. 30 м.
Режим общего битрейта            : Переменный
Общий поток                      : 41,0 Мбит/сек
Название фильма                  : Transformers 2: Revenge of the Fallen(2009) [IMAX Edition] [1080p] BDRemux
Дата кодирования                 : UTC 2011-11-05 17:50:54
Программа кодирования            : mkvmerge v5.0.0 ('Die Wahre Liebe') built on Sep 25 2011 20:33:49
Библиотека кодирования           : libebml v1.2.2 + libmatroska v1.3.0
Видео
Идентификатор                    : 1
Формат                           : AVC
Формат/Информация                : Advanced Video Codec
Профиль формата                  : [url=mailto:High@L4.1]High@L4.1[/url]
Параметр CABAC формата           : Да
Параметр ReFrames формата        : 4 кадра
Идентификатор кодека             : V_MPEG4/ISO/AVC
Продолжительность                : 2 ч. 30 м.
Вид битрейта                     : Переменный
Битрейт                          : 35,7 Мбит/сек
Максимальный битрейт             : 36,0 Мбит/сек
Ширина                           : 1920 пикселей
Высота                           : 1080 пикселей
Соотношение сторон               : 16:9
Частота кадров                   : 23,976 кадра/сек
Цветовое пространство            : YUV
Субдискретизация насыщенности    : 4:2:0
Битовая глубина                  : 8 бит
Тип развёртки                    : Прогрессивная
Бит/(Пиксели*Кадры)              : 0.718
Размер потока                    : 37,5 Гбайт (87%)
Заголовок                        : Transformers 2: Revenge of the Fallen(2009)  [IMAX Edition] [1080p] BDRemux (by sergey2925 for NNM-Club.ru)
Язык                             : English
Основные цвета                   : BT.709-5, BT.1361, IEC 61966-2-4, SMPTE RP177
Характеристики трансфера         : BT.709-5, BT.1361
Коэффициенты матрицы             : BT.709-5, BT.1361, IEC 61966-2-4 709, SMPTE RP177
Аудио #1
Идентификатор                    : 2
Формат                           : DTS
Формат/Информация                : Digital Theater Systems
Профиль формата                  : MA / Core
Идентификатор кодека             : A_DTS
Продолжительность                : 2 ч. 30 м.
Вид битрейта                     : Переменный
Битрейт                          : 1561 Кбит/сек / 1510 Кбит/сек
Каналы                           : 6 каналов
Расположение каналов             : Front: L C R, Side: L R, LFE
Частота                          : 48,0 КГц
Битовая глубина                  : 24 бит
Метод сжатия                     : Без потерь / Lossy
Заголовок                        : RUS.DUB.DTS-HD
Язык                             : Russian
Аудио #2
Идентификатор                    : 3
Формат                           : AC-3
Формат/Информация                : Audio Coding 3
Расширение режима                : CM (complete main)
Идентификатор кодека             : A_AC3
Продолжительность                : 2 ч. 30 м.
Вид битрейта                     : Постоянный
Битрейт                          : 448 Кбит/сек
Каналы                           : 6 каналов
Расположение каналов             : Front: L C R, Side: L R, LFE
Частота                          : 48,0 КГц
Битовая глубина                  : 16 бит
Метод сжатия                     : С потерями
Размер потока                    : 482 Мбайт (1%)
Заголовок                        : RUS.VO(A. Gavrilov)
Язык                             : Russian
Аудио #3
Идентификатор                    : 4
Формат                           : AC-3
Формат/Информация                : Audio Coding 3
Расширение режима                : CM (complete main)
Идентификатор кодека             : A_AC3
Продолжительность                : 2 ч. 30 м.
Вид битрейта                     : Постоянный
Битрейт                          : 448 Кбит/сек
Каналы                           : 6 каналов
Расположение каналов             : Front: L C R, Side: L R, LFE
Частота                          : 48,0 КГц
Битовая глубина                  : 16 бит
Метод сжатия                     : С потерями
Размер потока                    : 482 Мбайт (1%)
Заголовок                        : RUS.VO(U. Serbin)
Язык                             : Russian
Аудио #4
Идентификатор                    : 5
Формат                           : AC-3
Формат/Информация                : Audio Coding 3
Расширение режима                : CM (complete main)
Идентификатор кодека             : A_AC3
Продолжительность                : 2 ч. 30 м.
Вид битрейта                     : Постоянный
Битрейт                          : 448 Кбит/сек
Каналы                           : 6 каналов
Расположение каналов             : Front: L C R, Side: L R, LFE
Частота                          : 48,0 КГц
Битовая глубина                  : 16 бит
Метод сжатия                     : С потерями
Размер потока                    : 482 Мбайт (1%)
Заголовок                        : RUS.VO(D. Stroev)
Язык                             : Russian
Аудио #5
Идентификатор                    : 6
Формат                           : DTS
Формат/Информация                : Digital Theater Systems
Профиль формата                  : MA / Core
Идентификатор кодека             : A_DTS
Продолжительность                : 2 ч. 30 м.
Вид битрейта                     : Переменный
Битрейт                          : 1585 Кбит/сек / 1510 Кбит/сек
Каналы                           : 6 каналов
Расположение каналов             : Front: L C R, Side: L R, LFE
Частота                          : 48,0 КГц
Битовая глубина                  : 24 бит
Метод сжатия                     : Без потерь / Lossy
Заголовок                        : ENG.DTS-HD
Язык                             : English
Текст #1
Идентификатор                    : 7
Формат                           : UTF-8
Идентификатор кодека             : S_TEXT/UTF8
Идентификатор кодека/Информация  : UTF-8 Plain Text
Заголовок                        : RUS.SUB.Forced
Язык                             : Russian
Текст #2
Идентификатор                    : 8
Формат                           : UTF-8
Идентификатор кодека             : S_TEXT/UTF8
Идентификатор кодека/Информация  : UTF-8 Plain Text
Заголовок                        : RUS.SUB.Full
Язык                             : Russian
Текст #3
Идентификатор                    : 9
Формат                           : UTF-8
Идентификатор кодека             : S_TEXT/UTF8
Идентификатор кодека/Информация  : UTF-8 Plain Text
Заголовок                        : ENG.SUB.Full
Язык                             : English
Меню
00:00:00.000                     : en:Chapter 00
00:08:49.278                     : en:Chapter 01
00:14:52.641                     : en:Chapter 02
00:18:18.013                     : en:Chapter 03
00:25:07.631                     : en:Chapter 04
00:33:00.520                     : en:Chapter 05
00:37:07.767                     : en:Chapter 06
00:43:33.652                     : en:Chapter 07
00:54:56.543                     : en:Chapter 08
01:03:46.739                     : en:Chapter 09
01:12:48.864                     : en:Chapter 10
01:20:35.038                     : en:Chapter 11
01:26:57.921                     : en:Chapter 12
01:36:04.008                     : en:Chapter 13
01:45:16.935                     : en:Chapter 14
01:50:57.567                     : en:Chapter 15
01:59:33.666                     : en:Chapter 16
02:07:45.616                     : en:Chapter 17
02:15:37.212                     : en:Chapter 18
02:22:46.724                     : en:Chapter 19

Знаете ли вы что...

» Для создания первой части «Трансформеров» пришлось задействовать 20 Тб дискового пространства. Для работы над вторым фильмом едва хватило 145 Тб. Для сравнения, 145 Тб – это объем 35000 DVD-дисков. Если сложить столько дисков без коробок друг на друга, то их высота составит 44 метра.

Об IMAX

IMAX
Данная версия фильма включает IMAX сцены
Она длиннее почти на 30 секунд
IMAX сцены это сцены снятые на специальную IMAX камеру они имеют разрешение 1920х1080
Скриншоты:
-Трансформеры 3: Тёмная сторона Луны / Transformers: Dark of the Moon (2011) [1080p] BDRemux-«Последний шанс цивилизации»- Русское название: Трансформеры 3: Тёмная сторона Луны
Оригинальное название: Transformers: Dark of the Moon
Год выпуска: 2011
Страна: США
Жанр: фантастика, боевик, приключения
Продолжительность: 02:34:23 | 02:23:27 | 02:30:24
Перевод: дублированный, многоголосый закадровый, одноголосый закадровый-О фильме:
Для наших героев наступили печальные будни: Сэм потерял Микаэлу, правительство выпускает законодательный акт о выселении Автоботов с Земли, а пока Мегатрон скрывается после позорного поражения Фоллена, десептикон Шокуэйв, правитель Кибертрона, готовится нанести визит нашей планете с совсем недобрыми намерениями. Действие заключительной части трилогии на этот раз охватит не только Землю, но и Луну, темная сторона которой хранит не менее темные тайны.
Режиссер: Майкл Бэй
Актepы: Шайа ЛаБаф, Джош Дюамель, Джон Туртурро, Тайриз Гибсон, Роузи Хантингтон-Уайтли, Патрик Демпси, Кевин Данн, Джули Уайт, Джон Малкович, Питер Каллен

Дата мировой премьеры: 25 июня 2011
Дата российской премьеры: 29 июня 2011, «Централ Партнершип»
-Видеокодек: MPEG-4 AVC/H.264
Качество видео: BDRemux
Контейнер: MKV
Видео: 1920x1080, 34 Mbps(1080p, 23.976 fps, 16:9, High@ L4.1)
Аудио 1: AC-3 640 kbps, 48 kHz, 16-bit, 6 каналов - дублированный
Аудио 2: DTS 1510 kbps, 48 kHz, 24-bit, 6 каналов - многоголосый закадровый
Аудио 3: DTS 1510 kbps, 48 kHz, 24-bit, 6 каналов - одноголосый (Ю. Сербин)
Аудио 4: TrueHD 7.1, 4301 kbps, 48 kHz, 24-bit - English
Субтитры: Русские(полные, форсированные), английские

MediaInfo

Формат                           : Matroska
Версия формата                   : Version 2
Размер файла                     : 38,3 Гбайт
Продолжительность                : 2 ч. 34 м.
Режим общего битрейта            : Переменный
Общий поток                      : 35,5 Мбит/сек
Название фильма                  : Transformers 3: Dark of the Moon (2011) [1080p] BDRemux (NNM-Club.ru)
Дата кодирования                 : UTC 2011-10-26 18:22:57
Программа кодирования            : mkvmerge v5.0.0 ('Die Wahre Liebe') built on Sep 25 2011 20:33:49
Библиотека кодирования           : libebml v1.2.2 + libmatroska v1.3.0
Видео
Идентификатор                    : 1
Формат                           : AVC
Формат/Информация                : Advanced Video Codec
Профиль формата                  : [url=mailto:High@L4.1]High@L4.1[/url]
Параметр CABAC формата           : Да
Параметр ReFrames формата        : 4 кадра
Идентификатор кодека             : V_MPEG4/ISO/AVC
Продолжительность                : 2 ч. 34 м.
Вид битрейта                     : Переменный
Максимальный битрейт             : 34,0 Мбит/сек
Ширина                           : 1920 пикселей
Высота                           : 1080 пикселей
Соотношение сторон               : 16:9
Частота кадров                   : 23,976 кадра/сек
Цветовое пространство            : YUV
Субдискретизация насыщенности    : 4:2:0
Битовая глубина                  : 8 бит
Тип развёртки                    : Прогрессивная
Заголовок                        : Transformers 3: Dark of the Moon (2011) [1080p] BDRemux (by sergey2925 for NNM-Club.ru)
Язык                             : English
Аудио #1
Идентификатор                    : 2
Формат                           : AC-3
Формат/Информация                : Audio Coding 3
Расширение режима                : CM (complete main)
Идентификатор кодека             : A_AC3
Продолжительность                : 2 ч. 34 м.
Вид битрейта                     : Постоянный
Битрейт                          : 640 Кбит/сек
Каналы                           : 6 каналов
Расположение каналов             : Front: L C R, Side: L R, LFE
Частота                          : 48,0 КГц
Битовая глубина                  : 16 бит
Метод сжатия                     : С потерями
Размер потока                    : 707 Мбайт (2%)
Заголовок                        : RUS.DUB
Язык                             : Russian
Аудио #2
Идентификатор                    : 3
Формат                           : DTS
Формат/Информация                : Digital Theater Systems
Идентификатор кодека             : A_DTS
Продолжительность                : 2 ч. 34 м.
Вид битрейта                     : Постоянный
Битрейт                          : 1510 Кбит/сек
Каналы                           : 6 каналов
Расположение каналов             : Front: L C R, Side: L R, LFE
Частота                          : 48,0 КГц
Битовая глубина                  : 24 бит
Метод сжатия                     : С потерями
Размер потока                    : 1,63 Гбайт (4%)
Заголовок                        : RUS.MVO
Язык                             : Russian
Аудио #3
Идентификатор                    : 4
Формат                           : DTS
Формат/Информация                : Digital Theater Systems
Идентификатор кодека             : A_DTS
Продолжительность                : 2 ч. 34 м.
Вид битрейта                     : Постоянный
Битрейт                          : 1510 Кбит/сек
Каналы                           : 6 каналов
Расположение каналов             : Front: L C R, Side: L R, LFE
Частота                          : 48,0 КГц
Битовая глубина                  : 24 бит
Метод сжатия                     : С потерями
Размер потока                    : 1,63 Гбайт (4%)
Заголовок                        : RUS.AVO Serbin
Язык                             : Russian
Аудио #4
Идентификатор                    : 5
Формат                           : TrueHD
Идентификатор кодека             : A_TRUEHD
Продолжительность                : 2 ч. 34 м.
Вид битрейта                     : Переменный
Максимальный битрейт             : 6048 Кбит/сек
Каналы                           : 8 каналов
Расположение каналов             : Front: L C R, Side: L R, Back: L R, LFE
Частота                          : 48,0 КГц
Метод сжатия                     : Без потерь
Заголовок                        : Eng.Orig
Язык                             : English
Текст #1
Идентификатор                    : 6
Формат                           : UTF-8
Идентификатор кодека             : S_TEXT/UTF8
Идентификатор кодека/Информация  : UTF-8 Plain Text
Заголовок                        : Rus.Sub.Forced
Язык                             : Russian
Текст #2
Идентификатор                    : 7
Формат                           : UTF-8
Идентификатор кодека             : S_TEXT/UTF8
Идентификатор кодека/Информация  : UTF-8 Plain Text
Заголовок                        : Rus.Full
Язык                             : Russian
Текст #3
Идентификатор                    : 8
Формат                           : UTF-8
Идентификатор кодека             : S_TEXT/UTF8
Идентификатор кодека/Информация  : UTF-8 Plain Text
Заголовок                        : English
Язык                             : English
Меню
00:00:00.000                     : en:00:00:00.000
00:08:52.574                     : en:00:08:52.574
00:14:26.616                     : en:00:14:26.616
00:20:20.928                     : en:00:20:20.928
00:28:48.143                     : en:00:28:48.143
00:36:18.635                     : en:00:36:18.635
00:45:18.549                     : en:00:45:18.549
00:51:53.027                     : en:00:51:53.027
00:56:34.224                     : en:00:56:34.224
01:04:13.308                     : en:01:04:13.308
01:12:56.706                     : en:01:12:56.706
01:19:09.078                     : en:01:19:09.078
01:23:41.391                     : en:01:23:41.391
01:28:44.819                     : en:01:28:44.819
01:35:13.082                     : en:01:35:13.082
01:42:44.158                     : en:01:42:44.158
01:49:12.337                     : en:01:49:12.337
01:56:42.913                     : en:01:56:42.913
02:04:59.117                     : en:02:04:59.117
02:11:29.590                     : en:02:11:29.590
02:19:10.884                     : en:02:19:10.884
02:25:37.520                     : en:02:25:37.520

Знаете ли вы что...

» Мировая премьера фильма состоялась в Москве в рамках Московского международного кинофестиваля 23 июня 2011 года.
Скриншоты:
Скачал сам, дай скачать другому!!!Не забудь сказать - Время раздачи: до нескольких сидовОформление и ремуксинг by sergey2925©

[Цитировать]



Показать сообщения:    

Текущее время: 11-Дек 16:56

Часовой пояс: UTC + 3


Вы не можете начинать темы
Вы не можете отвечать на сообщения
Вы не можете редактировать свои сообщения
Вы не можете удалять свои сообщения
Вы не можете голосовать в опросах
Вы не можете прикреплять файлы к сообщениям
Вы не можете скачивать файлы

!ВНИМАНИЕ!
Сайт не предоставляет электронные версии произведений, а занимается лишь коллекционированием и каталогизацией ссылок, присылаемых и публикуемых на форуме нашими читателями. Если вы являетесь правообладателем какого-либо представленного материала и не желаете, чтобы ссылка на него находилась в нашем каталоге, свяжитесь с нами, и мы незамедлительно удалим ее. Файлы для обмена на трекере предоставлены пользователями сайта, и администрация не несет ответственности за их содержание. Просьба не заливать файлы, защищенные авторскими правами, а также файлы нелегального содержания!