[ Сегодня идет свободное скачивание без начисления Download ]


Статистика раздачи
Нет
 
   
 
Top  
 
 
[sh]Discovery: Kурс экстремального вождения (1-8 выпуск из ?) / Discovery: Extreme Driving Courses (2012) WEB-Rip[/sh]- -Русское название: Discovery: Kурс экстремального вождения
Оригинальное название: Discovery: Extreme Driving Courses
Режиссер / Телекомпания: Discovery Channel
Год выпуска: 2012
Жанр: Документальный-Описание:
Что будет, если дать легендарному гонщику, австралийских гонок V8 Supercar, машину и позволить ему делать с ней все? Пусть он ее уронит, стукнет, разобьет, опрокинет, утопит или полностью уничтожит. Мы поставили Грэга Мерфи в самые ужасные ситуации в каких можно оказаться на дороге, чтобы узнать что следует делать, если такое случится. О да, могучий Мерфи против машины. Это программа о том, чего не нужно делать на дороге и о том, как избежать наихудшего развития событий. Каждую неделю мы просим чемпиона Стотта Диксона помочь нам спастись. И все это в программе "Курс экстремального вождения"-Продолжительность: 8 ~ 00:21:54
Перевод: Одноголосый закадровый, профессиональный-Видеокодек: Xvid
Битрейт видео: ~1298 Кбит/сек
Размер кадра: 848x480; 854х480
Качество видео: WEB-Rip
Аудиокодек: MP3, 2 канала
Битрейт аудио: 192 Кбит/сек
-

Описание серий

1 серия
Сегодня в программе. Резкое торможение при безумной гонке. И лихачат не только мужчины, а и женщины. Скотт Диксон устроит карусель. А Мерфи-мобиль подвергнется удару на скорости 150 км/час. Пристегните ремни, скорость - главное в курсе экстремального вождения.
2 серия
Это рискованно, но приступим. Тормозим самых худших водителей. Шоферы, которые думают что нарушение правил помогут им вернуть жен. Водители, которые полагают что удрать от закона. Что сделал бы Скотт Диксон, если бы у него заела педаль акселератора? А Мерфи и его машина ныряют в воду. Пугающая возможность оказаться под водой запертым в автомобиле. Это очень страшно и очень неприятно. Пристегнитесь, Вас ждет курс экстремального вождения.
3 серия
Сегодня в программе. Тормозим самых худших водителей. Признание, которое местным полицейским лучше бы не слышать. Скотт Диксон будет выбираться из заноса. А еще мы сбросим Мерфи со скалы. О да, пристегнитесь и приготовьтесь к головокружительному заезду - это курс экстремального вождения.
4 серия
Тормозим самых худших водителей. Не только парни бывают плохими. У Скотта Диксона проблемы с тормозами. И наконец - езда впритык. Мерфи, его автомобиль и еще несколько близко знакомятся друг с другом. Приготовьтесь к головокружительному заезду - это курс экстремального вождения.
5 серия
Резкое торможение при безумной гонке. Беспредел на Ново Зеландских дорогах. И как не стоит впечетлять свою девушку. Скотт Диксон в гонке на выживание. И Мерфи-мобиль готовится к ковырку.
6 серия
Резкое торможение при безумной гонке. Противоположенное движение по кольцевой развязке. Новое поколение Ново Зеландских водителей. Скотт Диксон покажет как избежать аварии, если опасность прямо перед вами. А Мерфи с товарищами покажут, что произойдет в случае аварии, если на заднем сидении полно вещей.
7 серия
Такого торможения Вы еще не видели. Узнайте ограничения скорости, прежде чем спорить с полицейскими. Чемпион Скотт Диксон прокалывает шины. А Мерфи делает все сразу.
8 серия
Такого торможения Вы еще не видели. Хорошие, плохие и злые нарушители. Чемпион Скотт Диксон показывает, что не нужно делать в случае аварии. И Мерфи взрывает машину.
Скриншоты:

доп. скриншоты


MediaInfo

Общее
Полное имя : H:\ДОКУМЕНТАЛКИ\Kурс экстремального вождения\Курс экстремального вождения - 8 серия.avi
Формат : AVI
Формат/Информация : Audio Video Interleave
Размер файла : 234 Мбайт
Продолжительность : 21 м.
Общий поток : 1504 Кбит/сек
Программа кодирования : Lavf52.94.0
Видео
Идентификатор : 0
Формат : MPEG-4 Visual
Профиль формата : Simple@L3
Параметр BVOP формата : Нет
Параметр QPel формата : Нет
Параметр GMC формата : Без точки перехода
Параметр матрицы формата : Default (H.263)
Идентификатор кодека : XVID
Идентификатор кодека/Подсказка : XviD
Продолжительность : 21 м.
Битрейт : 1299 Кбит/сек
Ширина : 854 пикселя
Высота : 480 пикселей
Соотношение сторон : 16:9
Частота кадров : 25,000 кадров/сек
Цветовое пространство : YUV
Субдискретизация насыщенности : 4:2:0
Битовая глубина : 8 бит
Тип развёртки : Прогрессивная
Метод сжатия : С потерями
Бит/(Пиксели*Кадры) : 0.127
Размер потока : 203 Мбайт (86%)
Библиотека кодирования : XviD 1.2.1 (UTC 2008-12-04)
Аудио
Идентификатор : 1
Формат : MPEG Audio
Версия формата : Version 1
Профиль формата : Layer 3
Режим : Joint stereo
Расширение режима : MS Stereo
Идентификатор кодека : 55
Идентификатор кодека/Подсказка : MP3
Продолжительность : 21 м.
Вид битрейта : Постоянный
Битрейт : 192 Кбит/сек
Каналы : 2 канала
Частота : 48,0 КГц
Метод сжатия : С потерями
Размер потока : 29,9 Мбайт (13%)
Выравнивание : Соединение по промежуткам
Продолжительность промежутка : 24 мс. (0,60 видеокадр)
Библиотека кодирования : LAME3.98.4
Общее
Полное имя : H:\ДОКУМЕНТАЛКИ\Kурс экстремального вождения\Курс экстремального вождения - 1 серия.avi
Формат : AVI
Формат/Информация : Audio Video Interleave
Размер файла : 233 Мбайт
Продолжительность : 21 м.
Общий поток : 1503 Кбит/сек
Программа кодирования : Lavf52.94.0
Видео
Идентификатор : 0
Формат : MPEG-4 Visual
Профиль формата : Simple@L3
Параметр BVOP формата : Нет
Параметр QPel формата : Нет
Параметр GMC формата : Без точки перехода
Параметр матрицы формата : Default (H.263)
Идентификатор кодека : XVID
Идентификатор кодека/Подсказка : XviD
Продолжительность : 21 м.
Битрейт : 1298 Кбит/сек
Ширина : 848 пикселей
Высота : 480 пикселей
Соотношение сторон : 16:9
Частота кадров : 25,000 кадров/сек
Цветовое пространство : YUV
Субдискретизация насыщенности : 4:2:0
Битовая глубина : 8 бит
Тип развёртки : Прогрессивная
Метод сжатия : С потерями
Бит/(Пиксели*Кадры) : 0.128
Размер потока : 201 Мбайт (86%)
Библиотека кодирования : XviD 1.2.1 (UTC 2008-12-04)
Аудио
Идентификатор : 1
Формат : MPEG Audio
Версия формата : Version 1
Профиль формата : Layer 3
Режим : Joint stereo
Расширение режима : MS Stereo
Идентификатор кодека : 55
Идентификатор кодека/Подсказка : MP3
Продолжительность : 21 м.
Вид битрейта : Постоянный
Битрейт : 192 Кбит/сек
Каналы : 2 канала
Частота : 48,0 КГц
Метод сжатия : С потерями
Размер потока : 29,8 Мбайт (13%)
Выравнивание : Соединение по промежуткам
Продолжительность промежутка : 24 мс. (0,60 видеокадр)
Общее
Полное имя : H:\ДОКУМЕНТАЛКИ\Kурс экстремального вождения\Курс экстремального вождения - 2 серия.avi
Формат : AVI
Формат/Информация : Audio Video Interleave
Размер файла : 228 Мбайт
Продолжительность : 21 м.
Общий поток : 1503 Кбит/сек
Программа кодирования : Lavf52.94.0
Видео
Идентификатор : 0
Формат : MPEG-4 Visual
Профиль формата : Simple@L3
Параметр BVOP формата : Нет
Параметр QPel формата : Нет
Параметр GMC формата : Без точки перехода
Параметр матрицы формата : Default (H.263)
Идентификатор кодека : XVID
Идентификатор кодека/Подсказка : XviD
Продолжительность : 21 м.
Битрейт : 1298 Кбит/сек
Ширина : 848 пикселей
Высота : 480 пикселей
Соотношение сторон : 16:9
Частота кадров : 25,000 кадров/сек
Цветовое пространство : YUV
Субдискретизация насыщенности : 4:2:0
Битовая глубина : 8 бит
Тип развёртки : Прогрессивная
Метод сжатия : С потерями
Бит/(Пиксели*Кадры) : 0.128
Размер потока : 197 Мбайт (86%)
Библиотека кодирования : XviD 1.2.1 (UTC 2008-12-04)
Аудио
Идентификатор : 1
Формат : MPEG Audio
Версия формата : Version 1
Профиль формата : Layer 3
Режим : Joint stereo
Расширение режима : MS Stereo
Идентификатор кодека : 55
Идентификатор кодека/Подсказка : MP3
Продолжительность : 21 м.
Вид битрейта : Постоянный
Битрейт : 192 Кбит/сек
Каналы : 2 канала
Частота : 48,0 КГц
Метод сжатия : С потерями
Размер потока : 29,2 Мбайт (13%)
Выравнивание : Соединение по промежуткам
Продолжительность промежутка : 24 мс. (0,60 видеокадр)
Библиотека кодирования : LAME3.98.4ЄЄЄЄЄЄЄЄЄЄ
Общее
Полное имя : H:\ДОКУМЕНТАЛКИ\Kурс экстремального вождения\Курс экстремального вождения - 3 серия.avi
Формат : AVI
Формат/Информация : Audio Video Interleave
Размер файла : 231 Мбайт
Продолжительность : 21 м.
Общий поток : 1502 Кбит/сек
Программа кодирования : Lavf52.94.0
Видео
Идентификатор : 0
Формат : MPEG-4 Visual
Профиль формата : Simple@L3
Параметр BVOP формата : Нет
Параметр QPel формата : Нет
Параметр GMC формата : Без точки перехода
Параметр матрицы формата : Default (H.263)
Идентификатор кодека : XVID
Идентификатор кодека/Подсказка : XviD
Продолжительность : 21 м.
Битрейт : 1297 Кбит/сек
Ширина : 854 пикселя
Высота : 480 пикселей
Соотношение сторон : 16:9
Частота кадров : 25,000 кадров/сек
Цветовое пространство : YUV
Субдискретизация насыщенности : 4:2:0
Битовая глубина : 8 бит
Тип развёртки : Прогрессивная
Метод сжатия : С потерями
Бит/(Пиксели*Кадры) : 0.127
Размер потока : 200 Мбайт (86%)
Библиотека кодирования : XviD 1.2.1 (UTC 2008-12-04)
Аудио
Идентификатор : 1
Формат : MPEG Audio
Версия формата : Version 1
Профиль формата : Layer 3
Режим : Joint stereo
Расширение режима : MS Stereo
Идентификатор кодека : 55
Идентификатор кодека/Подсказка : MP3
Продолжительность : 21 м.
Вид битрейта : Постоянный
Битрейт : 192 Кбит/сек
Каналы : 2 канала
Частота : 48,0 КГц
Метод сжатия : С потерями
Размер потока : 29,6 Мбайт (13%)
Выравнивание : Соединение по промежуткам
Продолжительность промежутка : 24 мс. (0,60 видеокадр)
Библиотека кодирования : LAME3.98.4ЄЄЄЄЄЄЄЄЄЄ
Общее
Полное имя : H:\ДОКУМЕНТАЛКИ\Kурс экстремального вождения\Курс экстремального вождения - 4 серия.avi
Формат : AVI
Формат/Информация : Audio Video Interleave
Размер файла : 236 Мбайт
Продолжительность : 21 м.
Общий поток : 1503 Кбит/сек
Программа кодирования : Lavf52.94.0
Видео
Идентификатор : 0
Формат : MPEG-4 Visual
Профиль формата : Simple@L3
Параметр BVOP формата : Нет
Параметр QPel формата : Нет
Параметр GMC формата : Без точки перехода
Параметр матрицы формата : Default (H.263)
Идентификатор кодека : XVID
Идентификатор кодека/Подсказка : XviD
Продолжительность : 21 м.
Битрейт : 1298 Кбит/сек
Ширина : 854 пикселя
Высота : 480 пикселей
Соотношение сторон : 16:9
Частота кадров : 25,000 кадров/сек
Цветовое пространство : YUV
Субдискретизация насыщенности : 4:2:0
Битовая глубина : 8 бит
Тип развёртки : Прогрессивная
Метод сжатия : С потерями
Бит/(Пиксели*Кадры) : 0.127
Размер потока : 204 Мбайт (86%)
Библиотека кодирования : XviD 1.2.1 (UTC 2008-12-04)
Аудио
Идентификатор : 1
Формат : MPEG Audio
Версия формата : Version 1
Профиль формата : Layer 3
Режим : Joint stereo
Расширение режима : MS Stereo
Идентификатор кодека : 55
Идентификатор кодека/Подсказка : MP3
Продолжительность : 21 м.
Вид битрейта : Постоянный
Битрейт : 192 Кбит/сек
Каналы : 2 канала
Частота : 48,0 КГц
Метод сжатия : С потерями
Размер потока : 30,1 Мбайт (13%)
Выравнивание : Соединение по промежуткам
Продолжительность промежутка : 24 мс. (0,60 видеокадр)
Библиотека кодирования : LAME3.98.4
Общее
Полное имя : H:\ДОКУМЕНТАЛКИ\Kурс экстремального вождения\Курс экстремального вождения - 5 серия.avi
Формат : AVI
Формат/Информация : Audio Video Interleave
Размер файла : 234 Мбайт
Продолжительность : 21 м.
Общий поток : 1502 Кбит/сек
Программа кодирования : Lavf52.94.0
Видео
Идентификатор : 0
Формат : MPEG-4 Visual
Профиль формата : Simple@L3
Параметр BVOP формата : Нет
Параметр QPel формата : Нет
Параметр GMC формата : Без точки перехода
Параметр матрицы формата : Default (H.263)
Идентификатор кодека : XVID
Идентификатор кодека/Подсказка : XviD
Продолжительность : 21 м.
Битрейт : 1297 Кбит/сек
Ширина : 854 пикселя
Высота : 480 пикселей
Соотношение сторон : 16:9
Частота кадров : 25,000 кадров/сек
Цветовое пространство : YUV
Субдискретизация насыщенности : 4:2:0
Битовая глубина : 8 бит
Тип развёртки : Прогрессивная
Метод сжатия : С потерями
Бит/(Пиксели*Кадры) : 0.127
Размер потока : 202 Мбайт (86%)
Библиотека кодирования : XviD 1.2.1 (UTC 2008-12-04)
Аудио
Идентификатор : 1
Формат : MPEG Audio
Версия формата : Version 1
Профиль формата : Layer 3
Режим : Joint stereo
Расширение режима : MS Stereo
Идентификатор кодека : 55
Идентификатор кодека/Подсказка : MP3
Продолжительность : 21 м.
Вид битрейта : Постоянный
Битрейт : 192 Кбит/сек
Каналы : 2 канала
Частота : 48,0 КГц
Метод сжатия : С потерями
Размер потока : 29,9 Мбайт (13%)
Выравнивание : Соединение по промежуткам
Продолжительность промежутка : 24 мс. (0,60 видеокадр)
Библиотека кодирования : LAME3.98.4
Общее
Полное имя : H:\ДОКУМЕНТАЛКИ\Kурс экстремального вождения\Курс экстремального вождения - 6 серия.avi
Формат : AVI
Формат/Информация : Audio Video Interleave
Размер файла : 233 Мбайт
Продолжительность : 21 м.
Общий поток : 1503 Кбит/сек
Программа кодирования : Lavf52.94.0
Видео
Идентификатор : 0
Формат : MPEG-4 Visual
Профиль формата : Simple@L3
Параметр BVOP формата : Нет
Параметр QPel формата : Нет
Параметр GMC формата : Без точки перехода
Параметр матрицы формата : Default (H.263)
Идентификатор кодека : XVID
Идентификатор кодека/Подсказка : XviD
Продолжительность : 21 м.
Битрейт : 1298 Кбит/сек
Ширина : 854 пикселя
Высота : 480 пикселей
Соотношение сторон : 16:9
Частота кадров : 25,000 кадров/сек
Цветовое пространство : YUV
Субдискретизация насыщенности : 4:2:0
Битовая глубина : 8 бит
Тип развёртки : Прогрессивная
Метод сжатия : С потерями
Бит/(Пиксели*Кадры) : 0.127
Размер потока : 201 Мбайт (86%)
Библиотека кодирования : XviD 1.2.1 (UTC 2008-12-04)
Аудио
Идентификатор : 1
Формат : MPEG Audio
Версия формата : Version 1
Профиль формата : Layer 3
Режим : Joint stereo
Расширение режима : MS Stereo
Идентификатор кодека : 55
Идентификатор кодека/Подсказка : MP3
Продолжительность : 21 м.
Вид битрейта : Постоянный
Битрейт : 192 Кбит/сек
Каналы : 2 канала
Частота : 48,0 КГц
Метод сжатия : С потерями
Размер потока : 29,8 Мбайт (13%)
Выравнивание : Соединение по промежуткам
Продолжительность промежутка : 24 мс. (0,60 видеокадр)
Библиотека кодирования : LAME3.98.4
Общее
Полное имя : H:\ДОКУМЕНТАЛКИ\Kурс экстремального вождения\Курс экстремального вождения - 7 серия.avi
Формат : AVI
Формат/Информация : Audio Video Interleave
Размер файла : 233 Мбайт
Продолжительность : 21 м.
Общий поток : 1503 Кбит/сек
Программа кодирования : Lavf52.94.0
Видео
Идентификатор : 0
Формат : MPEG-4 Visual
Профиль формата : Simple@L3
Параметр BVOP формата : Нет
Параметр QPel формата : Нет
Параметр GMC формата : Без точки перехода
Параметр матрицы формата : Default (H.263)
Идентификатор кодека : XVID
Идентификатор кодека/Подсказка : XviD
Продолжительность : 21 м.
Битрейт : 1299 Кбит/сек
Ширина : 854 пикселя
Высота : 480 пикселей
Соотношение сторон : 16:9
Частота кадров : 25,000 кадров/сек
Цветовое пространство : YUV
Субдискретизация насыщенности : 4:2:0
Битовая глубина : 8 бит
Тип развёртки : Прогрессивная
Метод сжатия : С потерями
Бит/(Пиксели*Кадры) : 0.127
Размер потока : 201 Мбайт (86%)
Библиотека кодирования : XviD 1.2.1 (UTC 2008-12-04)
Аудио
Идентификатор : 1
Формат : MPEG Audio
Версия формата : Version 1
Профиль формата : Layer 3
Режим : Joint stereo
Расширение режима : MS Stereo
Идентификатор кодека : 55
Идентификатор кодека/Подсказка : MP3
Продолжительность : 21 м.
Вид битрейта : Постоянный
Битрейт : 192 Кбит/сек
Каналы : 2 канала
Частота : 48,0 КГц
Метод сжатия : С потерями
Размер потока : 29,7 Мбайт (13%)
Выравнивание : Соединение по промежуткам
Продолжительность промежутка : 24 мс. (0,60 видеокадр)
Библиотека кодирования : LAME3.98.4

[Цитировать]



Показать сообщения:    

Текущее время: 08-Дек 23:13

Часовой пояс: UTC + 3


Вы не можете начинать темы
Вы не можете отвечать на сообщения
Вы не можете редактировать свои сообщения
Вы не можете удалять свои сообщения
Вы не можете голосовать в опросах
Вы не можете прикреплять файлы к сообщениям
Вы не можете скачивать файлы

!ВНИМАНИЕ!
Сайт не предоставляет электронные версии произведений, а занимается лишь коллекционированием и каталогизацией ссылок, присылаемых и публикуемых на форуме нашими читателями. Если вы являетесь правообладателем какого-либо представленного материала и не желаете, чтобы ссылка на него находилась в нашем каталоге, свяжитесь с нами, и мы незамедлительно удалим ее. Файлы для обмена на трекере предоставлены пользователями сайта, и администрация не несет ответственности за их содержание. Просьба не заливать файлы, защищенные авторскими правами, а также файлы нелегального содержания!