[ Сегодня идет свободное скачивание без начисления Download ]


Статистика раздачи
Нет
 
   
 
Top  
 
 
[sh] Предвестники Апокалипсиса / Omens of the Apocalypse (2011) SATRip[/sh] - -Режиссер / Телекомпания:
Русское название: Предвестники Апокалипсиса
Оригинальное название: Omens of the Apocalypse
Год выпуска: 2012
Жанр: Документальный-Описание:
Вслед за сообщением из Арканзаса (США), где среди ночи с неба на головы жителей маленького городка Биби упали сотни мертвых черных дроздов, пришла странная весть из Северной Норвегии.
На пляже в автономной области Нордрейса появилось более 100 000 мертвых рыб. Около 20 тонн мертвой рыбы обнаружил местный житель, 40-летний Ян Петтер Йоргенсен, прогуливаясь со своей собакой на берегу залива Квейннес.
Те, кто верит в пророчество о конце света, рассматривают явление как предвестник приближающегося апокалипсиса. Эксперты пока не нашли вразумительного ответа на вопрос, как здесь в короткий срок могло оказаться столько мертвой рыбы. Некоторые считают, что всему виной приливные волны, которые выбросили на берег оказавшийся в западне косяк трески. Другие говорят, что всему виной ночной шторм. Третьи эксперты считают, что морская рыба погибла, попав в пресную воду, которую выносит в море впадающая поблизости река.
Местные жители утверждают, что ни ночного шторма, ни мощной приливной волны, ни самой рыбы накануне здесь не видели.
Тем не менее, ученые забрали образцы рыбы для исследований. И, пока нет результатов, злые языки говорят, что стаи рыб, выбрасывающихся на берег - предвестник апокалипсиса.-Режиссёр: Джон Рубин
Текст читал Игорь Тарадайкин
Перевод: Профессиональный (одноголосый)
Выпущено: АРК ТВ-Продолжительность: ~ 00:44:59-Видеокодек: XVID
Битрейт видео: ~1749 kb/s
Размер кадра: 720 x 400
Качество видео: SATRip
Аудиокодек: MP3, 2ch.
Битрейт аудио: 128 kb/s
-

MediaInfo

Формат : AVI
Формат/Информация : Audio Video Interleave
Размер файла : 608 Мбайт
Продолжительность : 44 м.
Общий поток : 1889 Кбит/сек
Название фильма : rip by Roumek & BigFANGroup
Библиотека кодирования : TMPGEnc 4.0 XPress Version. 4.7.7.307
Видео
Идентификатор : 0
Формат : MPEG-4 Visual
Профиль формата : Advanced Simple@L5
Параметр BVOP формата : 2
Параметр QPel формата : Нет
Параметр GMC формата : Без точки перехода
Параметр матрицы формата : Default (H.263)
Режим смешивания : Сжатый битовый поток
Идентификатор кодека : XVID
Идентификатор кодека/Подсказка : XviD
Продолжительность : 44 м.
Битрейт : 1749 Кбит/сек
Ширина : 720 пикселей
Высота : 400 пикселей
Соотношение сторон : 16:9
Частота кадров : 25,000 кадров/сек
Цветовое пространство : YUV
Субдискретизация насыщенности : 4:2:0
Битовая глубина : 8 бит
Тип развёртки : Прогрессивная
Метод сжатия : С потерями
Бит/(Пиксели*Кадры) : 0.243
Размер потока : 563 Мбайт (93%)
Библиотека кодирования : XviD 1.2.1 (UTC 2008-12-04)
Аудио
Идентификатор : 1
Формат : MPEG Audio
Версия формата : Version 1
Профиль формата : Layer 3
Режим : Joint stereo
Идентификатор кодека : 55
Идентификатор кодека/Подсказка : MP3
Продолжительность : 44 м.
Вид битрейта : Постоянный
Битрейт : 128 Кбит/сек
Каналы : 2 канала
Частота : 48,0 КГц
Метод сжатия : С потерями
Размер потока : 41,2 Мбайт (7%)
Выравнивание : Соединение по промежуткам
Продолжительность промежутка : 40 мс. (1,00 видеокадр)
Время предзагрузки промежутка : 384 мс.
Скриншоты:

[Цитировать]



Показать сообщения:    

Текущее время: 10-Дек 07:57

Часовой пояс: UTC + 3


Вы не можете начинать темы
Вы не можете отвечать на сообщения
Вы не можете редактировать свои сообщения
Вы не можете удалять свои сообщения
Вы не можете голосовать в опросах
Вы не можете прикреплять файлы к сообщениям
Вы не можете скачивать файлы

!ВНИМАНИЕ!
Сайт не предоставляет электронные версии произведений, а занимается лишь коллекционированием и каталогизацией ссылок, присылаемых и публикуемых на форуме нашими читателями. Если вы являетесь правообладателем какого-либо представленного материала и не желаете, чтобы ссылка на него находилась в нашем каталоге, свяжитесь с нами, и мы незамедлительно удалим ее. Файлы для обмена на трекере предоставлены пользователями сайта, и администрация не несет ответственности за их содержание. Просьба не заливать файлы, защищенные авторскими правами, а также файлы нелегального содержания!