[ Сегодня идет свободное скачивание без начисления Download ]


Статистика раздачи
Нет
 
   
 
Top  
 
 
[sh]Самый страшный фильм 3D / Dead Before Dawn 3D[/sh]-[sh]«Зомби + чуваки = зомбаки»[/sh]- -Русское название: Самый страшный фильм 3D
Оригинальное название: Dead Before Dawn 3D
Год выпуска: 2012
Жанр: Ужасы, Комедия, Приключения-Описание фильма:
Комедийная пародия на фильмы о зомби. Оставшись за главного в лавке древностей, принадлежащей его деду, Каспер, и его друзья по колледжу, случайно разбивают старинный артефакт и обрушивают себе на голову древнее проклятье. Теперь, стоит им только взглянуть на кого-нибудь, как тот убивает себя, а потом воскресает зомбаком! Пока друзья разбирались в чем тут дело, половина города успела превратится в зомби. Зомбаками стали даже ребята из сборной колледжа по футболу и девчонки из группы поддержки. Теперь друзьям необходимо срочно найти способ снять проклятье. Это будет нелегко, но зато очень круто и дико смешно!-Режиссер: Эйприл Маллен
Актеры: Девон Бостик, Кристофер Ллойд, Марта МакАйсак, Брэндон Джей МакЛарен, Бриттани Аллен, Эйприл Маллен, Тим Дойрон, Кевин МакДональд, Эллен Дубин, Кайл Шмид
Роли дубдировали: Антон Савенков, Рома Жёлудь, Никита Джигурда, Ольга Голованова, L’One
Продолжительность: 01:24:44
Перевод: Дублированный- -Дата мировой премьеры: 28 сентября 2012
Дата российской премьеры: 11 октября 2012, «Наше Кино»
Дата выхода DVD релиза: 24 декабря 2012, «Новый Диск»-Видеокодек: MPEG-4 AVC/H.264
Битрейт видео: ~8772 Кбит/сек
Размер кадра: 1920x1080
Качество видео: HDTVRip
Аудиокодек: AC3 5.1
Битрейт аудио: 448 Кбит/сек
-

Media info:

Общее
Уникальный идентификатор : 200436653129351497812922759929703897950 (0x96CAB1FA088FB40F9B5DF4CE6BC71B5E)
Полное имя : H:\my films\DEAD_BEFORE_DAWN_3D.mkv
Формат : Matroska
Версия формата : Version 4 / Version 2
Размер файла : 5,57 Гбайт
Продолжительность : 1 ч. 24 м.
Общий поток : 9407 Кбит/сек
Название фильма : DEAD_BEFORE_DAWN_3D_HDTVrip
Дата кодирования : UTC 2013-02-27 22:00:26
Программа кодирования : mkvmerge v6.0.0 ('Coming Up For Air') built on Jan 20 2013 09:52:00
Библиотека кодирования : libebml v1.3.0 + libmatroska v1.4.0
Видео
Идентификатор : 1
Формат : AVC
Формат/Информация : Advanced Video Codec
Профиль формата : [email protected]
Параметр CABAC формата : Да
Параметр ReFrames формата : 4 кадра
Идентификатор кодека : V_MPEG4/ISO/AVC
Продолжительность : 1 ч. 24 м.
Битрейт : 8772 Кбит/сек
Ширина : 1920 пикселей
Высота : 1080 пикселей
Соотношение сторон : 16:9
Режим частоты кадров : Постоянный
Частота кадров : 23,976 кадра/сек
Цветовое пространство : YUV
Субдискретизация насыщенности : 4:2:0
Битовая глубина : 8 бит
Тип развёртки : Прогрессивная
Бит/(Пиксели*Кадры) : 0.176
Размер потока : 5,19 Гбайт (93%)
Заголовок : rip by I/N
Библиотека кодирования : x264 core 128 r2216M 198a7ea
Настройки программы : cabac=1 / ref=4 / deblock=1:-3:-3 / analyse=0x3:0x133 / me=umh / subme=7 / psy=1 / psy_rd=1.00:0.10 / mixed_ref=1 / me_range=32 / chroma_me=1 / trellis=2 / 8x8dct=1 / cqm=1 / deadzone=21,11 / fast_pskip=1 / chroma_qp_offset=-3 / threads=4 / lookahead_threads=1 / sliced_threads=0 / nr=0 / decimate=1 / interlaced=0 / bluray_compat=0 / constrained_intra=0 / bframes=4 / b_pyramid=2 / b_adapt=2 / b_bias=0 / direct=2 / weightb=1 / open_gop=0 / weightp=2 / keyint=230 / keyint_min=23 / scenecut=60 / intra_refresh=0 / rc_lookahead=60 / rc=crf / mbtree=1 / crf=16.0 / qcomp=0.60 / qpmin=10 / qpmax=51 / qpstep=6 / vbv_maxrate=40000 / vbv_bufsize=30000 / crf_max=30.0 / nal_hrd=none / ip_ratio=1.40 / aq=1:0.70
Default : Да
Forced : Нет
Аудио
Идентификатор : 2
Формат : AC-3
Формат/Информация : Audio Coding 3
Расширение режима : CM (complete main)
Параметр Endianness формата : Big
Идентификатор кодека : A_AC3
Продолжительность : 1 ч. 24 м.
Вид битрейта : Постоянный
Битрейт : 448 Кбит/сек
Каналы : 6 каналов
Расположение каналов : Front: L C R, Side: L R, LFE
Частота : 48,0 КГц
Битовая глубина : 16 бит
Метод сжатия : С потерями
Задержка видео : 7 с. 800 мс.
Размер потока : 272 Мбайт (5%)
Язык : Russian
Default : Да
Forced : Нет
Скриншоты:

Проверено на встроенном плейере ТВ Samsung-D6500Время раздачи: 24/7 - круглосуточно до 15 скачавших

[Цитировать]



Показать сообщения:    

Текущее время: 05-Дек 15:36

Часовой пояс: UTC + 3


Вы не можете начинать темы
Вы не можете отвечать на сообщения
Вы не можете редактировать свои сообщения
Вы не можете удалять свои сообщения
Вы не можете голосовать в опросах
Вы не можете прикреплять файлы к сообщениям
Вы не можете скачивать файлы

!ВНИМАНИЕ!
Сайт не предоставляет электронные версии произведений, а занимается лишь коллекционированием и каталогизацией ссылок, присылаемых и публикуемых на форуме нашими читателями. Если вы являетесь правообладателем какого-либо представленного материала и не желаете, чтобы ссылка на него находилась в нашем каталоге, свяжитесь с нами, и мы незамедлительно удалим ее. Файлы для обмена на трекере предоставлены пользователями сайта, и администрация не несет ответственности за их содержание. Просьба не заливать файлы, защищенные авторскими правами, а также файлы нелегального содержания!