[ Сегодня идет свободное скачивание без начисления Download ]


Статистика раздачи
Нет
 
   
 
Top  
 
 
-[sh]Костолом / Mean Machine[/sh]- Год выпуска: 2001
Страна: США
Производство: armon
Жанр: драма, комедия, спорт
-Режиссёр: Барри Сколник
В ролях: Винни Джонс, Джейсон Стэтхэм, Джейсон Флеминг, Дэвид Келли, Дэвид Хеммингс, Ральф Браун, Вэс Блэквуд, Робби Ги, Джофф Белл, Джон Форджэм и др.
-Перевод: Профессиональный (многоголосый закадровый) ТНТ
Озвучка: отсуствует
Субтитры: нет
-[sh]Описание:[/sh]
У Дэнни Михэна есть все: деньги, слава, дорогие машины. Он - капитан английской национальной команды по футболу. Но однажды идиллия нарушается; Дэнни получает трехлетний тюремный срок за нападение на офицера полиции в состоянии алкогольного опьянения.Начальник тюрьмы, в которой оказался Дэнни, вложил немало собственных денег в создание футбольной команды и решил заполучить маститого футболиста в качестве тренера для своей команды. Его мечта - выиграть «тюремную лигу».Но Дэнни создает команду из заключенных, которая должна сыграть первый матч со своими тюремщиками. Начальник тюрьмы не возражает; он не верит, что заключенные могут выиграть.- -Качество: HDTVRip
Продолжительность: 01:35:07
-Формат: AVI
Видео кодек: XviD
Аудио кодек: MP3
Видео: 720x400 (1.80:1), 25 fps, XviD build 50 ~1802 kbps avg, 0.25 bit/pixel
Аудио: 48 kHz, AC3 Dolby Digital, 2/0 (L,R) ch, ~192.00 kbps avg |VO|

MediaInfo

Общее
Полное имя : D:\ФИЛЬМЫ\Mean Machine_[rutracker.org]_by_RAmiRA\Mean Machine_[rutracker.org]_by_RAmiRA.avi
Формат : AVI
Формат/Информация : Audio Video Interleave
Размер файла : 1,46 Гбайт
Продолжительность : 1 ч. 35 м.
Общий поток : 2197 Кбит/сек
Программа кодирования : VirtualDubMod 1.5.10.3 | www.virtualdub-fr.org || (build 2550/release)
Библиотека кодирования : VirtualDubMod build 2550/release
Видео
Идентификатор : 0
Формат : MPEG-4 Visual
Профиль формата : Advanced [email protected]
Параметр BVOP формата : 1
Параметр QPel формата : Нет
Параметр GMC формата : Без точки перехода
Параметр матрицы формата : Выборочная
Идентификатор кодека : XVID
Идентификатор кодека/Подсказка : XviD
Продолжительность : 1 ч. 35 м.
Битрейт : 1803 Кбит/сек
Ширина : 720 пикс.
Высота : 400 пикс.
Соотношение сторон : 16:9
Частота кадров : 25,000 кадр/сек
Цветовое пространство : YUV
Подвыборка цветности : 4:2:0
Битовая глубина : 8 бит
Тип развёртки : Прогрессивная
Метод сжатия : С потерями
Бит/(Пиксели*Кадры) : 0.250
Размер потока : 1,20 Гбайт (82%)
Библиотека кодирования : XviD 1.2.1 (UTC 2008-12-04)
Аудио
Идентификатор : 1
Формат : AC-3
Формат/Информация : Audio Coding 3
Расширение режима : CM (complete main)
Идентификатор кодека : 2000
Продолжительность : 1 ч. 35 м.
Вид битрейта : Постоянный
Битрейт : 384 Кбит/сек
Каналы : 6 каналов
Расположение каналов : Front: L C R, Side: L R, LFE
Частота : 48,0 КГц
Битовая глубина : 16 бит
Метод сжатия : С потерями
Размер потока : 261 Мбайт (17%)
Выравнивание : Разделение по промежуткам
Продолжительность промежутка : 40 мс. (1,00 видеокадр)
Время предзагрузки промежутка : 500 ms
Общее
Полное имя : D:\ФИЛЬМЫ\Mean Machine_[rutracker.org]_by_RAmiRA\Mean Machine_[rutracker.org]_by_RAmiRA.ENG.ac3
Формат : AC-3
Формат/Информация : Audio Coding 3
Размер файла : 261 Мбайт
Продолжительность : 1 ч. 35 м.
Общий поток : 384 Кбит/сек
Аудио
Формат : AC-3
Формат/Информация : Audio Coding 3
Расширение режима : CM (complete main)
Продолжительность : 1 ч. 35 м.
Вид битрейта : Постоянный
Битрейт : 384 Кбит/сек
Каналы : 6 каналов
Расположение каналов : Front: L C R, Side: L R, LFE
Частота : 48,0 КГц
Битовая глубина : 16 бит
Метод сжатия : С потерями
Размер потока : 261 Мбайт (100%)
Общее
Полное имя : D:\ФИЛЬМЫ\Mean Machine_[rutracker.org]_by_RAmiRA\Mean Machine_[rutracker.org]_by_RAmiRA.MVO.ac3
Формат : AC-3
Формат/Информация : Audio Coding 3
Размер файла : 131 Мбайт
Продолжительность : 1 ч. 35 м.
Общий поток : 192 Кбит/сек
Аудио
Формат : AC-3
Формат/Информация : Audio Coding 3
Расширение режима : CM (complete main)
Продолжительность : 1 ч. 35 м.
Вид битрейта : Постоянный
Битрейт : 192 Кбит/сек
Каналы : 2 канала
Расположение каналов : Front: L R
Частота : 48,0 КГц
Битовая глубина : 16 бит
Метод сжатия : С потерями
Размер потока : 131 Мбайт (100%)

Скриншот c названием фильма

Скриншоты

[Цитировать]



Показать сообщения:    

Текущее время: 06-Дек 17:12

Часовой пояс: UTC + 3


Вы не можете начинать темы
Вы не можете отвечать на сообщения
Вы не можете редактировать свои сообщения
Вы не можете удалять свои сообщения
Вы не можете голосовать в опросах
Вы не можете прикреплять файлы к сообщениям
Вы не можете скачивать файлы

!ВНИМАНИЕ!
Сайт не предоставляет электронные версии произведений, а занимается лишь коллекционированием и каталогизацией ссылок, присылаемых и публикуемых на форуме нашими читателями. Если вы являетесь правообладателем какого-либо представленного материала и не желаете, чтобы ссылка на него находилась в нашем каталоге, свяжитесь с нами, и мы незамедлительно удалим ее. Файлы для обмена на трекере предоставлены пользователями сайта, и администрация не несет ответственности за их содержание. Просьба не заливать файлы, защищенные авторскими правами, а также файлы нелегального содержания!