[ Сегодня идет свободное скачивание без начисления Download ]


Статистика раздачи
Нет
 
   
 
Top  
 
 
Эван всемогущий / Evan Almighty«Дизайн от Бога. Воплощение... от него?!»
Год выпуска: 2007
Страна: США
Производство: Universal Pictures, Spyglass Entertainment, Columbia Pictures, Original Film.
Режиссер: Том Шэдьяк
В ролях: Стив Карелл, Морган Фриман, Лорен Грэм, Джонни Симмонс, Грэхэм Филлипс, Джимми Беннетт, Джон Гудмен, Ванда Сайкес, Джон Майкл Хиггинс, Джона Хилл.
Перевод: Профессиональный (полное дублирование)
Субтитры: Отсутствуют
Описание: Эван Бакстер, которого всемогущий босс Брюс заставил лепетать всякую чушь во время прямого эфира новостей, уходит с работы на телевидении. Но жизнь его сразу же пошла в гору: он стал конгрессменом. И тут вновь появился Господь Бог, который открыл перед Эваном ужасы грядущего и попросил срочно приступить к строительству ковчега, беря пример с Ноя.
[kp]103791[/kp] [imdb]tt0413099[/imdb]
Качество: HDRip
Продолжительность: 01:36:31
Формат: AVI
Видео кодек: XviD
Аудио кодек: MPEG Audio
Видео: 640x270 (16:9), 23,976 fps, XviD ~1456 kbps avg, 0,263 bit/pixel
Аудио: 48 kHz, MPEG, 2 ch, 128 kbps avg
Премьера (мир): 21 июня 2007
Премьера (РФ): 21 июня 2007

Media Info

Полное имя                               : E:\Торрент-загрузки\Фильмы\Evan.Almighty.2007.HDRip.avi
Формат                                   : AVI
Формат/Информация                        : Audio Video Interleave
Размер файла                             : 744 Мбайт
Продолжительность                        : 1 ч. 35 м.
Общий поток                              : 1087 Кбит/сек
Название фильма                          : Эван Всемогущий
Режиссёр                                 : Last Boy Scout
Программа кодирования                    : VirtualDubMod 1.5.10.3 | www.virtualdub-fr.org || (build 2550/release)
Правообладатель                          : rutracker.org 25.11.2011
Примечание                               : HDRip Dub
Видео
Идентификатор                            : 0
Формат                                   : MPEG-4 Visual
Профиль формата                          : Advanced [email protected]
Параметр BVOP формата                    : 1
Параметр QPel формата                    : Нет
Параметр GMC формата                     : Без точки перехода
Параметр матрицы формата                 : Выборочная
Идентификатор кодека                     : XVID
Идентификатор кодека/Подсказка           : XviD
Продолжительность                        : 1 ч. 35 м.
Битрейт                                  : 950 Кбит/сек
Ширина                                   : 640 пикселей
Высота                                   : 270 пикселя
Соотношение сторон                       : 2,35:1
Частота кадров                           : 23,976 кадра/сек
Цветовое пространство                    : YUV
Субдискретизация насыщенности            : 4:2:0
Битовая глубина                          : 8 бит
Тип развёртки                            : Прогрессивная
Метод сжатия                             : С потерями
Бит/(Пиксели*Кадры)                      : 0.181
Размер потока                            : 650 Мбайт (87%)
Библиотека кодирования                   : XviD 64
Аудио
Идентификатор                            : 1
Формат                                   : MPEG Audio
Версия формата                           : Version 1
Профиль формата                          : Layer 3
Идентификатор кодека                     : 55
Идентификатор кодека/Подсказка           : MP3
Продолжительность                        : 1 ч. 35 м.
Вид битрейта                             : Постоянный
Битрейт                                  : 128 Кбит/сек
Каналы                                   : 2 канала
Частота                                  : 48,0 КГц
Метод сжатия                             : С потерями
Размер потока                            : 87,6 Мбайт (12%)
Выравнивание                             : Соединение по промежуткам
Продолжительность промежутка             : 42  мс. (1,00 видеокадр)
Время предзагрузки промежутка            : 504  мс.
Библиотека кодирования                   : L3.99r
Настройки программы                      : -m s -V 4 -q 0 -lowpass 17 -b 128

Скриншоты



[Цитировать]

Как фильм? стоит смотреть?

[Цитировать]

RoMeO,
Конечно стоит

[Цитировать]



Показать сообщения:    

Текущее время: 04-Дек 17:21

Часовой пояс: UTC + 3


Вы не можете начинать темы
Вы не можете отвечать на сообщения
Вы не можете редактировать свои сообщения
Вы не можете удалять свои сообщения
Вы не можете голосовать в опросах
Вы не можете прикреплять файлы к сообщениям
Вы не можете скачивать файлы

!ВНИМАНИЕ!
Сайт не предоставляет электронные версии произведений, а занимается лишь коллекционированием и каталогизацией ссылок, присылаемых и публикуемых на форуме нашими читателями. Если вы являетесь правообладателем какого-либо представленного материала и не желаете, чтобы ссылка на него находилась в нашем каталоге, свяжитесь с нами, и мы незамедлительно удалим ее. Файлы для обмена на трекере предоставлены пользователями сайта, и администрация не несет ответственности за их содержание. Просьба не заливать файлы, защищенные авторскими правами, а также файлы нелегального содержания!