[ Сегодня идет свободное скачивание без начисления Download ]


Статистика раздачи
Нет
 
   
 
Top  
 
 
-Свидание моей мечты / Employee of the Month (2006) BDRip [720p]- Русское название: Свидание моей мечты
Оригинальное название: Employee of the Month
Год выпуска: 2006
Производство: США
Жанр: Мелодрама, комедия
Перевод: Дублированный
Субтитры: Отсутствуют
Премьера (мир): 6 октября 2006
Премьера (РФ): 26 октября 2006, «Пирамида»
Режиссер: Грег Кулидж
Актеры: Дейн Кук, Джессика Симпсон, Дэкс Шепард, Энди Дик, Тим Бэгли, Брайан Джордж, Эфрен Рамирез, Марселло Тедфорд, Дэнни Вудберн, Харланд Уильямс
Описание фильма:
Вся мужская половина магазина, где работают Зак и Винс, сходит с ума по новой сотруднице — обворожительной кассирше Эмми. Но как обратить на себя внимание этой ослепительной блондинки? Есть только один беспроигрышный вариант: получить почетное звание «Сотрудника месяца». Для достижения вожделенной цели Зак и Винс приложат все усилия, что станет причиной множества комичных ситуаций и забавных происшествий. Так кому же достанется сердце красавицы?

рейтинг RG-13 рейтинг PG-13 детям до 13 лет просмотр не желателен
Возраст 18+ - зрителям, достигшим 18 лет-Продолжительность: 01:48:07
Контейнер: MKV
Качество видео: BDRip
Видеокодек: MPEG-4 AVC/H.264
Видео: ~5769 kbps, 1280х692 / 23,976 fps
Аудиокодек: AC3
Аудио# 1: Русский: AC3, 5.1 ch, ~384 kb/s |Дублированный|
Аудио# 2: Английский: DTS, 5.1ch, 48 kHz, ~1509 kb/s
Сэмпл: Скачать

MediaInfo:

Формат : Matroska
Версия формата : Version 2
Размер файла : 5,79 Гбайт
Продолжительность : 1 ч. 48 м.
Общий поток : 7660 Кбит/сек
Дата кодирования : UTC 2013-03-04 14:45:17
Программа кодирования : mkvmerge v5.8.0 ('No Sleep / Pillow') built on Sep 2 2012 15:37:04
Библиотека кодирования : libebml v1.2.3 + libmatroska v1.3.0
Видео
Идентификатор : 1
Формат : AVC
Формат/Информация : Advanced Video Codec
Профиль формата : High@L4.1
Параметр CABAC формата : Да
Параметр ReFrames формата : 9 кадров
Идентификатор кодека : V_MPEG4/ISO/AVC
Продолжительность : 1 ч. 48 м.
Битрейт : 5769 Кбит/сек
Ширина : 1280 пикселей
Высота : 692 пикселя
Соотношение сторон : 1,85:1
Режим частоты кадров : Постоянный
Частота кадров : 23,976 кадра/сек
Цветовое пространство : YUV
Субдискретизация насыщенности : 4:2:0
Битовая глубина : 8 бит
Тип развёртки : Прогрессивная
Бит/(Пиксели*Кадры) : 0.272
Размер потока : 4,24 Гбайт (73%)
Заголовок : Employee.of.the.Month.2006.BluRay.720p.x264.DTS
Библиотека кодирования : x264 core 129 r2245+704+36 8e61944 tMod+MixAQ [8-bit@all X86_64]
Настройки программы : cabac=1 / ref=9 / deblock=1:-3:-3 / analyse=0x3:0x113 / me=umh / subme=10 / psy=1 / fade_compensate=0.00 / psy_rd=1.10:0.15 / mixed_ref=1 / me_range=32 / chroma_me=1 / trellis=2 / 8x8dct=1 / cqm=0 / deadzone=21,11 / fast_pskip=0 / chroma_qp_offset=-2 / threads=12 / lookahead_threads=2 / sliced_threads=0 / nr=0 / decimate=0 / interlaced=0 / bluray_compat=0 / constrained_intra=0 / fgo=5 / bframes=6 / b_pyramid=2 / b_adapt=2 / b_bias=0 / direct=3 / weightb=1 / open_gop=0 / weightp=2 / keyint=360 / keyint_min=1 / scenecut=40 / intra_refresh=0 / rc_lookahead=60 / rc=2pass / mbtree=0 / bitrate=5769 / ratetol=1.0 / qcomp=0.70 / qpmin=0 / qpmax=69 / qpstep=4 / cplxblur=20.0 / qblur=0.5 / vbv_maxrate=40000 / vbv_bufsize=30000 / nal_hrd=none / ip_ratio=1.40 / pb_ratio=1.19 / aq=3 / aq-strength=1.10 / aq-sensitivity=10.00 / aq-ifactor=1.00 / aq-pfactor=1.00 / aq-bfactor=1.00 / aq2=0
Язык : English
Default : Да
Forced : Нет
Аудио #1
Идентификатор : 2
Формат : AC-3
Формат/Информация : Audio Coding 3
Расширение режима : CM (complete main)
Параметр Endianness формата : Big
Идентификатор кодека : A_AC3
Продолжительность : 1 ч. 48 м.
Вид битрейта : Постоянный
Битрейт : 384 Кбит/сек
Каналы : 6 каналов
Расположение каналов : Front: L C R, Side: L R, LFE
Частота : 48,0 КГц
Битовая глубина : 16 бит
Метод сжатия : С потерями
Размер потока : 297 Мбайт (5%)
Default : Да
Forced : Нет
Аудио #2
Идентификатор : 3
Формат : DTS
Формат/Информация : Digital Theater Systems
Профиль формата : ES
Режим : 16
Параметр Endianness формата : Big
Идентификатор кодека : A_DTS
Продолжительность : 1 ч. 48 м.
Вид битрейта : Постоянный
Битрейт : 1509 Кбит/сек
Каналы : 6 каналов
Расположение каналов : Front: L C R, Side: L R, Back: C, LFE / Front: L C R, Side: L R, LFE
Частота : 48,0 КГц
Битовая глубина : 24 бит
Метод сжатия : С потерями
Размер потока : 1,14 Гбайт (20%)
Язык : English
Default : Нет
Forced : Нет
Скриншоты:



Время раздачи: Круглосуточно 24/7 (до 10 скачавших)

[Цитировать]



Показать сообщения:    

Текущее время: 07-Дек 00:57

Часовой пояс: UTC + 3


Вы не можете начинать темы
Вы не можете отвечать на сообщения
Вы не можете редактировать свои сообщения
Вы не можете удалять свои сообщения
Вы не можете голосовать в опросах
Вы не можете прикреплять файлы к сообщениям
Вы не можете скачивать файлы

!ВНИМАНИЕ!
Сайт не предоставляет электронные версии произведений, а занимается лишь коллекционированием и каталогизацией ссылок, присылаемых и публикуемых на форуме нашими читателями. Если вы являетесь правообладателем какого-либо представленного материала и не желаете, чтобы ссылка на него находилась в нашем каталоге, свяжитесь с нами, и мы незамедлительно удалим ее. Файлы для обмена на трекере предоставлены пользователями сайта, и администрация не несет ответственности за их содержание. Просьба не заливать файлы, защищенные авторскими правами, а также файлы нелегального содержания!