[ Сегодня идет свободное скачивание без начисления Download ]


Статистика раздачи
Нет
 
   
 
Top  
 
 
-В хлам / Smashed (2012) BDRip- Русское название: В хлам
Оригинальное название: Smashed
Год выпуска: 2012
Производство: США, Super Crispy Entertainment
Жанр: Драма, Комедия
Перевод: Многоголосый закадровый, профессиональный |лицензия, R5|
Субтитры: Вшитые отключаемые
Язык субтитров: Украинский, английский
Режиссер: Джеймс Понсольдт / James Ponsoldt
Актеры: Мэри Элизабет Уинстэд, Аарон Пол, Октавия Спенсер, Ник Офферман, Меган Маллалли, Мэри Кэй Плэйс, Кайл Галлнер, Бри Тёрнер, Маккензи Дэвис, Патти Эллисон
Описание фильма:
Супруги-алкоголики катятся по наклонной, пока однажды жена не решает обратиться за помощью в медицинский центр.

Дата мировой премьеры: 22 января 2012
Дата выхода DVD релиза: 12 марта 2013, «Columbia/Sony»
Продолжительность: 01:21:06
Качество видео: BDRip 720p
Видеокодек: MPEG-4 AVC/H.264
Видео: H.264, 5000 кбит/с, 1280x692, 23,976 кадра/сек
Аудио #1: Русский: AC3, 5.1, 384 Кбит/с, 48kHz, 16 bit - многоголосый закадровый
Аудио #2: Английский: DTS, 5.1, 1536 Кбит/с, 48 kHz, 24 bit

Сохранены оригинальные чаптеры как на Blu-Ray

MediaInfo:

Общее
Уникальный идентификатор : 248515933320549480160409140708090128916 (0xBAF66D81EFFF7FFC99C6ABADF85D2A14)
Полное имя : D:\Video\Smashed.2012.BDRip.720p.ac3.dts.Rus.Eng.mkv
Формат : Matroska
Версия формата : Version 2
Размер файла : 3,91 Гбайт
Продолжительность : 1 ч. 21 м.
Общий поток : 6895 Кбит/сек
Дата кодирования : UTC 2013-03-05 18:43:00
Программа кодирования : mkvmerge v5.4.0 ('Piper') built on Mar 10 2012 13:34:39
Библиотека кодирования : libebml v1.2.3 + libmatroska v1.3.0
Видео
Идентификатор : 1
Формат : AVC
Формат/Информация : Advanced Video Codec
Профиль формата : High@L4.1
Параметр CABAC формата : Да
Параметр ReFrames формата : 9 кадров
Идентификатор кодека : V_MPEG4/ISO/AVC
Продолжительность : 1 ч. 21 м.
Битрейт : 5000 Кбит/сек
Ширина : 1280 пикселей
Высота : 692 пикселя
Соотношение сторон : 1,850
Частота кадров : 23,976 кадра/сек
Цветовое пространство : YUV
Субдискретизация насыщенности : 4:2:0
Битовая глубина : 8 бит
Тип развёртки : Прогрессивная
Бит/(Пиксели*Кадры) : 0.235
Размер потока : 2,76 Гбайт (71%)
Заголовок : Smashed 2012 720p BluRay DD5.1 x264-SFT
Библиотека кодирования : x264 core 129 r2245 bc13772
Настройки программы : cabac=1 / ref=9 / deblock=1:-3:-3 / analyse=0x3:0x133 / me=umh / subme=10 / psy=1 / psy_rd=1.00:0.00 / mixed_ref=1 / me_range=24 / chroma_me=1 / trellis=2 / 8x8dct=1 / cqm=0 / deadzone=21,11 / fast_pskip=1 / chroma_qp_offset=-2 / threads=12 / lookahead_threads=2 / sliced_threads=0 / nr=0 / decimate=1 / interlaced=0 / bluray_compat=0 / constrained_intra=0 / bframes=8 / b_pyramid=2 / b_adapt=2 / b_bias=0 / direct=3 / weightb=1 / open_gop=0 / weightp=2 / keyint=250 / keyint_min=23 / scenecut=40 / intra_refresh=0 / rc_lookahead=60 / rc=2pass / mbtree=1 / bitrate=5000 / ratetol=1.0 / qcomp=0.60 / qpmin=0 / qpmax=69 / qpstep=4 / cplxblur=20.0 / qblur=0.5 / ip_ratio=1.40 / aq=1:0.80
Язык : English
Default : Да
Forced : Да
Аудио #1
Идентификатор : 2
Формат : AC-3
Формат/Информация : Audio Coding 3
Расширение режима : CM (complete main)
Идентификатор кодека : A_AC3
Продолжительность : 1 ч. 21 м.
Вид битрейта : Постоянный
Битрейт : 384 Кбит/сек
Каналы : 6 каналов
Расположение каналов : Front: L C R, Side: L R, LFE
Частота : 48,0 КГц
Битовая глубина : 16 бит
Метод сжатия : С потерями
Размер потока : 223 Мбайт (6%)
Заголовок : DD 5.1 @ 384 kbps - MVO, R5
Язык : Russian
Default : Да
Forced : Нет
Аудио #2
Идентификатор : 3
Формат : DTS
Формат/Информация : Digital Theater Systems
Идентификатор кодека : A_DTS
Продолжительность : 1 ч. 21 м.
Вид битрейта : Постоянный
Битрейт : 1510 Кбит/сек
Каналы : 6 каналов
Расположение каналов : Front: L C R, Side: L R, LFE
Частота : 48,0 КГц
Битовая глубина : 24 бит
Метод сжатия : С потерями
Размер потока : 876 Мбайт (22%)
Заголовок : DTS 5.1 @ 1536 kbps
Язык : English
Default : Нет
Forced : Нет
Текст #1
Идентификатор : 4
Формат : UTF-8
Идентификатор кодека : S_TEXT/UTF8
Идентификатор кодека/Информация : UTF-8 Plain Text
Заголовок : Ukrainian Subtitles
Язык : Ukrainian
Default : Нет
Forced : Нет
Текст #2
Идентификатор : 5
Формат : UTF-8
Идентификатор кодека : S_TEXT/UTF8
Идентификатор кодека/Информация : UTF-8 Plain Text
Заголовок : English Subtitles
Язык : English
Default : Нет
Forced : Нет
Меню
00:00:00.000 : :1
00:07:08.928 : :2
00:14:22.487 : :3
00:19:19.867 : :4
00:23:37.207 : :5
00:27:38.490 : :6
00:32:14.141 : :7
00:36:15.465 : :8
00:40:01.107 : :9
00:43:55.007 : :10
00:48:45.506 : :11
00:50:50.714 : :12
00:54:59.421 : :13
00:59:33.653 : :14
01:05:20.583 : :15
01:10:56.085 : :16
Скриншоты:
Время раздачи: с 10:00 до 20:00 (GMT+2) - до 15 скачавшихНе забываем говорить

[Цитировать]



Показать сообщения:    

Текущее время: 08-Дек 05:10

Часовой пояс: UTC + 3


Вы не можете начинать темы
Вы не можете отвечать на сообщения
Вы не можете редактировать свои сообщения
Вы не можете удалять свои сообщения
Вы не можете голосовать в опросах
Вы не можете прикреплять файлы к сообщениям
Вы не можете скачивать файлы

!ВНИМАНИЕ!
Сайт не предоставляет электронные версии произведений, а занимается лишь коллекционированием и каталогизацией ссылок, присылаемых и публикуемых на форуме нашими читателями. Если вы являетесь правообладателем какого-либо представленного материала и не желаете, чтобы ссылка на него находилась в нашем каталоге, свяжитесь с нами, и мы незамедлительно удалим ее. Файлы для обмена на трекере предоставлены пользователями сайта, и администрация не несет ответственности за их содержание. Просьба не заливать файлы, защищенные авторскими правами, а также файлы нелегального содержания!