[ Сегодня идет свободное скачивание без начисления Download ]


Статистика раздачи
Нет
 
   
 
Top  
 
 
Безумный Макс / Mad Max - «The Film That Started It All»- Русское название: Безумный Макс
Оригинальное название: Mad Max
Год выпуска: 1979
Производство: Австралия
Жанр: боевик, триллер, приключения
Перевод: Дублированный, Профессиональный многоголосый, Авторский
Язык cубтитров: Отсутствуют
Дата мировой премьеры: 12 апреля 1979
Дата выхода DVD релиза: 7 апреля 2011, «ВС трейд»
Режиссер: Джордж Миллер
Продюсер: Байрон Кеннеди, Билл Миллер
Актеры: Мэл Гибсон, Джоэнн Сэмюэл, Хью Кияс-Бёрн, Стив Бисли, Тим Барнс, Роджер Уорд, Лиза Альденховен, Дэвид Брэкс, Бертран Кадар, Дэвид Камерон
Описание фильма:
В недалёком будущем, после крупной катастрофы, поразившей нашу урбанистическую цивилизацию, вся жизнь сосредоточилась вдоль бесчисленных магистралей…
Дорога стала способом существования. И дала многим возможность проявлять свои самые жестокие инстинкты. Банда байкеров на мощных мотоциклах, желая рассчитаться за своего убитого товарища, преследует молодого полицейского Макса. В яростной схватке убит другой полицейский, Гус, подобная участь может ждать Макса и его семью.
Ему предстоит самая главная и сложная задача — сохранить жену, сына и выжить самому. В роли Макса — Мел Гибсон, тогда ещё мало известный широкой публике.- -Продолжительность: 01:33:12
Качество видео: BDRip
Видеокодек: MPEG 4 AVC/H.264
Битрейт видео: ~ 5197 Кбит/сек
Размер кадра: 1280x546
Звук №1 (Русский): 48 kHz, AC3, 6 channels, ~448 Kbps | - Дубляж
Звук №2 (Русский): 48 kHz, AC3, 6 channels, ~448 Kbps | - MVO [КиноМания]
Звук №3 (Русский): 48 kHz, AC3, 2 channels, ~192 Kbps | - MVO [Варус Видео]
Звук №4 (Русский): 48 kHz, AC3, 6 channels, ~448 Kbps | - AVO [Михалев]
Звук №5 (Русский): 48 kHz, AC3, 6 channels, ~224 Kbps | - AVO [Володарский]
Звук №6 (Английский): 48 kHz, AC3, 6 channels, ~448 Kbps
-

MI

Общее
Уникальный идентификатор                 : 201581400060403924361072659686473386687 (0x97A72A5BA34DD91C9E24E4C0FA40CABF)
Полное имя                               : C:\Users\SerG\Downloads\Mad.Max.Trilogy.1979-1985.BDRip.HDTVRip.720p\Mad.Max.1979.BDRip.720p.mkv
Формат                                   : Matroska
Версия формата                           : Version 2
Размер файла                             : 4,82 Гбайт
Продолжительность                        : 1 ч. 33 м.
Общий поток                              : 7400 Кбит/сек
Дата кодирования                         : UTC 2012-08-17 13:22:33
Программа кодирования                    : mkvmerge v3.4.0 ('Rapunzel') сборка от May 15 2010 09:38:20
Библиотека кодирования                   : libebml v0.8.0 + libmatroska v0.9.0
Видео
Идентификатор                            : 1
Формат                                   : AVC
Формат/Информация                        : Advanced Video Codec
Профиль формата                          : [url=mailto:[email protected]][email protected][/url]
Параметр CABAC формата                   : Да
Параметр ReFrames формата                : 8 кадров
Идентификатор кодека                     : V_MPEG4/ISO/AVC
Продолжительность                        : 1 ч. 33 м.
Битрейт                                  : 5197 Кбит/сек
Ширина                                   : 1280 пикселей
Высота                                   : 546 пикселей
Соотношение сторон                       : 2,35:1
Частота кадров                           : 23,976 кадра/сек
Цветовое пространство                    : YUV
Субдискретизация насыщенности            : 4:2:0
Битовая глубина                          : 8 бит
Тип развёртки                            : Прогрессивная
Бит/(Пиксели*Кадры)                      : 0.310
Размер потока                            : 3,28 Гбайт (68%)
Библиотека кодирования                   : x264 core 104 r1703 cd21d05
Настройки программы                      : cabac=1 / ref=8 / deblock=1:-3:-3 / analyse=0x3:0x113 / me=umh / subme=9 / psy=1 / psy_rd=1.05:0.10 / mixed_ref=1 / me_range=32 / chroma_me=1 / trellis=2 / 8x8dct=1 / cqm=0 / deadzone=21,11 / fast_pskip=0 / chroma_qp_offset=-2 / threads=6 / sliced_threads=0 / nr=0 / decimate=1 / interlaced=0 / constrained_intra=0 / bframes=4 / b_pyramid=2 / b_adapt=2 / b_bias=0 / direct=3 / weightb=1 / open_gop=0 / weightp=2 / keyint=250 / keyint_min=23 / scenecut=40 / intra_refresh=0 / rc_lookahead=60 / rc=2pass / mbtree=1 / bitrate=5197 / ratetol=1.0 / qcomp=0.60 / qpmin=10 / qpmax=51 / qpstep=4 / cplxblur=20.0 / qblur=0.5 / vbv_maxrate=40000 / vbv_bufsize=30000 / ip_ratio=1.40 / aq=1:0.80 / nal_hrd=none
Язык                                     : English
Default                                  : Да
Forced                                   : Нет
Аудио #1
Идентификатор                            : 2
Формат                                   : AC-3
Формат/Информация                        : Audio Coding 3
Расширение режима                        : CM (complete main)
Параметр Endianness формата              : Big
Идентификатор кодека                     : A_AC3
Продолжительность                        : 1 ч. 33 м.
Вид битрейта                             : Постоянный
Битрейт                                  : 448 Кбит/сек
Каналы                                   : 6 каналов
Расположение каналов                     : Front: L C R, Side: L R, LFE
Частота                                  : 48,0 КГц
Битовая глубина                          : 16 бит
Метод сжатия                             : С потерями
Размер потока                            : 299 Мбайт (6%)
Заголовок                                : AC3 5.1 @ 448 Kbps @ Профессиональный дублированный (R5)
Язык                                     : Russian
Default                                  : Да
Forced                                   : Нет
Аудио #2
Идентификатор                            : 3
Формат                                   : AC-3
Формат/Информация                        : Audio Coding 3
Расширение режима                        : CM (complete main)
Параметр Endianness формата              : Big
Идентификатор кодека                     : A_AC3
Продолжительность                        : 1 ч. 33 м.
Вид битрейта                             : Постоянный
Битрейт                                  : 448 Кбит/сек
Каналы                                   : 6 каналов
Расположение каналов                     : Front: L C R, Side: L R, LFE
Частота                                  : 48,0 КГц
Битовая глубина                          : 16 бит
Метод сжатия                             : С потерями
Задержка видео                           : 15 с.
Размер потока                            : 299 Мбайт (6%)
Заголовок                                : AC3 5.1 @ 448 Kbps @ Профессиональный многоголосый (Киномания)
Язык                                     : Russian
Default                                  : Нет
Forced                                   : Нет
Аудио #3
Идентификатор                            : 4
Формат                                   : AC-3
Формат/Информация                        : Audio Coding 3
Расширение режима                        : CM (complete main)
Параметр Endianness формата              : Big
Идентификатор кодека                     : A_AC3
Продолжительность                        : 1 ч. 33 м.
Вид битрейта                             : Постоянный
Битрейт                                  : 192 Кбит/сек
Каналы                                   : 2 канала
Расположение каналов                     : Front: L R
Частота                                  : 48,0 КГц
Битовая глубина                          : 16 бит
Метод сжатия                             : С потерями
Задержка видео                           : 21 с.
Размер потока                            : 128 Мбайт (3%)
Заголовок                                : AC3 2.0 @ 192 Kbps @ Профессиональный многоголосый (Варус Видео)
Язык                                     : Russian
Default                                  : Нет
Forced                                   : Нет
Аудио #4
Идентификатор                            : 5
Формат                                   : AC-3
Формат/Информация                        : Audio Coding 3
Расширение режима                        : CM (complete main)
Параметр Endianness формата              : Big
Идентификатор кодека                     : A_AC3
Продолжительность                        : 1 ч. 33 м.
Вид битрейта                             : Постоянный
Битрейт                                  : 448 Кбит/сек
Каналы                                   : 6 каналов
Расположение каналов                     : Front: L C R, Side: L R, LFE
Частота                                  : 48,0 КГц
Битовая глубина                          : 16 бит
Метод сжатия                             : С потерями
Задержка видео                           : 15 с.
Размер потока                            : 299 Мбайт (6%)
Заголовок                                : AC3 5.1 @ 448 Kbps @ Авторский одноголосый (Михалёв)
Язык                                     : Russian
Default                                  : Нет
Forced                                   : Нет
Аудио #5
Идентификатор                            : 6
Формат                                   : AC-3
Формат/Информация                        : Audio Coding 3
Расширение режима                        : CM (complete main)
Параметр Endianness формата              : Big
Идентификатор кодека                     : A_AC3
Продолжительность                        : 1 ч. 33 м.
Вид битрейта                             : Постоянный
Битрейт                                  : 224 Кбит/сек
Каналы                                   : 6 каналов
Расположение каналов                     : Front: L C R, Side: L R, LFE
Частота                                  : 48,0 КГц
Битовая глубина                          : 16 бит
Метод сжатия                             : С потерями
Задержка видео                           : 14 с.
Размер потока                            : 149 Мбайт (3%)
Заголовок                                : AC3 5.1 @ 224 Kbps @ Авторский одноголосый (Володарский)
Язык                                     : Russian
Default                                  : Нет
Forced                                   : Нет
Аудио #6
Идентификатор                            : 7
Формат                                   : AC-3
Формат/Информация                        : Audio Coding 3
Расширение режима                        : CM (complete main)
Параметр Endianness формата              : Big
Идентификатор кодека                     : A_AC3
Продолжительность                        : 1 ч. 33 м.
Вид битрейта                             : Постоянный
Битрейт                                  : 448 Кбит/сек
Каналы                                   : 6 каналов
Расположение каналов                     : Front: L C R, Side: L R, LFE
Частота                                  : 48,0 КГц
Битовая глубина                          : 16 бит
Метод сжатия                             : С потерями
Размер потока                            : 299 Мбайт (6%)
Заголовок                                : AC3 5.1 @ 448 Kbps @
Язык                                     : English
Default                                  : Нет
Forced                                   : Нет
-Cкриншоты из фильма:
-Безумный Макс 2: Воин дороги / Mad Max 2: The Road Warrior - «When all that's left is one last chance, pray that he's still out there ... somewhere!»- Русское название: Безумный Макс 2: Воин дороги
Оригинальное название: Mad Max 2: The Road Warrior
Год выпуска: 1981
Производство: Австралия
Жанр: боевик, триллер, приключения
Перевод: Дублированный, Профессиональный многоголосый, Авторский
Язык cубтитров: Отсутствуют
Дата мировой премьеры: 24 декабря 1981
Дата выхода DVD релиза: 7 апреля 2011, «ВС трейд»
Режиссер: Джордж Миллер
Продюсер: Байрон Кеннеди
Актеры: Мел Гибсон, Брюс Спенс, Вернон Уэллс, Майк Престон, Вирджиния Хей, Дэвид Слингсби, Мойра Кло, Сид Хейлен
Описание фильма:
Катастрофа, пострашнее ядерной войны, постигла нашу цивилизацию. Страшный энергетический кризис парализовал города, пути сообщения - одним словом, все. За топливо теперь дерутся любыми средствами. Потому, что там, где бензин, - там жизнь… Одинокий водитель Макс как раз и бороздит пустоши далекой Австралии в поисках горючего. Повсюду брошенные жилища, машины, разный скарб. Наконец Макс находит станцию, превращенную в лагерь со складами горючего. Исхудавшие, измученные люди как могут охраняют то, что им принадлежит. И вот, в довершение всех бед, на лагерь нападают враги, свирепые вояки под предводительством некоего Гумундуса, садиста и душегуба. И тогда Макс вступает в схватку…- -Продолжительность: 01:35:35
Качество видео: BDRip
Видеокодек: MPEG 4 AVC/H.264
Битрейт видео: ~ 5911 Кбит/сек
Размер кадра: 1280x544
Звук №1 (Русский): 48 kHz, AC3, 6 channels, ~384 Kbps | - Дубляж
Звук №2 (Русский): 48 kHz, AC3, 6 channels, ~384 Kbps | - MVO [КиноМания]
Звук №3 (Русский): 48 kHz, AC3, 6 channels, ~384 Kbps | - AVO [Goblin]
Звук №4 (Русский): 48 kHz, AC3, 6 channels, ~384 Kbps | - AVO [Михалев]
Звук №5 (Русский): 48 kHz, AC3, 2 channels, ~192 Kbps | - AVO [Володарский]
Звук №6 (Английский): 48 kHz, AC3, 6 channels, ~640 Kbps
-

MI

Общее
Уникальный идентификатор                 : 180549535488190740237734584621022275982 (0x87D493600A06399FAD570DD11D93698E)
Полное имя                               : C:\Users\SerG\Downloads\Mad.Max.Trilogy.1979-1985.BDRip.HDTVRip.720p\Mad.Max.2.1981.BDRip.720p.mkv
Формат                                   : Matroska
Версия формата                           : Version 2
Размер файла                             : 5,52 Гбайт
Продолжительность                        : 1 ч. 35 м.
Общий поток                              : 8268 Кбит/сек
Дата кодирования                         : UTC 2012-08-16 19:38:17
Программа кодирования                    : mkvmerge v3.4.0 ('Rapunzel') сборка от May 15 2010 09:38:20
Библиотека кодирования                   : libebml v0.8.0 + libmatroska v0.9.0
Видео
Идентификатор                            : 1
Формат                                   : AVC
Формат/Информация                        : Advanced Video Codec
Профиль формата                          : [url=mailto:[email protected]][email protected][/url]
Параметр CABAC формата                   : Да
Параметр ReFrames формата                : 8 кадров
Идентификатор кодека                     : V_MPEG4/ISO/AVC
Продолжительность                        : 1 ч. 35 м.
Битрейт                                  : 5911 Кбит/сек
Ширина                                   : 1280 пикселей
Высота                                   : 544 пикселя
Соотношение сторон                       : 2,40:1
Соотношение сторон в оригинале           : 2,35:1
Частота кадров                           : 23,976 кадра/сек
Цветовое пространство                    : YUV
Субдискретизация насыщенности            : 4:2:0
Битовая глубина                          : 8 бит
Тип развёртки                            : Прогрессивная
Бит/(Пиксели*Кадры)                      : 0.354
Размер потока                            : 3,83 Гбайт (69%)
Библиотека кодирования                   : x264 core 54 svn-650
Настройки программы                      : cabac=1 / ref=5 / deblock=1:-3:-2 / analyse=0x3:0x133 / me=umh / subme=7 / brdo=0 / mixed_ref=1 / me_range=16 / chroma_me=1 / trellis=1 / 8x8dct=1 / cqm=2 / deadzone=21,11 / chroma_qp_offset=0 / threads=3 / nr=0 / decimate=0 / mbaff=0 / bframes=3 / b_pyramid=1 / b_adapt=1 / b_bias=0 / direct=1 / wpredb=1 / bime=1 / keyint=240 / keyint_min=24 / scenecut=40(pre) / rc=2pass / bitrate=5911 / ratetol=1.0 / rceq='blurCplx^(1-qComp)' / qcomp=0.60 / qpmin=10 / qpmax=51 / qpstep=4 / cplxblur=20.0 / qblur=0.5 / ip_ratio=1.40 / pb_ratio=1.30
Язык                                     : English
Default                                  : Да
Forced                                   : Нет
Аудио #1
Идентификатор                            : 2
Формат                                   : AC-3
Формат/Информация                        : Audio Coding 3
Расширение режима                        : CM (complete main)
Параметр Endianness формата              : Big
Идентификатор кодека                     : A_AC3
Продолжительность                        : 1 ч. 35 м.
Вид битрейта                             : Постоянный
Битрейт                                  : 384 Кбит/сек
Каналы                                   : 6 каналов
Расположение каналов                     : Front: L C R, Side: L R, LFE
Частота                                  : 48,0 КГц
Битовая глубина                          : 16 бит
Метод сжатия                             : С потерями
Размер потока                            : 263 Мбайт (5%)
Заголовок                                : AC3 5.1 @ 384 Kbps @ Профессиональный дублированный (R5)
Язык                                     : Russian
Default                                  : Да
Forced                                   : Нет
Аудио #2
Идентификатор                            : 3
Формат                                   : AC-3
Формат/Информация                        : Audio Coding 3
Расширение режима                        : CM (complete main)
Параметр Endianness формата              : Big
Идентификатор кодека                     : A_AC3
Продолжительность                        : 1 ч. 35 м.
Вид битрейта                             : Постоянный
Битрейт                                  : 384 Кбит/сек
Каналы                                   : 6 каналов
Расположение каналов                     : Front: L C R, Side: L R, LFE
Частота                                  : 48,0 КГц
Битовая глубина                          : 16 бит
Метод сжатия                             : С потерями
Размер потока                            : 263 Мбайт (5%)
Заголовок                                : AC3 5.1 @ 384 Kbps @ Профессиональный многоголосый (Киномания)
Язык                                     : Russian
Default                                  : Нет
Forced                                   : Нет
Аудио #3
Идентификатор                            : 4
Формат                                   : AC-3
Формат/Информация                        : Audio Coding 3
Расширение режима                        : CM (complete main)
Параметр Endianness формата              : Big
Идентификатор кодека                     : A_AC3
Продолжительность                        : 1 ч. 35 м.
Вид битрейта                             : Постоянный
Битрейт                                  : 384 Кбит/сек
Каналы                                   : 6 каналов
Расположение каналов                     : Front: L C R, Side: L R, LFE
Частота                                  : 48,0 КГц
Битовая глубина                          : 16 бит
Метод сжатия                             : С потерями
Размер потока                            : 263 Мбайт (5%)
Заголовок                                : AC3 5.1 @ 384 Kbps @ Авторский одноголосый (Goblin)
Язык                                     : Russian
Default                                  : Нет
Forced                                   : Нет
Аудио #4
Идентификатор                            : 5
Формат                                   : AC-3
Формат/Информация                        : Audio Coding 3
Расширение режима                        : CM (complete main)
Параметр Endianness формата              : Big
Идентификатор кодека                     : A_AC3
Продолжительность                        : 1 ч. 35 м.
Вид битрейта                             : Постоянный
Битрейт                                  : 384 Кбит/сек
Каналы                                   : 6 каналов
Расположение каналов                     : Front: L C R, Side: L R, LFE
Частота                                  : 48,0 КГц
Битовая глубина                          : 16 бит
Метод сжатия                             : С потерями
Размер потока                            : 263 Мбайт (5%)
Заголовок                                : AC3 5.1 @ 384 Kbps @ Авторский одноголосый (Михалёв)
Язык                                     : Russian
Default                                  : Нет
Forced                                   : Нет
Аудио #5
Идентификатор                            : 6
Формат                                   : AC-3
Формат/Информация                        : Audio Coding 3
Расширение режима                        : CM (complete main)
Параметр Endianness формата              : Big
Идентификатор кодека                     : A_AC3
Продолжительность                        : 1 ч. 35 м.
Вид битрейта                             : Постоянный
Битрейт                                  : 192 Кбит/сек
Каналы                                   : 2 канала
Расположение каналов                     : Front: L R
Частота                                  : 48,0 КГц
Битовая глубина                          : 16 бит
Метод сжатия                             : С потерями
Размер потока                            : 131 Мбайт (2%)
Заголовок                                : AC3 2.0 @ 192 Kbps @ Авторский одноголосый (Володарский)
Язык                                     : Russian
Default                                  : Нет
Forced                                   : Нет
Аудио #6
Идентификатор                            : 7
Формат                                   : AC-3
Формат/Информация                        : Audio Coding 3
Расширение режима                        : CM (complete main)
Параметр Endianness формата              : Big
Идентификатор кодека                     : A_AC3
Продолжительность                        : 1 ч. 35 м.
Вид битрейта                             : Постоянный
Битрейт                                  : 640 Кбит/сек
Каналы                                   : 6 каналов
Расположение каналов                     : Front: L C R, Side: L R, LFE
Частота                                  : 48,0 КГц
Битовая глубина                          : 16 бит
Метод сжатия                             : С потерями
Размер потока                            : 438 Мбайт (8%)
Заголовок                                : AC3 5.1 @ 640 Kbps @
Язык                                     : English
Default                                  : Нет
Forced                                   : Нет
-Cкриншоты из фильма:
-Безумный Макс 3. Под куполом грома / Mad Max 3 Beyond Thunderdome - «Входят двое, выходит только один.»- Русское название: Безумный Макс 3. Под куполом грома
Оригинальное название: Mad Max 3 Beyond Thunderdome
Год выпуска: 1985
Производство: Австралия, США
Жанр: боевик, триллер, приключения
Перевод: Дублированный, Профессиональный многоголосый, Авторский
Язык cубтитров: Отсутствуют
Дата мировой премьеры: 10 июля 1985
Дата выхода DVD релиза: 7 апреля 2011, «ВС трейд»
Режиссер: Джордж Миллер, Джордж Огилве
Продюсер: Стив Амездоз, Маркус Д’Арси, Терри Хэйес
Актеры: Мел Гибсон, Тина Тернер, Анджело Росситто, Хелен Бадей.
Описание фильма:
В городе Батертауне правит коварная властительница Энтити. Для укрепления своей власти она пытается использовать Макса, непревзойденного мастера дорожных схваток. Но теперь завораживающую череду автомобильных разборок под испепеляющим солнцем начинают сменять невероятные рукопашные бои.- -Продолжительность: 01:46:56
Качество видео: HDTVRip
Видеокодек: MPEG 4 AVC/H.264
Битрейт видео: ~ 5468 Кбит/сек
Размер кадра: 1280x532
Звук №1 (Русский): 48 kHz, AC3, 6 channels, ~448 Kbps | - Дубляж
Звук №2 (Русский): 48 kHz, AC3, 6 channels, ~448 Kbps | - MVO [КиноМания]
Звук №3 (Русский): 48 kHz, AC3, 2 channels, ~192 Kbps | - MVO [Варус Видео]
Звук №4 (Русский): 48 kHz, AC3, 6 channels, ~448 Kbps | - AVO [Гаврилов]
Звук №5 (Русский): 48 kHz, AC3, 6 channels, ~384 Kbps | - AVO [Живов]
Звук №6 (Английский): 48 kHz, AC3, 6 channels, ~384 Kbps
-

MI

Общее
Уникальный идентификатор                 : 253964372216599025576451336758552686143 (0xBF0FC248F883813AB51EF533D53BEE3F)
Полное имя                               : C:\Users\SerG\Downloads\Mad.Max.Trilogy.1979-1985.BDRip.HDTVRip.720p\Mad.Max.3.1985.HDTVRip.720p.mkv
Формат                                   : Matroska
Версия формата                           : Version 2
Размер файла                             : 5,80 Гбайт
Продолжительность                        : 1 ч. 46 м.
Общий поток                              : 7767 Кбит/сек
Дата кодирования                         : UTC 2012-08-17 17:56:50
Программа кодирования                    : mkvmerge v3.4.0 ('Rapunzel') сборка от May 15 2010 09:38:20
Библиотека кодирования                   : libebml v0.8.0 + libmatroska v0.9.0
Видео
Идентификатор                            : 1
Формат                                   : AVC
Формат/Информация                        : Advanced Video Codec
Профиль формата                          : [url=mailto:[email protected]][email protected][/url]
Параметр CABAC формата                   : Да
Параметр ReFrames формата                : 6 кадров
Идентификатор кодека                     : V_MPEG4/ISO/AVC
Продолжительность                        : 1 ч. 46 м.
Битрейт                                  : 5468 Кбит/сек
Ширина                                   : 1280 пикселей
Высота                                   : 532 пикселя
Соотношение сторон                       : 2,40:1
Частота кадров                           : 23,976 кадра/сек
Цветовое пространство                    : YUV
Субдискретизация насыщенности            : 4:2:0
Битовая глубина                          : 8 бит
Тип развёртки                            : Прогрессивная
Бит/(Пиксели*Кадры)                      : 0.335
Размер потока                            : 3,96 Гбайт (68%)
Библиотека кодирования                   : x264 core 61 r937M d994e0b
Настройки программы                      : cabac=1 / ref=6 / deblock=1:-3:-3 / analyse=0x3:0x133 / me=umh / subme=7 / psy_rd=1.0:0.0 / brdo=1 / mixed_ref=1 / me_range=24 / chroma_me=1 / trellis=0 / 8x8dct=1 / cqm=2 / deadzone=6,6 / chroma_qp_offset=-2 / threads=6 / nr=0 / decimate=1 / mbaff=0 / bframes=16 / b_pyramid=1 / b_adapt=1 / b_bias=0 / direct=1 / wpredb=1 / bime=1 / keyint=250 / keyint_min=25 / scenecut=40(pre) / rc=2pass / bitrate=5468 / ratetol=1.0 / rceq='blurCplx^(1-qComp)' / qcomp=1.00 / qpmin=10 / qpmax=51 / qpstep=4 / cplxblur=20.0 / qblur=0.5 / ip_ratio=1.40 / pb_ratio=1.30 / aq=2:0.60
Default                                  : Да
Forced                                   : Нет
Аудио #1
Идентификатор                            : 2
Формат                                   : AC-3
Формат/Информация                        : Audio Coding 3
Расширение режима                        : CM (complete main)
Параметр Endianness формата              : Big
Идентификатор кодека                     : A_AC3
Продолжительность                        : 1 ч. 46 м.
Вид битрейта                             : Постоянный
Битрейт                                  : 448 Кбит/сек
Каналы                                   : 6 каналов
Расположение каналов                     : Front: L C R, Side: L R, LFE
Частота                                  : 48,0 КГц
Битовая глубина                          : 16 бит
Метод сжатия                             : С потерями
Задержка видео                           : 24 мс.
Размер потока                            : 343 Мбайт (6%)
Заголовок                                : AC3 5.1 @ 448 Kbps @ Профессиональный дублированный (R5)
Язык                                     : Russian
Default                                  : Да
Forced                                   : Нет
Аудио #2
Идентификатор                            : 3
Формат                                   : AC-3
Формат/Информация                        : Audio Coding 3
Расширение режима                        : CM (complete main)
Параметр Endianness формата              : Big
Идентификатор кодека                     : A_AC3
Продолжительность                        : 1 ч. 46 м.
Вид битрейта                             : Постоянный
Битрейт                                  : 448 Кбит/сек
Каналы                                   : 6 каналов
Расположение каналов                     : Front: L C R, Side: L R, LFE
Частота                                  : 48,0 КГц
Битовая глубина                          : 16 бит
Метод сжатия                             : С потерями
Задержка видео                           : 24 мс.
Размер потока                            : 343 Мбайт (6%)
Заголовок                                : AC3 5.1 @ 448 Kbps @ Профессиональный многоголосый (Киномания)
Язык                                     : Russian
Default                                  : Нет
Forced                                   : Нет
Аудио #3
Идентификатор                            : 4
Формат                                   : AC-3
Формат/Информация                        : Audio Coding 3
Расширение режима                        : CM (complete main)
Параметр Endianness формата              : Big
Идентификатор кодека                     : A_AC3
Продолжительность                        : 1 ч. 46 м.
Вид битрейта                             : Постоянный
Битрейт                                  : 192 Кбит/сек
Каналы                                   : 2 канала
Расположение каналов                     : Front: L R
Частота                                  : 48,0 КГц
Битовая глубина                          : 16 бит
Метод сжатия                             : С потерями
Задержка видео                           : 6 м. 42 с.
Размер потока                            : 147 Мбайт (2%)
Заголовок                                : AC3 2.0 @ 192 Kbps @ Профессиональный многоголосый (Варус Видео)
Язык                                     : Russian
Default                                  : Нет
Forced                                   : Нет
Аудио #4
Идентификатор                            : 5
Формат                                   : AC-3
Формат/Информация                        : Audio Coding 3
Расширение режима                        : CM (complete main)
Параметр Endianness формата              : Big
Идентификатор кодека                     : A_AC3
Продолжительность                        : 1 ч. 46 м.
Вид битрейта                             : Постоянный
Битрейт                                  : 448 Кбит/сек
Каналы                                   : 6 каналов
Расположение каналов                     : Front: L C R, Side: L R, LFE
Частота                                  : 48,0 КГц
Битовая глубина                          : 16 бит
Метод сжатия                             : С потерями
Задержка видео                           : 24 мс.
Размер потока                            : 343 Мбайт (6%)
Заголовок                                : AC3 5.1 @ 448 Kbps @ Авторский одноголосый (Гаврилов)
Язык                                     : Russian
Default                                  : Нет
Forced                                   : Нет
Аудио #5
Идентификатор                            : 6
Формат                                   : AC-3
Формат/Информация                        : Audio Coding 3
Расширение режима                        : CM (complete main)
Параметр Endianness формата              : Big
Идентификатор кодека                     : A_AC3
Продолжительность                        : 1 ч. 46 м.
Вид битрейта                             : Постоянный
Битрейт                                  : 384 Кбит/сек
Каналы                                   : 6 каналов
Расположение каналов                     : Front: L C R, Side: L R, LFE
Частота                                  : 48,0 КГц
Битовая глубина                          : 16 бит
Метод сжатия                             : С потерями
Задержка видео                           : 7 с. 850 мс.
Размер потока                            : 294 Мбайт (5%)
Заголовок                                : AC3 5.1 @ 384 Kbps @ Авторский одноголосый (Живов)
Язык                                     : Russian
Default                                  : Нет
Forced                                   : Нет
Аудио #6
Идентификатор                            : 7
Формат                                   : AC-3
Формат/Информация                        : Audio Coding 3
Расширение режима                        : CM (complete main)
Параметр Endianness формата              : Big
Идентификатор кодека                     : A_AC3
Продолжительность                        : 1 ч. 46 м.
Вид битрейта                             : Постоянный
Битрейт                                  : 384 Кбит/сек
Каналы                                   : 6 каналов
Расположение каналов                     : Front: L C R, Side: L R, LFE
Частота                                  : 48,0 КГц
Битовая глубина                          : 16 бит
Метод сжатия                             : С потерями
Размер потока                            : 294 Мбайт (5%)
Заголовок                                : AC3 5.1 @ 384 Kbps @
Язык                                     : English
Default                                  : Нет
Forced                                   : Нет
-Cкриншоты из фильма:
-Приятного просмотра
и не забываем говорить СПАСИБО...
-Время раздачи: 24/7
до 15 скачавших..

[Цитировать]



Показать сообщения:    

Текущее время: 06-Дек 11:14

Часовой пояс: UTC + 3


Вы не можете начинать темы
Вы не можете отвечать на сообщения
Вы не можете редактировать свои сообщения
Вы не можете удалять свои сообщения
Вы не можете голосовать в опросах
Вы не можете прикреплять файлы к сообщениям
Вы не можете скачивать файлы

!ВНИМАНИЕ!
Сайт не предоставляет электронные версии произведений, а занимается лишь коллекционированием и каталогизацией ссылок, присылаемых и публикуемых на форуме нашими читателями. Если вы являетесь правообладателем какого-либо представленного материала и не желаете, чтобы ссылка на него находилась в нашем каталоге, свяжитесь с нами, и мы незамедлительно удалим ее. Файлы для обмена на трекере предоставлены пользователями сайта, и администрация не несет ответственности за их содержание. Просьба не заливать файлы, защищенные авторскими правами, а также файлы нелегального содержания!