[ Сегодня идет свободное скачивание без начисления Download ]


Статистика раздачи
Нет
 
   
 
Top  
 
 
-Жмурки (2005) [1080p] BDRip«Для тех, кто выжил в 90-е»- Русское название:Жмурки
Год выпуска: 2005
Выпущено: Россия
Жанр: Комедия, Криминал, Триллер
Описание фильма:
Россия, начало девяностых, Нижний Новгород.
Криминальный авторитет Михалыч контролирует наркоторговлю в городе. Михалыч носит малиновый пиджак и звонит по «мобиле» с выдвижной антенной, которая в середине 90-х считалась признаком «крутизны». Желая «крышевать» заезжего химика, изготовляющего в своей лаборатории наркотики, он посылает двух жестоких молодых бандитов — Саймона (Семёна) и Сергея — разобраться. Но они проваливают задание, оставив за собой несколько трупов. Разгневанный Михалыч даёт им последний шанс исправится — поехать к знакомому Михалыча — адвокату и обменять чемодан денег на чемодан наркотиков.
Но милиционер Степан уже навёл на это дело банду Корона, а заодно и криминального авторитета Мозга с его братками…
Режиссер: Алексей Балабанов
Актеры: Алексей Панин, Дмитрий Дюжев, Никита Михалков, Сергей Маковецкий, Виктор Сухоруков, Дмитрий Певцов, Кирилл Пирогов, Алексей Серебряков ...
Продолжительность: 01:49:43

Видеокодек: MPEG-4 AVC/H.264
Качество видео: BDRip
Аудиокодек: AC3, DTS-HD MA
Bидео: 1920x1072 (16:9), 23.976 fps, ~ 13.3 Mb/s
Аудио#1: Русский: AC3, 48.0 KHz, 6 ch, ~ 448 kb/s
Аудио#2: Русский: DTS-HD MA, 6 ch, ~ 2167 kb/s
Субтитры: Отсутствуют- Скриншоты:

MediaInfo:

Формат : Matroska
Версия формата : Version 2
Размер файла : 12,1 Гбайт
Продолжительность : 1 ч. 51 м.
Режим общего битрейта : Переменный
Общий поток : 15,6 Мбит/сек
Дата кодирования : UTC 2012-06-25 06:43:53
Программа кодирования : mkvmerge v5.6.0 ('Kenya Kane') built on May 27 2012 16:44:04
Библиотека кодирования : libebml v1.2.3 + libmatroska v1.3.0
Видео
Идентификатор : 1
Формат : AVC
Формат/Информация : Advanced Video Codec
Профиль формата : [email protected]
Параметр CABAC формата : Да
Параметр ReFrames формата : 5 кадров
Идентификатор кодека : V_MPEG4/ISO/AVC
Продолжительность : 1 ч. 51 м.
Битрейт : 13,3 Мбит/сек
Ширина : 1920 пикселей
Высота : 1072 пикселя
Соотношение сторон : 16:9
Частота кадров : 23,976 кадра/сек
Цветовое пространство : YUV
Субдискретизация насыщенности : 4:2:0
Битовая глубина : 8 бит
Тип развёртки : Прогрессивная
Бит/(Пиксели*Кадры) : 0.269
Размер потока : 10,3 Гбайт (85%)
Библиотека кодирования : x264 core 125 r2200 999b753
Настройки программы : cabac=1 / ref=5 / deblock=1:-2:-1 / analyse=0x3:0x133 / me=umh / subme=11 / psy=1 / psy_rd=1.10:0.05 / mixed_ref=1 / me_range=48 / chroma_me=1 / trellis=2 / 8x8dct=1 / cqm=0 / deadzone=21,11 / fast_pskip=1 / chroma_qp_offset=-4 / threads=3 / lookahead_threads=1 / sliced_threads=0 / nr=0 / decimate=1 / interlaced=0 / bluray_compat=0 / constrained_intra=0 / bframes=9 / b_pyramid=2 / b_adapt=2 / b_bias=0 / direct=1 / weightb=1 / open_gop=0 / weightp=2 / keyint=230 / keyint_min=22 / scenecut=40 / intra_refresh=0 / rc_lookahead=90 / rc=crf / mbtree=1 / crf=20.4 / qcomp=0.75 / qpmin=0 / qpmax=69 / qpstep=4 / vbv_maxrate=50000 / vbv_bufsize=50000 / crf_max=0.0 / nal_hrd=none / ip_ratio=1.40 / aq=1:1.10
Язык : English
Default : Да
Forced : Нет
Аудио #1
Идентификатор : 2
Формат : AC-3
Формат/Информация : Audio Coding 3
Расширение режима : CM (complete main)
Параметр Endianness формата : Big
Идентификатор кодека : A_AC3
Продолжительность : 1 ч. 51 м.
Вид битрейта : Постоянный
Битрейт : 448 Кбит/сек
Каналы : 6 каналов
Расположение каналов : Front: L C R, Side: L R, LFE
Частота : 48,0 КГц
Битовая глубина : 16 бит
Метод сжатия : С потерями
Размер потока : 357 Мбайт (3%)
Язык : Russian
Default : Да
Forced : Нет
Аудио #2
Идентификатор : 3
Формат : DTS
Формат/Информация : Digital Theater Systems
Профиль формата : MA / Core
Идентификатор кодека : A_DTS
Продолжительность : 1 ч. 51 м.
Вид битрейта : Переменный
Битрейт : 1561 Кбит/сек / 1510 Кбит/сек
Каналы : 6 каналов
Расположение каналов : Front: L C R, Side: L R, LFE
Частота : 48,0 КГц
Битовая глубина : 16 бит
Метод сжатия : Без потерь / Lossy
Язык : Russian
Default : Нет
Forced : Нет
Меню
00:00:00.000 : :Chapter 01
00:09:53.593 : :Chapter 02
00:21:09.268 : :Chapter 03
00:31:51.910 : :Chapter 04
00:39:18.356 : :Chapter 05
00:49:49.987 : :Chapter 06
01:00:00.597 : :Chapter 07
01:09:01.137 : :Chapter 08
01:20:01.796 : :Chapter 09
01:30:21.416 : :Chapter 10
01:39:04.939 : :Chapter 11
01:44:45.279 : :Chapter 12

Знаете ли вы, что...

Большинство актёров были утверждены на свои роли без всяких проб.
В ранней версии сценария фильма было 18 трупов.
В ходе съёмок было израсходовано 50 литров фальшивой крови.
В фильме есть персонаж по имени Кабан, взятый из сериала «Бригада», где о нём только упоминается.
Хотя фильм снимался в Нижнем Новгороде, на автомобиле Михалыча видны санкт-петербургские номера.
Рабочее название фильма - «Кавардак».
На МКФ в Хельсинки (Финляндия) фильм был представлен под названием «Блеф мертвеца».
В США фильм демонстрировался под прокатным названием «Блеф слепца».
Время раздачи: 24/7 - круглосуточно

[Цитировать]



Показать сообщения:    

Текущее время: 05-Дек 05:32

Часовой пояс: UTC + 3


Вы не можете начинать темы
Вы не можете отвечать на сообщения
Вы не можете редактировать свои сообщения
Вы не можете удалять свои сообщения
Вы не можете голосовать в опросах
Вы не можете прикреплять файлы к сообщениям
Вы не можете скачивать файлы

!ВНИМАНИЕ!
Сайт не предоставляет электронные версии произведений, а занимается лишь коллекционированием и каталогизацией ссылок, присылаемых и публикуемых на форуме нашими читателями. Если вы являетесь правообладателем какого-либо представленного материала и не желаете, чтобы ссылка на него находилась в нашем каталоге, свяжитесь с нами, и мы незамедлительно удалим ее. Файлы для обмена на трекере предоставлены пользователями сайта, и администрация не несет ответственности за их содержание. Просьба не заливать файлы, защищенные авторскими правами, а также файлы нелегального содержания!