[ Сегодня идет свободное скачивание без начисления Download ]


Статистика раздачи
Нет
 
   
 
Top  
 
 
-Самоубийцы (2012) [1080p] BDRip«Иди в кино, не дай им умереть»- -Русское название: Самоубийцы
Год выпуска: 2012
Страна: Россия
Жанр: Комедия
Перевод: Оригинал-Дата мировой премьеры: 1 марта 2012
Дата российской премьеры: 1 марта 2012, «Парадиз»
Дата выхода DVD релиза: 22 марта 2012, «Новый Диск»
Дата выхода Blu-Ray релиза: 10 апреля 2012 2012, «Новый Диск»-Режиссер: Егор Баранов
Актеры: Евгений Стычкин, Алексей Воробьев, Оксана Акиньшина, Гоша Куценко, Вилле Хаапасало, Марат Башаров, Михаил Полицеймако-Описание фильма: Комедия о головокружительных приключениях трех друзей - Алексея, Толика и Марины, которые решили свести счеты с жизнью. Собрав вокруг себя неприкаянных единомышленников, новые друзья решают напоследок исполнить по последнему желанию друг друга. Это, на первый взгляд, безобидное решение превращает жизнь героев в непрерывный калейдоскоп феерических событий. Чем активнее друзья исполняют самые неожиданные желания друг друга, тем невероятнее истории, в которые они попадают.- -Продолжительность: 01:29:13
Качество видео: BDRip [1080p]-Видео: MPEG4-AVC, 1920x816, ~10.3 Mbps (25.000 fps)
Аудио: RU: AC3, 640 Kb/s (6 ch), 48.0 KHz, DN -4dB [Лицензия]
Сэмпл: Скачать
Сохранены оригинальные чаптеры как на Blu-Ray

MediaInfo:

General
Unique ID                                : 213177878215336368635781724582692858229 (0xA06090DFB674ABE891542919A2A52975)
Complete name                            : E:\Samoubijcy.2012.BDRip.[1080p].mkv
Format                                   : Matroska
Format version                           : Version 2
File size                                : 6.92 GiB
Duration                                 : 1h 29mn
Overall bit rate                         : 11.1 Mbps
Movie name                               : -=rwa=-
Encoded date                             : UTC 2012-05-19 06:47:25
Writing application                      : mkvmerge v5.5.0 ('Healer') built on Apr  6 2012 21:43:24
Writing library                          : libebml v1.2.3 + libmatroska v1.3.0
Video
ID                                       : 1
Format                                   : AVC
Format/Info                              : Advanced Video Codec
Format profile                           : [url=mailto:High@L5.1]High@L5.1[/url]
Format settings, CABAC                   : Yes
Format settings, ReFrames                : 2 frames
Muxing mode                              : Header stripping
Codec ID                                 : V_MPEG4/ISO/AVC
Duration                                 : 1h 29mn
Bit rate                                 : 10.3 Mbps
Width                                    : 1 920 pixels
Height                                   : 816 pixels
Display aspect ratio                     : 2.35:1
Frame rate                               : 25.000 fps
Color space                              : YUV
Chroma subsampling                       : 4:2:0
Bit depth                                : 8 bits
Scan type                                : Progressive
Bits/(Pixel*Frame)                       : 0.262
Stream size                              : 6.39 GiB (92%)
Title                                    : Самоубийцы (2012)
Writing library                          : x264 core
Default                                  : Yes
Forced                                   : No
Color primaries                          : BT.709-5, BT.1361, IEC 61966-2-4, SMPTE RP177
Transfer characteristics                 : BT.709-5, BT.1361
Matrix coefficients                      : BT.709-5, BT.1361, IEC 61966-2-4 709, SMPTE RP177
Audio
ID                                       : 2
Format                                   : AC-3
Format/Info                              : Audio Coding 3
Mode extension                           : CM (complete main)
Format settings, Endianness              : Big
Muxing mode                              : Header stripping
Codec ID                                 : A_AC3
Duration                                 : 1h 29mn
Bit rate mode                            : Constant
Bit rate                                 : 640 Kbps
Channel(s)                               : 6 channels
Channel positions                        : Front: L C R, Side: L R, LFE
Sampling rate                            : 48.0 KHz
Bit depth                                : 16 bits
Compression mode                         : Lossy
Stream size                              : 408 MiB (6%)
Title                                    : Оригинал [лицензия]
Language                                 : Russian
Default                                  : Yes
Forced                                   : No
Menu
00:00:00.000                             : en:(01)00:00:00:000
00:01:40.720                             : en:(02)00:01:40:720
00:08:03.280                             : en:(03)00:08:03:280
00:21:37.360                             : en:(04)00:21:37:360
00:30:47.440                             : en:(05)00:30:47:440
00:40:09.520                             : en:(06)00:40:09:520
00:51:03.280                             : en:(07)00:51:03:280
01:03:37.840                             : en:(08)01:03:37:840
01:14:58.960                             : en:(09)01:14:58:960
- -Время раздачи: 24/7
до 3x скачавших..

[Цитировать]



Показать сообщения:    

Текущее время: 08-Дек 03:16

Часовой пояс: UTC + 3


Вы не можете начинать темы
Вы не можете отвечать на сообщения
Вы не можете редактировать свои сообщения
Вы не можете удалять свои сообщения
Вы не можете голосовать в опросах
Вы не можете прикреплять файлы к сообщениям
Вы не можете скачивать файлы

!ВНИМАНИЕ!
Сайт не предоставляет электронные версии произведений, а занимается лишь коллекционированием и каталогизацией ссылок, присылаемых и публикуемых на форуме нашими читателями. Если вы являетесь правообладателем какого-либо представленного материала и не желаете, чтобы ссылка на него находилась в нашем каталоге, свяжитесь с нами, и мы незамедлительно удалим ее. Файлы для обмена на трекере предоставлены пользователями сайта, и администрация не несет ответственности за их содержание. Просьба не заливать файлы, защищенные авторскими правами, а также файлы нелегального содержания!