[ Сегодня идет свободное скачивание без начисления Download ]


Статистика раздачи
Нет
 
   
 
Top  
 
 
Дирижёр (2012) [1080p] BDRip- Оригинальное название: Дирижёр
Год выпуска: 2012
Жанр: Драма
Перевод: Оригинальный [Русский]
Субтитры: Русские-Режиссер: Павел Лунгин
Актеры: Владас Багдонас, Карэн Бадалов, Дарья Мороз, Сергей Колтаков, Инга Оболдина, Андрей Сиротин, Сергей Барковский
Описание фильма:
Рядовые гастроли приводят музыкантов и руководителя оркестра к неожиданными откровениям. Накануне отъезда деспотичный и жесткий дирижер узнает о гибели сына, с которым давно не виделся и чей образ жизни так и не сумел принять. Эта новость не заставляет дрогнуть ни один мускул на его каменном лице. Однако следующие три дня в Иерусалиме, где оркестр исполняет ораторию "Страсти по Матфею", заставляют его и других героев скинуть маски, переосмыслить свою жизнь и найти путь к Богу.-
Премьера (РФ): 29 марта 2012, «Мастерская Павла Лунгина»
Релиз на DVD: 25 апреля 2012, «Кармен Видео»
Релиз на Blu-Ray: 10 мая 2012, «Кармен Видео»-Продолжительность: 01:30:12
Качество видео: BDRip 1080p
Контейнер: MKV
Видеокодек: MPEG-4 AVC/H.264
Битрейт видео: 9384 kbps
Размер кадра: 1920x816
Аудио: [Русский] DTS, 6 ch, 1510 Кбит/с-

MI

Общее
Уникальный идентификатор                 : 185152198127945320327107723204419381324 (0x8B4B0429E6E55A9FA95767940737E84C)
Полное имя                               : P:\торренты\Dirizhjor.2012.x264.BDRip.(1080p).mkv
Формат                                   : Matroska
Версия формата                           : Version 2
Размер файла                             : 6,86 Гбайт
Продолжительность                        : 1 ч. 30 м.
Общий поток                              : 10,9 Мбит/сек
Название фильма                          : Derizher.2012.O.BDRip.1080p.Uniongang.tv
Дата кодирования                         : UTC 2012-05-03 22:29:34
Программа кодирования                    : mkvmerge v5.5.0 ('Healer') built on Apr  6 2012 21:43:24
Библиотека кодирования                   : libebml v1.2.3 + libmatroska v1.3.0
Видео
Идентификатор                            : 1
Формат                                   : AVC
Формат/Информация                        : Advanced Video Codec
Профиль формата                          : [url=mailto:[email protected]][email protected][/url]
Параметр CABAC формата                   : Да
Параметр ReFrames формата                : 5 кадров
Идентификатор кодека                     : V_MPEG4/ISO/AVC
Продолжительность                        : 1 ч. 30 м.
Битрейт                                  : 9384 Кбит/сек
Ширина                                   : 1920 пикселей
Высота                                   : 816 пикселей
Соотношение сторон                       : 2,35:1
Частота кадров                           : 24,000 кадра/сек
Цветовое пространство                    : YUV
Субдискретизация насыщенности            : 4:2:0
Битовая глубина                          : 8 бит
Тип развёртки                            : Прогрессивная
Бит/(Пиксели*Кадры)                      : 0.250
Размер потока                            : 5,77 Гбайт (84%)
Заголовок                                : Derizher.2012.O.BDRip.1080p.Uniongang.tv
Библиотека кодирования                   : x264 core 120 r2164+656 2ff844c
Настройки программы                      : cabac=1 / ref=5 / deblock=1:-3:-3 / analyse=0x3:0x113 / me=umh / subme=11 / psy=1 / fade_compensate=0.00 / psy_rd=1.03:0.15 / mixed_ref=1 / me_range=32 / chroma_me=1 / trellis=2 / 8x8dct=1 / cqm=0 / deadzone=21,11 / fast_pskip=1 / chroma_qp_offset=-3 / threads=6 / sliced_threads=0 / nr=0 / decimate=1 / interlaced=0 / bluray_compat=0 / constrained_intra=0 / fgo=0 / bframes=5 / b_pyramid=2 / b_adapt=2 / b_bias=0 / direct=3 / weightb=1 / open_gop=0 / weightp=2 / keyint=250 / keyint_min=24 / scenecut=40 / intra_refresh=0 / rc=2pass / mbtree=0 / bitrate=9384 / ratetol=1.0 / qcomp=0.60 / qpmin=0 / qpmax=69 / qpstep=4 / cplxblur=20.0 / qblur=0.5 / ip_ratio=1.40 / pb_ratio=1.30 / aq=1:1.00
Язык                                     : Russian
Default                                  : Да
Forced                                   : Нет
Аудио
Идентификатор                            : 2
Формат                                   : DTS
Формат/Информация                        : Digital Theater Systems
Идентификатор кодека                     : A_DTS
Продолжительность                        : 1 ч. 30 м.
Вид битрейта                             : Постоянный
Битрейт                                  : 1510 Кбит/сек
Каналы                                   : 6 каналов
Расположение каналов                     : Front: L C R, Side: L R, LFE
Частота                                  : 48,0 КГц
Битовая глубина                          : 24 бит
Метод сжатия                             : С потерями
Размер потока                            : 974 Мбайт (14%)
Язык                                     : Russian
Default                                  : Да
Forced                                   : Нет
Текст
Идентификатор                            : 3
Формат                                   : PGS
Режим смешивания                         : zlib
Идентификатор кодека                     : S_HDMV/PGS
Идентификатор кодека/Информация          : The same subtitle format used on BDs/HD-DVDs
Язык                                     : Russian
Default                                  : Нет
Forced                                   : Нет
Меню
00:00:00.000                             : ru:00:00:00.000
00:08:16.500                             : ru:00:08:16.500
00:15:24.792                             : ru:00:15:24.792
00:23:10.625                             : ru:00:23:10.625
00:31:18.500                             : ru:00:31:18.500
00:39:03.667                             : ru:00:39:03.667
00:46:48.708                             : ru:00:46:48.708
00:54:24.083                             : ru:00:54:24.083
01:02:41.167                             : ru:01:02:41.167
01:10:40.292                             : ru:01:10:40.292
01:18:47.667                             : ru:01:18:47.667
01:27:36.875                             : ru:01:27:36.875
Скриншоты:


Время раздачи: 24/7
Релиз:

[Цитировать]



Показать сообщения:    

Текущее время: 04-Дек 17:21

Часовой пояс: UTC + 3


Вы не можете начинать темы
Вы не можете отвечать на сообщения
Вы не можете редактировать свои сообщения
Вы не можете удалять свои сообщения
Вы не можете голосовать в опросах
Вы не можете прикреплять файлы к сообщениям
Вы не можете скачивать файлы

!ВНИМАНИЕ!
Сайт не предоставляет электронные версии произведений, а занимается лишь коллекционированием и каталогизацией ссылок, присылаемых и публикуемых на форуме нашими читателями. Если вы являетесь правообладателем какого-либо представленного материала и не желаете, чтобы ссылка на него находилась в нашем каталоге, свяжитесь с нами, и мы незамедлительно удалим ее. Файлы для обмена на трекере предоставлены пользователями сайта, и администрация не несет ответственности за их содержание. Просьба не заливать файлы, защищенные авторскими правами, а также файлы нелегального содержания!