[ Сегодня идет свободное скачивание без начисления Download ]


Статистика раздачи
Нет
 
   
 
Top  
 
 
-Неадекватные люди (2010) [1080p] BDRip-«Биться головой о стенку гораздо веселее, когда знаешь, что за ней скрывается родственная душа.»- Название: Неадекватные люди
Год выпуска: 2010
Страна: Россия
Производство: Cinema Prime Film
Жанр: Комедия, Мелодрама-Описание фильма:
Тихий и воспитанный Виталик пытается начать жизнь с нуля в новом городе. Но странным образом ему на пути попадаются одни сумасшедшие. Его соседкой по лестничной площадке оказывается взбалмошная Кристина, стремящаяся переделать его из задрота в нормального мужика, на новой работе атакует похотливая начальница и даже психолог, помогающий ему совладать со всем этим - и тот оказывается садо-мазохистом. Виталик кажется единственным адекватным человеком здесь. Но так ли это на самом деле?

Режиссер: Роман Каримов
Актеры и роли: Илья Любимов (Виталий), Ингрид Олеринская (Кристина), Евгений Цыганов (психолог), Юлия Такшина (Марина), Артем Душкин (Артур), Полина Иосилевич (Нина), Марина Зайцева (Юлия), Анастасия Федоркова (Света), Назар Ас-Самаррай (мужик со стульями), Анна Колобаева (ассистентка психолога)
Продолжительность: 01:46:17
Язык субтитров: Английский / English softsub (SRT)
Вид субтитров: Вшитые

Дата российской премьеры: 13 января 2011, «Парадиз»
Дата выхода DVD релиза: 10 февраля 2011, «Парадиз-ВC»
Видеокодек: MPEG-4 AVC/H.264
Битрейт видео: ~10,7 Mbps avg, 0,215 bit/pixel
Размер кадра: 1920x1080, 23,976 fps
Качество видео: BDRip
Аудиокодек: DTS
Битрейт аудио: 1152 kbps avg, 48.0 KHz, 6 channels

MediaInfo

General
Complete name : Neadekvatnie.ludi.2010.BDRip.1080p.mkv
Format : Matroska
Format version : Version 2
File size : 8.77 GiB
Duration : 1h 46mn
Overall bit rate mode : Variable
Overall bit rate : 11.8 Mbps
Movie name : Неадекватные люди
Encoded date : UTC 2011-06-16 08:18:58
Writing application : mkvmerge v2.9.7 ('Tenderness') built on Jul 1 2009 18:43:35
Writing library : libebml v0.7.7 + libmatroska v0.8.1
Video
ID : 1
Format : AVC
Format/Info : Advanced Video Codec
Format profile : [email protected]
Format settings, CABAC : Yes
Format settings, ReFrames : 4 frames
Codec ID : V_MPEG4/ISO/AVC
Duration : 1h 46mn
Bit rate mode : Variable
Bit rate : 10.7 Mbps
Maximum bit rate : 40.0 Mbps
Width : 1 920 pixels
Height : 1 080 pixels
Display aspect ratio : 16:9
Frame rate : 23.976 fps
Color space : YUV
Chroma subsampling : 4:2:0
Bit depth : 8 bits
Scan type : Progressive
Bits/(Pixel*Frame) : 0.215
Stream size : 7.74 GiB (88%)
Title : Неадекватные люди
Writing library : x264 core 112 r1867 22bfd31
Encoding settings : cabac=1 / ref=5 / deblock=1:-3:-3 / analyse=0x3:0x113 / me=umh / subme=10 / psy=1 / psy_rd=1.00:0.10 / mixed_ref=1 / me_range=32 / chroma_me=1 / trellis=2 / 8x8dct=1 / cqm=0 / deadzone=21,11 / fast_pskip=0 / chroma_qp_offset=-4 / threads=6 / sliced_threads=0 / slices=4 / nr=0 / decimate=0 / interlaced=0 / constrained_intra=0 / bframes=7 / b_pyramid=1 / b_adapt=2 / b_bias=0 / direct=1 / weightb=1 / open_gop=0 / weightp=2 / keyint=250 / keyint_min=23 / scenecut=40 / intra_refresh=0 / rc_lookahead=40 / rc=2pass / mbtree=0 / bitrate=10688 / ratetol=1.0 / qcomp=0.60 / qpmin=10 / qpmax=51 / qpstep=4 / cplxblur=20.0 / qblur=0.5 / vbv_maxrate=40000 / vbv_bufsize=30000 / nal_hrd=vbr / ip_ratio=1.40 / pb_ratio=1.30 / aq=1:0.80
Language : Russian
Audio
ID : 2
Format : DTS
Format/Info : Digital Theater Systems
Codec ID : A_DTS
Duration : 1h 46mn
Bit rate mode : Constant
Bit rate : 1 152 Kbps
Channel(s) : 6 channels
Channel positions : Front: L C R, Side: L R, LFE
Sampling rate : 48.0 KHz
Bit depth : 16 bits
Compression mode : Lossy
Stream size : 876 MiB (10%)
Title : DTS
Language : Russian
Text
ID : 3
Format : UTF-8
Codec ID : S_TEXT/UTF8
Codec ID/Info : UTF-8 Plain Text
Language : English
Menu
00:00:00.000 : en:00:00:00.000
00:05:19.569 : en:00:05:19.569
00:12:37.423 : en:00:12:37.423
00:17:41.352 : en:00:17:41.352
00:23:15.894 : en:00:23:15.894
00:27:38.240 : en:00:27:38.240
00:33:24.211 : en:00:33:24.211
00:39:25.780 : en:00:39:25.780
00:44:54.066 : en:00:44:54.066
00:50:08.631 : en:00:50:08.631
00:56:11.159 : en:00:56:11.159
01:05:01.981 : en:01:05:01.981
01:10:57.295 : en:01:10:57.295
01:15:08.421 : en:01:15:08.421
01:21:50.155 : en:01:21:50.155
01:26:24.638 : en:01:26:24.638
01:32:01.266 : en:01:32:01.266
01:35:26.721 : en:01:35:26.721
Скриншоты:

Рецензия, отзыв о фильме

Комедия? Да! Но посмеяться удастся вряд ли. Помните советскую рязановскую комедию «Гараж»? Там тоже было совсем не смешно.
На мой взгляд в картине 2 акцента: пренебрежительное отношение к профессиональным психологам, которые противопоставляются терапевтическому эффекту самой жизни, ее событийности и количественное преимущество женщин над мужчинами, а если из числа мужчин вычеркнуть еще алкоголиков, да хамов, то это неравенство становится патологическим настолько, что любой мужчина «разрывается на части». Картина мало бюджетная, но не выглядит таковой. Интересная операторская работа, акценты на деталях и мелочах, живые диалоги, известные, но талантливые актеры. Конечно, не шедевр, но времени потраченного не жалко, а это тоже дорогого стоит.
Время раздачи: 24/7 до 5 скачавших

[Цитировать]



Показать сообщения:    

Текущее время: 05-Дек 21:44

Часовой пояс: UTC + 3


Вы не можете начинать темы
Вы не можете отвечать на сообщения
Вы не можете редактировать свои сообщения
Вы не можете удалять свои сообщения
Вы не можете голосовать в опросах
Вы не можете прикреплять файлы к сообщениям
Вы не можете скачивать файлы

!ВНИМАНИЕ!
Сайт не предоставляет электронные версии произведений, а занимается лишь коллекционированием и каталогизацией ссылок, присылаемых и публикуемых на форуме нашими читателями. Если вы являетесь правообладателем какого-либо представленного материала и не желаете, чтобы ссылка на него находилась в нашем каталоге, свяжитесь с нами, и мы незамедлительно удалим ее. Файлы для обмена на трекере предоставлены пользователями сайта, и администрация не несет ответственности за их содержание. Просьба не заливать файлы, защищенные авторскими правами, а также файлы нелегального содержания!