[ Сегодня идет свободное скачивание без начисления Download ]


Статистика раздачи
Нет
 
   
 
Top  
 
 
-Неуловимые / Red Dawn (2012) HDRip
«Не отступать и не сдаваться»
-- Русское название: Неуловимые
Оригинальное название: Red Dawn
Год выпуска: 2012
Производство: США | Contrafilm, Metro-Goldwyn-Mayer (MGM)
Жанр: Боевик
Перевод: Многоголосый закадровый [BaibaKo]-Режиссер: Дэн Брэдли
Актеры: Крис Хемсворт, Джош Пек, Джош Хатчерсон, Эдрианн Палики, Изабель Лукас, Джеффри Дин Морган, Коннор Круз, Эдвин Ходж, Бретт Каллен, Алисса Диаз...
Описание фильма:
Недалекое будущее. Новый тип оружия сделал даже крупнейшие сверхдержавы беспомощными перед массированным вторжением войск противника. Теперь война пришла в каждый дом. Восемь обычных американских парней и девушек решают не сдаваться без боя. Они организовывают отряд сопротивления «Росомахи». Их миссия — создавать хаос. От их смекалки и силы духа будет зависеть, есть ли у мира шанс пережить красный рассвет Третьей Мировой Войны

Дата мировой премьеры: 27 сентября 2012
Дата российской премьеры: 14 марта 2013, «Вольга»-Продолжительность: 01:33:21
Качество видео: HDRip
Видеокодек: Xvid
Битрейт видео: ~1704 kbps
Размер кадра: 720*304
Аудиокодек: AC3 5.1
Битрейт аудио: 384 Kbps

MediaInfo:

General
Complete name                            : :\\Neulovimye.2012.P.HDRip.1400MB.avi
Format                                   : AVI
Format/Info                              : Audio Video Interleave
File size                                : 1.37 GiB
Duration                                 : 1h 33mn
Overall bit rate                         : 2 097 Kbps
Writing application                      : VirtualDubMod 1.5.10.2 (build 2540/release)
Writing library                          : VirtualDubMod build 2540/release
Video
ID                                       : 0
Format                                   : MPEG-4 Visual
Format profile                           : Advanced Simple@L5
Format settings, BVOP                    : 2
Format settings, QPel                    : No
Format settings, GMC                     : No warppoints
Format settings, Matrix                  : Default (H.263)
Codec ID                                 : XVID
Codec ID/Hint                            : XviD
Duration                                 : 1h 33mn
Bit rate                                 : 1 704 Kbps
Width                                    : 720 pixels
Height                                   : 304 pixels
Display aspect ratio                     : 2.35:1
Frame rate                               : 23.976 fps
Color space                              : YUV
Chroma subsampling                       : 4:2:0
Bit depth                                : 8 bits
Scan type                                : Progressive
Compression mode                         : Lossy
Bits/(Pixel*Frame)                       : 0.325
Stream size                              : 1.11 GiB (81%)
Writing library                          : XviD 1.2.1 (UTC 2008-12-04)
Audio
ID                                       : 1
Format                                   : AC-3
Format/Info                              : Audio Coding 3
Mode extension                           : CM (complete main)
Format settings, Endianness              : Big
Codec ID                                 : 2000
Duration                                 : 1h 33mn
Bit rate mode                            : Constant
Bit rate                                 : 384 Kbps
Channel(s)                               : 6 channels
Channel positions                        : Front: L C R, Side: L R, LFE
Sampling rate                            : 48.0 KHz
Bit depth                                : 16 bits
Compression mode                         : Lossy
Stream size                              : 256 MiB (18%)
Alignment                                : Split accross interleaves
Interleave, duration                     : 42 ms (1.00 video frame)
Interleave, preload duration             : 500 ms
Скриншоты: Время раздачи: 24/7 до первых 3-х скачавших

[Цитировать]

Топик был перенесен из форума Новинки кинопроката в форум Боевик
Bootch



Показать сообщения:    

Текущее время: 25-Мар 11:57

Часовой пояс: UTC + 6


Вы не можете начинать темы
Вы не можете отвечать на сообщения
Вы не можете редактировать свои сообщения
Вы не можете удалять свои сообщения
Вы не можете голосовать в опросах
Вы не можете прикреплять файлы к сообщениям
Вы не можете скачивать файлы

!ВНИМАНИЕ!
Сайт не предоставляет электронные версии произведений, а занимается лишь коллекционированием и каталогизацией ссылок, присылаемых и публикуемых на форуме нашими читателями. Если вы являетесь правообладателем какого-либо представленного материала и не желаете, чтобы ссылка на него находилась в нашем каталоге, свяжитесь с нами, и мы незамедлительно удалим ее. Файлы для обмена на трекере предоставлены пользователями сайта, и администрация не несет ответственности за их содержание. Просьба не заливать файлы, защищенные авторскими правами, а также файлы нелегального содержания!