[ Сегодня идет свободное скачивание без начисления Download ]


Статистика раздачи
Нет
 
   
 
Top  
 
 
-Реальные парни / Stand Up Guys (2012) DVDRip- Русское название: Реальные парни
Оригинальное название: Stand Up Guys
Год выпуска: 2012
Производство: США / Lionsgate, Sidney Kimmel Entertainment, Lakeshore Entertainment
Жанр: Драма, Комедия, Криминал
Перевод: Дублированный [Лицензия]
Дата мировой премьеры: 11 октября 2012
Дата российской премьеры: 31 января 2013, «Top Film Distribution»
Дата выхода DVD релиза: 5 марта 2013, «Lizard Cinema Trade»
Режиссер: Фишер Стивенс
Актеры: Аль Пачино, Кристофер Уокен, Алан Аркин, Джулианна Маргулис, Марк Марголис, Люси Панч, Эддисон Тимлин, Ванесса Ферлито, Кэтрин Уинник, Билли Барр
Описание фильма:
История строится вокруг двух уже немолодых преступников, один из которых получил задание убить близкого друга. Столь непростая ситуация требует времени на обдумывание, и киллеры решают вместе с приятелем изрядно побуянить (включая посещение борделя, угон машин и бегство от полиции), прежде чем будет принято окончательное решение.

Продолжительность: 01:31:05
Качество видео: DVDRip
Видеокодек: Xvid
Битрейт видео: ~941 Kbps
Размер кадра: 720 x 304
Аудиокодек: MP3, 2 канала
Битрейт аудио: 128 Kbps
Сэмпл: Скачать

MI

Общее
Полное имя : D:\Downloads\Real.5arH1.2013.D.DVDRip.700Mb.avi
Формат : AVI
Формат/Информация : Audio Video Interleave
Размер файла : 703 Мбайт
Продолжительность : 1 ч. 31 м.
Общий поток : 1080 Кбит/сек
Программа кодирования : VirtualDubMod 1.5.10.2 (build 2542/release)
Библиотека кодирования : VirtualDubMod build 2542/release
Видео
Идентификатор : 0
Формат : MPEG-4 Visual
Профиль формата : Advanced Simple@L5
Параметр BVOP формата : 2
Параметр QPel формата : Нет
Параметр GMC формата : Без точки перехода
Параметр матрицы формата : Default (MPEG)
Режим смешивания : Сжатый битовый поток
Идентификатор кодека : XVID
Идентификатор кодека/Подсказка : XviD
Продолжительность : 1 ч. 31 м.
Битрейт : 942 Кбит/сек
Ширина : 720 пикселей
Высота : 304 пикселя
Соотношение сторон : 2,35:1
Частота кадров : 25,000 кадров/сек
Цветовое пространство : YUV
Субдискретизация насыщенности : 4:2:0
Битовая глубина : 8 бит
Тип развёртки : Прогрессивная
Метод сжатия : С потерями
Бит/(Пиксели*Кадры) : 0.172
Размер потока : 614 Мбайт (87%)
Библиотека кодирования : XviD 1.2.1 (UTC 2008-12-04)
Аудио
Идентификатор : 1
Формат : MPEG Audio
Версия формата : Version 1
Профиль формата : Layer 3
Режим : Joint stereo
Расширение режима : MS Stereo
Идентификатор кодека : 55
Идентификатор кодека/Подсказка : MP3
Продолжительность : 1 ч. 31 м.
Вид битрейта : Постоянный
Битрейт : 128 Кбит/сек
Каналы : 2 канала
Частота : 48,0 КГц
Метод сжатия : С потерями
Размер потока : 83,4 Мбайт (12%)
Выравнивание : Соединение по промежуткам
Продолжительность промежутка : 40 мс. (1,00 видеокадр)
Время предзагрузки промежутка : 504 мс.
Библиотека кодирования : LAME3.99r
Настройки программы : -m j -V 4 -q 2 -lowpass 17 -b 128
Скриншоты:


Время раздачи: c 12-00 до 24-00

[Цитировать]

Топик был перенесен из форума Новинки кинопроката в форум Драма
Henkok



Показать сообщения:    

Текущее время: 11-Дек 11:08

Часовой пояс: UTC + 3


Вы не можете начинать темы
Вы не можете отвечать на сообщения
Вы не можете редактировать свои сообщения
Вы не можете удалять свои сообщения
Вы не можете голосовать в опросах
Вы не можете прикреплять файлы к сообщениям
Вы не можете скачивать файлы

!ВНИМАНИЕ!
Сайт не предоставляет электронные версии произведений, а занимается лишь коллекционированием и каталогизацией ссылок, присылаемых и публикуемых на форуме нашими читателями. Если вы являетесь правообладателем какого-либо представленного материала и не желаете, чтобы ссылка на него находилась в нашем каталоге, свяжитесь с нами, и мы незамедлительно удалим ее. Файлы для обмена на трекере предоставлены пользователями сайта, и администрация не несет ответственности за их содержание. Просьба не заливать файлы, защищенные авторскими правами, а также файлы нелегального содержания!