[ Сегодня идет свободное скачивание без начисления Download ]


Статистика раздачи
Нет
 
   
 
Top  
 
 
-Неуловимые / Red Dawn (2012) BDRip [1080p]«Не отступать и не сдаваться»- Русское название: Неуловимые
Оригинальное название: Red Dawn
Год выпуска: 2012
Производство: США / FilmDistrict , Contrafilm , Metro-Goldwyn-Mayer (MGM)
Жанр: Боевик
Перевод: Профессиональный (многоголосый, закадровый) Baibako
Озвучка: Татьяна Оболевич, Алексей Кузнецов, Артемий Мирон и Виталий Ткаченко
Субтитры: Вшитые отключаемые
Язык субтитров: Русский, Английский
Дата мировой премьеры: 27 сентября 2012
Дата российской премьеры: 14 марта 2013, «Вольга»
Режиссер: Дэн Брэдли
Продюсер: Бо Флинн, Трип Винсон, Кевин Халлоран
Актеры: Крис Хемсворт, Джош Пек, Джош Хатчерсон, Эдрианн Палики, Изабель Лукас, Джеффри Дин Морган, Коннор Круз, Эдвин Ходж, Бретт Каллен, Алисса Диаз
Описание фильма:
Недалекое будущее. Новый тип оружия сделал даже крупнейшие сверхдержавы беспомощными перед массированным вторжением войск противника. Теперь война пришла в каждый дом. Восемь обычных американских парней и девушек решают не сдаваться без боя. Они организовывают отряд сопротивления «Росомахи». Их миссия — создавать хаос. От их смекалки и силы духа будет зависеть, есть ли у мира шанс пережить красный рассвет Третьей Мировой Войны

рейтинг RG-13 - детям до 13 лет просмотр не желателен
Возраст 16+ -зрителям, достигшим 16 лет
Продолжительность: 01:33:21
Качество видео: BDRip
Видеокодек: MPEG-4 AVC/H.264
Битрейт видео: ~13,2 Мбит/сек
Размер кадра: 1920 x 800
Aудио #1: Русский AC3, 5.1 ch, 384 Кбит/сек Профессиональный (Многоголосый закадровый, Baibako)
Aудио #2: Английский DTS, 5.1 ch, 1510 Кбит/сек
Сэмпл: Скачать

MediaInfo

Формат : Matroska
Версия формата : Version 2
Размер файла : 10,0 Гбайт
Продолжительность : 1 ч. 33 м.
Общий поток : 15,4 Мбит/сек
Дата кодирования : UTC 2013-03-06 03:00:59
Программа кодирования : mkvmerge v5.6.0 ('Kenya Kane') built on May 27 2012 16:44:04
Библиотека кодирования : libebml v1.2.3 + libmatroska v1.3.0
Видео
Идентификатор : 1
Формат : AVC
Формат/Информация : Advanced Video Codec
Профиль формата : [email protected]
Параметр CABAC формата : Да
Параметр ReFrames формата : 5 кадров
Идентификатор кодека : V_MPEG4/ISO/AVC
Продолжительность : 1 ч. 33 м.
Битрейт : 13,2 Мбит/сек
Номинальный битрейт : 14,0 Мбит/сек
Ширина : 1920 пикселей
Высота : 800 пикселей
Соотношение сторон : 2,40:1
Режим частоты кадров : Постоянный
Частота кадров : 23,976 кадра/сек
Цветовое пространство : YUV
Субдискретизация насыщенности : 4:2:0
Битовая глубина : 8 бит
Тип развёртки : Прогрессивная
Бит/(Пиксели*Кадры) : 0.357
Размер потока : 8,58 Гбайт (86%)
Библиотека кодирования : x264 core 129 r2230 1cffe9f
Настройки программы : cabac=1 / ref=5 / deblock=1:-3:-3 / analyse=0x3:0x113 / me=umh / subme=8 / psy=1 / psy_rd=1.00:0.00 / mixed_ref=1 / me_range=16 / chroma_me=1 / trellis=1 / 8x8dct=1 / cqm=0 / deadzone=21,11 / fast_pskip=1 / chroma_qp_offset=-2 / threads=16 / lookahead_threads=2 / sliced_threads=0 / nr=0 / decimate=1 / interlaced=0 / bluray_compat=0 / constrained_intra=0 / bframes=3 / b_pyramid=2 / b_adapt=1 / b_bias=0 / direct=3 / weightb=1 / open_gop=0 / weightp=2 / keyint=240 / keyint_min=23 / scenecut=40 / intra_refresh=0 / rc_lookahead=50 / rc=abr / mbtree=1 / bitrate=14000 / ratetol=1.0 / qcomp=0.60 / qpmin=0 / qpmax=69 / qpstep=4 / ip_ratio=1.40 / aq=1:1.00
Язык : English
Default : Да
Forced : Нет
Аудио #1
Идентификатор : 2
Формат : AC-3
Формат/Информация : Audio Coding 3
Расширение режима : CM (complete main)
Параметр Endianness формата : Big
Идентификатор кодека : A_AC3
Продолжительность : 1 ч. 33 м.
Вид битрейта : Постоянный
Битрейт : 384 Кбит/сек
Каналы : 6 каналов
Расположение каналов : Front: L C R, Side: L R, LFE
Частота : 48,0 КГц
Битовая глубина : 16 бит
Метод сжатия : С потерями
Размер потока : 256 Мбайт (3%)
Язык : Russian
Default : Да
Forced : Нет
Аудио #2
Идентификатор : 3
Формат : DTS
Формат/Информация : Digital Theater Systems
Режим : 16
Параметр Endianness формата : Big
Идентификатор кодека : A_DTS
Продолжительность : 1 ч. 33 м.
Вид битрейта : Постоянный
Битрейт : 1509 Кбит/сек
Каналы : 6 каналов
Расположение каналов : Front: L C R, Side: L R, LFE
Частота : 48,0 КГц
Битовая глубина : 24 бит
Метод сжатия : С потерями
Размер потока : 1008 Мбайт (10%)
Язык : English
Default : Нет
Forced : Нет
Текст #1
Идентификатор : 4
Формат : UTF-8
Идентификатор кодека : S_TEXT/UTF8
Идентификатор кодека/Информация : UTF-8 Plain Text
Язык : Russian
Default : Нет
Forced : Нет
Текст #2
Идентификатор : 5
Формат : UTF-8
Идентификатор кодека : S_TEXT/UTF8
Идентификатор кодека/Информация : UTF-8 Plain Text
Язык : English
Default : Нет
Forced : Нет
Меню
00:00:00.000 : en:00:00:00.000
00:02:54.383 : en:00:02:54.383
00:05:01.384 : en:00:05:01.384
00:07:54.474 : en:00:07:54.474
00:10:24.833 : en:00:10:24.833
00:16:08.217 : en:00:16:08.217
00:18:55.551 : en:00:18:55.551
00:21:32.583 : en:00:21:32.583
00:23:02.798 : en:00:23:02.798
00:27:06.667 : en:00:27:06.667
00:31:16.833 : en:00:31:16.833
00:36:29.396 : en:00:36:29.396
00:41:27.985 : en:00:41:27.985
00:43:40.743 : en:00:43:40.743
00:50:37.618 : en:00:50:37.618
00:53:56.442 : en:00:53:56.442
00:57:04.171 : en:00:57:04.171
00:59:06.918 : en:00:59:06.918
01:03:11.454 : en:01:03:11.454
01:07:17.075 : en:01:07:17.075
01:09:55.858 : en:01:09:55.858
01:11:51.098 : en:01:11:51.098
01:15:40.911 : en:01:15:40.911
01:18:19.904 : en:01:18:19.904
01:20:55.809 : en:01:20:55.809
01:22:55.262 : en:01:22:55.262
01:25:58.695 : en:01:25:58.695
01:28:26.301 : en:01:28:26.301

Знаете ли вы, что...

Производство фильма было завершено в 2009 году. Релиз был намечен на 24 ноября 2010 года, но из-за финансовых трудностей MGM фильм «лёг на полку». Еще одной причиной послужила роль Криса Хемсворта в фильме «Мстители» (2012), студия решила, что кассовые сборы фильма «Неуловимые» (2012) будут лучше за счет известности, которую приобретет актер после «Мстителей».
Изначально роль захватчиков в фильме была отведена китайцам. За время пост-продакшена они были заменены на северных корейцев, чтобы получить возможность проката картины в Китае.
Крис Хемсворт и Изабель Лукас оба снимались в сериале «Домой и в путь» (1988) и состояли в отношениях в реальной жизни.
Когда Роберт Китнер (Джош Хатчерсон) стреляет из пулемета на крыше, камера показывает, что у него остается всего 5 патронов в ленте, но он совершает еще около 40 выстрелов.
Скриншоты:


Время раздачи: Круглосуточно 24/7 (до первых 10 скачавших)

[Цитировать]

Топик был перенесен из форума Новинки кинопроката (HD Video) в форум Зарубежное кино (HD Video)
Bootch



Показать сообщения:    

Текущее время: 05-Дек 19:32

Часовой пояс: UTC + 3


Вы не можете начинать темы
Вы не можете отвечать на сообщения
Вы не можете редактировать свои сообщения
Вы не можете удалять свои сообщения
Вы не можете голосовать в опросах
Вы не можете прикреплять файлы к сообщениям
Вы не можете скачивать файлы

!ВНИМАНИЕ!
Сайт не предоставляет электронные версии произведений, а занимается лишь коллекционированием и каталогизацией ссылок, присылаемых и публикуемых на форуме нашими читателями. Если вы являетесь правообладателем какого-либо представленного материала и не желаете, чтобы ссылка на него находилась в нашем каталоге, свяжитесь с нами, и мы незамедлительно удалим ее. Файлы для обмена на трекере предоставлены пользователями сайта, и администрация не несет ответственности за их содержание. Просьба не заливать файлы, защищенные авторскими правами, а также файлы нелегального содержания!