[ Сегодня идет свободное скачивание без начисления Download ]


Статистика раздачи
Нет
 
   
 
Top  
 
 
-Фрэнки наводит шорох / Frankie Go Boom (2012) BDRip
«A comedy about two brothers, a girl with a broken heart, a sex tape, an angel and a pig...»
- Русское название: Фрэнки наводит шорох
Оригинальное название: Frankie Go Boom
Год выпуска: 2012
Производство: США | Ministry of Content
Жанр: Комедия
Перевод: Многоголосый закадровый [BaibaKo] + одноголосый закадровый [den904]
Язык субтитров: Английский
Вид субтитров: Вшитые отключаемые
Внимание! Присутствует ненормативная лексика. [BaibaKo]-Дата мировой премьеры: 10 марта 2012-Режиссер: Джордан Робертс-Продюсеры: Павлина Хатупис, Марсель Лангенеггер, Катаюн А. Марсиано-Актеры: Чарли Ханнэм, Крис О’Дауд, Лиззи Каплан, Крис Нот, Рон Перлман, Нора Данн, Сэм Андерсон, Кейт Лайбен, Уитни Каммингс, Оливер Хэм Остин ...-Описание фильма:
Франк Бартлетт долгое время подвергался пыткам, издевкам, и оскорблениям от своего брата-наркомана Брюса — и, как правило, все это Брюс записывал на камеру. Теперь, когда Брюс, наконец, завязал с наркотиками и изменил свою жизнь, все должно пойти к лучшему, но…-
Продолжительность: 01:29:01
Качество видео: BDRip 1080p [PFa]
Видеокодек: MPEG-4 AVC/H.264
Битрейт видео: ~9024 Кбит/сек
Размер кадра: 1920 x 800 (2.400) at 23.976 fps
Аудиокодек: AC3 5.1 | DTS
Аудио #1: AC3 384 Кбит/сек (6ch), 48,0 КГц, 16 бит [Русский, MVO - BaibaKo]
Аудио #2: AC3 448 Кбит/сек (6ch), 48,0 КГц, 16 бит [Русский, VO - den904]
Аудио #3: DTS 1510 Кбит/сек (6ch), 48,0 КГц, 24 бит [Английский]
Релиз :

Трейлер / Ролик

[youtube]http://www.youtube.com/v/MvqYRdwYdyQ&fs=1[/youtube]

MediaInfo:

Полное имя                               : E:\Fryenki.navodit.shoroh.2012.BDRip.1080p.NNM-CLUB.mkv
Формат                                   : Matroska
Версия формата                           : Version 2
Размер файла                             : 7,07 Гбайт
Продолжительность                        : 1 ч. 29 м.
Общий поток                              : 11,4 Мбит/сек
Дата кодирования                         : UTC 2013-03-07 00:23:24
Программа кодирования                    : mkvmerge v2.9.9 ('Tutu') built on Nov 25 2009 21:13:32
Библиотека кодирования                   : libebml v0.7.9 + libmatroska v0.8.1
Видео
Идентификатор                            : 1
Формат                                   : AVC
Формат/Информация                        : Advanced Video Codec
Профиль формата                          : [url=mailto:High@L4.1]High@L4.1[/url]
Параметр CABAC формата                   : Да
Параметр ReFrames формата                : 5 кадров
Идентификатор кодека                     : V_MPEG4/ISO/AVC
Продолжительность                        : 1 ч. 29 м.
Битрейт                                  : 9024 Кбит/сек
Ширина                                   : 1920 пикселей
Высота                                   : 800 пикселей
Соотношение сторон                       : 2,40:1
Режим частоты кадров                     : Постоянный
Частота кадров                           : 23,976 кадра/сек
Цветовое пространство                    : YUV
Субдискретизация насыщенности            : 4:2:0
Битовая глубина                          : 8 бит
Тип развёртки                            : Прогрессивная
Бит/(Пиксели*Кадры)                      : 0.245
Размер потока                            : 5,47 Гбайт (77%)
Заголовок                                : Fryenki navodit shoroh.2012.BDRip 1080p
Библиотека кодирования                   : x264 core 129 r2230 1cffe9f
Настройки программы                      : cabac=1 / ref=5 / deblock=1:0:0 / analyse=0x3:0x133 / me=umh / subme=8 / psy=1 / psy_rd=1.00:0.00 / mixed_ref=1 / me_range=16 / chroma_me=1 / trellis=1 / 8x8dct=1 / cqm=0 / deadzone=21,11 / fast_pskip=0 / chroma_qp_offset=-2 / threads=12 / lookahead_threads=2 / sliced_threads=0 / nr=0 / decimate=1 / interlaced=0 / bluray_compat=0 / constrained_intra=0 / bframes=3 / b_pyramid=2 / b_adapt=1 / b_bias=0 / direct=1 / weightb=1 / open_gop=0 / weightp=2 / keyint=250 / keyint_min=23 / scenecut=40 / intra_refresh=0 / rc_lookahead=40 / rc=2pass / mbtree=1 / bitrate=9024 / ratetol=1.0 / qcomp=0.60 / qpmin=0 / qpmax=69 / qpstep=4 / cplxblur=20.0 / qblur=0.5 / ip_ratio=1.40 / aq=1:1.00
Язык                                     : English
Default                                  : Нет
Forced                                   : Нет
Аудио #1
Идентификатор                            : 2
Формат                                   : AC-3
Формат/Информация                        : Audio Coding 3
Расширение режима                        : CM (complete main)
Параметр Endianness формата              : Big
Идентификатор кодека                     : A_AC3
Продолжительность                        : 1 ч. 29 м.
Вид битрейта                             : Постоянный
Битрейт                                  : 384 Кбит/сек
Каналы                                   : 6 каналов
Расположение каналов                     : Front: L C R, Side: L R, LFE
Частота                                  : 48,0 КГц
Битовая глубина                          : 16 бит
Метод сжатия                             : С потерями
Размер потока                            : 245 Мбайт (3%)
Заголовок                                : AC3.384.Kbps (6ch) Russian [BaibaKo]
Язык                                     : Russian
Default                                  : Да
Forced                                   : Нет
Аудио #2
Идентификатор                            : 3
Формат                                   : AC-3
Формат/Информация                        : Audio Coding 3
Расширение режима                        : CM (complete main)
Параметр Endianness формата              : Big
Идентификатор кодека                     : A_AC3
Продолжительность                        : 1 ч. 29 м.
Вид битрейта                             : Постоянный
Битрейт                                  : 448 Кбит/сек
Каналы                                   : 6 каналов
Расположение каналов                     : Front: L C R, Side: L R, LFE
Частота                                  : 48,0 КГц
Битовая глубина                          : 16 бит
Метод сжатия                             : С потерями
Размер потока                            : 285 Мбайт (4%)
Заголовок                                : AC3.448.Kbps (6ch) Russian [den904]
Язык                                     : Russian
Default                                  : Нет
Forced                                   : Нет
Аудио #3
Идентификатор                            : 4
Формат                                   : DTS
Формат/Информация                        : Digital Theater Systems
Идентификатор кодека                     : A_DTS
Продолжительность                        : 1 ч. 29 м.
Вид битрейта                             : Постоянный
Битрейт                                  : 1510 Кбит/сек
Каналы                                   : 6 каналов
Расположение каналов                     : Front: L C R, Side: L R, LFE
Частота                                  : 48,0 КГц
Битовая глубина                          : 24 бит
Метод сжатия                             : С потерями
Задержка видео                           : 11 мс.
Размер потока                            : 961 Мбайт (13%)
Заголовок                                : DTS.1510.Kbps (6ch) English
Язык                                     : English
Default                                  : Нет
Forced                                   : Нет
Текст
Идентификатор                            : 5
Формат                                   : UTF-8
Идентификатор кодека                     : S_TEXT/UTF8
Идентификатор кодека/Информация          : UTF-8 Plain Text
Заголовок                                : English (Full)
Язык                                     : English
Default                                  : Нет
Forced                                   : Нет
Скриншоты:




[Цитировать]



Показать сообщения:    

Текущее время: 22-Янв 23:31

Часовой пояс: UTC + 3


Вы не можете начинать темы
Вы не можете отвечать на сообщения
Вы не можете редактировать свои сообщения
Вы не можете удалять свои сообщения
Вы не можете голосовать в опросах
Вы не можете прикреплять файлы к сообщениям
Вы не можете скачивать файлы

!ВНИМАНИЕ!
Сайт не предоставляет электронные версии произведений, а занимается лишь коллекционированием и каталогизацией ссылок, присылаемых и публикуемых на форуме нашими читателями. Если вы являетесь правообладателем какого-либо представленного материала и не желаете, чтобы ссылка на него находилась в нашем каталоге, свяжитесь с нами, и мы незамедлительно удалим ее. Файлы для обмена на трекере предоставлены пользователями сайта, и администрация не несет ответственности за их содержание. Просьба не заливать файлы, защищенные авторскими правами, а также файлы нелегального содержания!