[ Сегодня идет свободное скачивание без начисления Download ]


Статистика раздачи
Нет
 
   
 
 
 
Приключения в Изумрудном Городе (1999-2000) DVD9- Русское название: Приключения в Изумрудном Городе
Дата премьеры/период выхода: 1999-2000
Дата выхода DVD релиза: 2000 год, компания "Пирамида"
Жанр: Рисованная анимация, Детский, Сказка
Производство: "НТВ-КИНО", "Мельница", Кинокомпания СТВ
Вид субтитров: Вшитые отключаемые
Язык субтитров: Английские
Режиссеры: Александр Макаров, Илья Максимов, Денис Чернов
Персонажи: Долли - Татьяна Михалевкина, Тотошка - Эра Зиганшина, Железный Дровосек - Вадим Гущин, Трусливый Лев - Михаил Боярский, Страшила - Гелий Сысоев и другие...
Описание фильма:
Однажды домик маленькой девочки Долли, жившей в Канзасе, унёс страшный ураган. Когда девочка и её пёсик Тотошка проснулись и вышли из дома, то увидели, что попали в Волшебную Страну Жевунов.
Добрая волшебница объяснила Долли, что её домик раздавил злую колдунью Гингему, и теперь для того, чтобы Долли смогла вернутся домой, она должна пойти в Изумрудный город, и попросить Гудвина, Великого и Ужасного, правителя города, помочь ей вернуться.
По пути девочка знакомится с новыми друзьями: Страшилой, Железным дровосеком и Трусливым Львом, которые решаются помочь ей прибыть в город. В дороге их ожидала масса опасностей: кровожадные Зубарсы, поле с маками, и другие неприятности. Однако девочка всё же достигает поставленной цели и попадает в Изумрудный город. Но… На этом приключения не закончились.
Продолжительность: 02:00:05
Качество видео: DVD9
Сэмпл: Скачать

Видеокодек: MPEG-2
Битрейт видео: ~ 7596.73 kbps
Размер кадра: PAL 4:3 (720x576)
Битрейт аудио: Russian (Dolby AC3, 2 ch, 192 kbps)

Дополнительная информация:

Награды
Международный фестиваль детского анимационного кино «Золотая Рыбка»
Москва, 2000 год диплом и специальный приз за лучший телевизионный сериал
VII-й Международный детский кинофестиваль «Артек»
2000 год диплом за наилучшее прочтение классики
Особенности DVD
Анимированное меню
Моментальный доступ к любой сцене фильма
Рекламные ролики к фильму
Невошедшая сцена
Рассказ о сьемках
Озвучание мультфильма
Фотогалерея

Список серий

1. Серебряные туфельки
2. Тайна Великого Волшебника
3. Козни старой Момби
4. Принцесса Озма

MediaInfo

Общее
Полное имя : D:\ДВД\Фильмы\Приключения в изумрудном городе\VIDEO_TS\VIDEO_TS.BUP
Формат : DVD Video
Профиль формата : Menu
Размер файла : 20,0 Кбайт
Режим общего битрейта : Переменный
Видео
Идентификатор : 224 (0xE0)
Формат : MPEG Video
Версия формата : Version 2
Вид битрейта : Переменный
Ширина : 720 пикселей
Высота : 576 пикселей
Соотношение сторон : 4:3
Частота кадров : 25,000 кадров/сек
Стандарт вещания : PAL
Метод сжатия : С потерями
Аудио
Формат : AC-3
Формат/Информация : Audio Coding 3
Каналы : 6 каналов
Частота : 48,0 КГц
Метод сжатия : С потерями
Текст
Формат : RLE
Формат/Информация : Run-length encoding
Битовая глубина : 2 бит
Общее
Полное имя : D:\ДВД\Фильмы\Приключения в изумрудном городе\VIDEO_TS\VIDEO_TS.IFO
Формат : DVD Video
Профиль формата : Menu
Размер файла : 20,0 Кбайт
Режим общего битрейта : Переменный
Видео
Идентификатор : 224 (0xE0)
Формат : MPEG Video
Версия формата : Version 2
Вид битрейта : Переменный
Ширина : 720 пикселей
Высота : 576 пикселей
Соотношение сторон : 4:3
Частота кадров : 25,000 кадров/сек
Стандарт вещания : PAL
Метод сжатия : С потерями
Аудио
Формат : AC-3
Формат/Информация : Audio Coding 3
Каналы : 6 каналов
Частота : 48,0 КГц
Метод сжатия : С потерями
Текст
Формат : RLE
Формат/Информация : Run-length encoding
Битовая глубина : 2 бит
Общее
Полное имя : D:\ДВД\Фильмы\Приключения в изумрудном городе\VIDEO_TS\VIDEO_TS.VOB
Формат : MPEG-PS
Размер файла : 35,6 Мбайт
Продолжительность : 30 с.
Общий поток : 9743 Кбит/сек
Видео
Идентификатор : 224 (0xE0)
Формат : MPEG Video
Версия формата : Version 2
Профиль формата : Main@Main
Параметр BVOP формата : Да
Параметр матрицы формата : По умолчанию
Параметр GOP формата : Variable
Продолжительность : 78 мс.
Битрейт : 9101 Кбит/сек
Максимальный битрейт : 9000 Кбит/сек
Ширина : 720 пикселей
Высота : 576 пикселей
Соотношение сторон : 4:3
Частота кадров : 25,000 кадров/сек
Стандарт вещания : PAL
Цветовое пространство : YUV
Субдискретизация насыщенности : 4:2:0
Битовая глубина : 8 бит
Тип развёртки : Чересстрочная
Порядок развёртки : Верхнее поле первое
Метод сжатия : С потерями
Бит/(Пиксели*Кадры) : 0.878
Размер потока : 88,9 Кбайт (0%)
Основные цвета : BT.601 PAL
Характеристики трансфера : BT.470 System B, BT.470 System G
Коэффициенты матрицы : BT.601
Аудио
Идентификатор : 189 (0xBD)-128 (0x80)
Формат : AC-3
Формат/Информация : Audio Coding 3
Расширение режима : CM (complete main)
Параметр Endianness формата : Big
Режим смешивания : DVD-Video
Продолжительность : 30 с.
Вид битрейта : Постоянный
Битрейт : 448 Кбит/сек
Каналы : 6 каналов
Расположение каналов : Front: L C R, Side: L R, LFE
Частота : 48,0 КГц
Битовая глубина : 16 бит
Метод сжатия : С потерями
Размер потока : 1,64 Мбайт (5%)
Текст
Идентификатор : 189 (0xBD)-32 (0x20)
Формат : RLE
Формат/Информация : Run-length encoding
Режим смешивания : DVD-Video
Меню
Общее
Полное имя : D:\ДВД\Фильмы\Приключения в изумрудном городе\VIDEO_TS\VTS_01_0.BUP
Формат : DVD Video
Профиль формата : Program
Размер файла : 104 Кбайт
Продолжительность : 26 м.
Режим общего битрейта : Переменный
Общий поток : 546 бит/сек
Видео
Идентификатор : 224 (0xE0)
Формат : MPEG Video
Версия формата : Version 2
Продолжительность : 26 м.
Вид битрейта : Переменный
Ширина : 720 пикселей
Высота : 576 пикселей
Соотношение сторон : 4:3
Частота кадров : 25,000 кадров/сек
Стандарт вещания : PAL
Метод сжатия : С потерями
Аудио
Идентификатор : 128 (0x80)
Формат : AC-3
Формат/Информация : Audio Coding 3
Продолжительность : 26 м.
Каналы : 2 канала
Частота : 48,0 КГц
Метод сжатия : С потерями
Язык : Russian
Текст
Идентификатор : 32 (0x20)
Формат : RLE
Формат/Информация : Run-length encoding
Битовая глубина : 2 бит
Язык : English
Меню #1
Продолжительность : 3 м. 5 с.
00:00:00.000 : Chapter 1
00:00:46.800 : Chapter 2
00:01:32.560 : Chapter 3
00:02:18.840 : Chapter 4
00:03:05.120 : Chapter 5
List (Audio) : 0
List (Subtitles 4/3) : 0
List (Subtitles Wide) : 0
List (Subtitles Letterbox) : 0
List (Subtitles Pan&Scan) : 0
Меню #2
Продолжительность : 26 м.
00:00:00.000 : Chapter 1
00:00:10.000 : Chapter 2
00:00:18.200 : Chapter 3
00:00:27.200 : Chapter 4
00:00:39.200 : Chapter 5
List (Audio) : 0
List (Subtitles 4/3) : 0
List (Subtitles Wide) : 0
List (Subtitles Letterbox) : 0
List (Subtitles Pan&Scan) : 0
Общее
Полное имя : D:\ДВД\Фильмы\Приключения в изумрудном городе\VIDEO_TS\VTS_01_0.IFO
Формат : DVD Video
Профиль формата : Program
Размер файла : 104 Кбайт
Продолжительность : 26 м.
Режим общего битрейта : Переменный
Общий поток : 546 бит/сек
Видео
Идентификатор : 224 (0xE0)
Формат : MPEG Video
Версия формата : Version 2
Продолжительность : 26 м.
Вид битрейта : Переменный
Ширина : 720 пикселей
Высота : 576 пикселей
Соотношение сторон : 4:3
Частота кадров : 25,000 кадров/сек
Стандарт вещания : PAL
Метод сжатия : С потерями
Аудио
Идентификатор : 128 (0x80)
Формат : AC-3
Формат/Информация : Audio Coding 3
Продолжительность : 26 м.
Каналы : 2 канала
Частота : 48,0 КГц
Метод сжатия : С потерями
Язык : Russian
Текст
Идентификатор : 32 (0x20)
Формат : RLE
Формат/Информация : Run-length encoding
Битовая глубина : 2 бит
Язык : English
Меню #1
Продолжительность : 3 м. 5 с.
00:00:00.000 : Chapter 1
00:00:46.800 : Chapter 2
00:01:32.560 : Chapter 3
00:02:18.840 : Chapter 4
00:03:05.120 : Chapter 5
List (Audio) : 0
List (Subtitles 4/3) : 0
List (Subtitles Wide) : 0
List (Subtitles Letterbox) : 0
List (Subtitles Pan&Scan) : 0
Меню #2
Продолжительность : 26 м.
00:00:00.000 : Chapter 1
00:00:10.000 : Chapter 2
00:00:18.200 : Chapter 3
00:00:27.200 : Chapter 4
00:00:39.200 : Chapter 5
List (Audio) : 0
List (Subtitles 4/3) : 0
List (Subtitles Wide) : 0
List (Subtitles Letterbox) : 0
List (Subtitles Pan&Scan) : 0
Общее
Полное имя : D:\ДВД\Фильмы\Приключения в изумрудном городе\VIDEO_TS\VTS_01_0.VOB
Формат : MPEG-PS
Размер файла : 116 Мбайт
Продолжительность : 22 с.
Общий поток : 43,5 Мбит/сек
Видео
Идентификатор : 224 (0xE0)
Формат : MPEG Video
Версия формата : Version 2
Профиль формата : Main@Main
Параметр BVOP формата : Нет
Параметр матрицы формата : Выборочная
Параметр GOP формата : Variable
Продолжительность : 194 мс.
Битрейт : 42,2 Мбит/сек
Максимальный битрейт : 9000 Кбит/сек
Ширина : 720 пикселей
Высота : 576 пикселей
Соотношение сторон : 4:3
Частота кадров : 25,000 кадров/сек
Стандарт вещания : PAL
Цветовое пространство : YUV
Субдискретизация насыщенности : 4:2:0
Битовая глубина : 8 бит
Тип развёртки : Прогрессивная
Порядок развёртки : Верхнее поле первое
Метод сжатия : С потерями
Бит/(Пиксели*Кадры) : 4.072
Размер потока : 1,01 Мбайт (1%)
Основные цвета : BT.601 NTSC
Характеристики трансфера : BT.601
Коэффициенты матрицы : BT.601
Аудио
Идентификатор : 189 (0xBD)-128 (0x80)
Формат : AC-3
Формат/Информация : Audio Coding 3
Расширение режима : CM (complete main)
Параметр Endianness формата : Big
Режим смешивания : DVD-Video
Продолжительность : 22 с.
Вид битрейта : Постоянный
Битрейт : 384 Кбит/сек
Каналы : 6 каналов
Расположение каналов : Front: L C R, Side: L R, LFE
Частота : 48,0 КГц
Битовая глубина : 16 бит
Метод сжатия : С потерями
Задержка видео : 142 мс.
Размер потока : 1,02 Мбайт (1%)
Текст
Идентификатор : 189 (0xBD)-32 (0x20)
Формат : RLE
Формат/Информация : Run-length encoding
Режим смешивания : DVD-Video
Продолжительность : 143 мс.
Меню
Общее
Полное имя : D:\ДВД\Фильмы\Приключения в изумрудном городе\VIDEO_TS\VTS_01_1.VOB
Формат : MPEG-PS
Размер файла : 1024 Мбайт
Продолжительность : 16 м.
Режим общего битрейта : Переменный
Общий поток : 8637 Кбит/сек
Видео
Идентификатор : 224 (0xE0)
Формат : MPEG Video
Версия формата : Version 2
Профиль формата : Main@Main
Параметр BVOP формата : Да
Параметр матрицы формата : По умолчанию
Параметр GOP формата : Variable
Продолжительность : 16 м.
Вид битрейта : Переменный
Битрейт : 8273 Кбит/сек
Максимальный битрейт : 8900 Кбит/сек
Ширина : 720 пикселей
Высота : 576 пикселей
Соотношение сторон : 4:3
Частота кадров : 25,000 кадров/сек
Стандарт вещания : PAL
Цветовое пространство : YUV
Субдискретизация насыщенности : 4:2:0
Битовая глубина : 8 бит
Тип развёртки : Чересстрочная
Порядок развёртки : Верхнее поле первое
Метод сжатия : С потерями
Бит/(Пиксели*Кадры) : 0.798
Размер потока : 981 Мбайт (96%)
Основные цвета : BT.601 PAL
Характеристики трансфера : BT.470 System B, BT.470 System G
Коэффициенты матрицы : BT.601
Аудио
Идентификатор : 189 (0xBD)-128 (0x80)
Формат : AC-3
Формат/Информация : Audio Coding 3
Расширение режима : CM (complete main)
Параметр Endianness формата : Big
Режим смешивания : DVD-Video
Продолжительность : 16 м.
Вид битрейта : Постоянный
Битрейт : 192 Кбит/сек
Каналы : 2 канала
Расположение каналов : Front: L R
Частота : 48,0 КГц
Битовая глубина : 16 бит
Метод сжатия : С потерями
Задержка видео : 16 мс.
Размер потока : 22,8 Мбайт (2%)
Текст
Идентификатор : 189 (0xBD)-32 (0x20)
Формат : RLE
Формат/Информация : Run-length encoding
Режим смешивания : DVD-Video
Меню
Общее
Полное имя : D:\ДВД\Фильмы\Приключения в изумрудном городе\VIDEO_TS\VTS_01_2.VOB
Формат : MPEG-PS
Размер файла : 1024 Мбайт
Продолжительность : 1 ч. 53 м.
Режим общего битрейта : Переменный
Общий поток : 1262 Кбит/сек
Видео
Идентификатор : 224 (0xE0)
Формат : MPEG Video
Версия формата : Version 2
Профиль формата : Main@Main
Параметр BVOP формата : Да
Параметр матрицы формата : По умолчанию
Параметр GOP формата : M=5, N=26
Продолжительность : 1 ч. 53 м.
Вид битрейта : Переменный
Битрейт : 853 Кбит/сек
Максимальный битрейт : 8900 Кбит/сек
Ширина : 720 пикселей
Высота : 576 пикселей
Соотношение сторон : 4:3
Частота кадров : 25,000 кадров/сек
Стандарт вещания : PAL
Цветовое пространство : YUV
Субдискретизация насыщенности : 4:2:0
Битовая глубина : 8 бит
Тип развёртки : Чересстрочная
Порядок развёртки : Верхнее поле первое
Метод сжатия : С потерями
Бит/(Пиксели*Кадры) : 0.082
Размер потока : 692 Мбайт (68%)
Основные цвета : BT.601 PAL
Характеристики трансфера : BT.470 System B, BT.470 System G
Коэффициенты матрицы : BT.601
Аудио
Идентификатор : 189 (0xBD)-128 (0x80)
Формат : AC-3
Формат/Информация : Audio Coding 3
Расширение режима : CM (complete main)
Параметр Endianness формата : Big
Режим смешивания : DVD-Video
Продолжительность : 1 ч. 53 м.
Вид битрейта : Постоянный
Битрейт : 384 Кбит/сек
Каналы : 6 каналов
Расположение каналов : Front: L C R, Side: L R, LFE
Частота : 48,0 КГц
Битовая глубина : 16 бит
Метод сжатия : С потерями
Задержка видео : -368 мс.
Размер потока : 312 Мбайт (30%)
Текст
Идентификатор : 189 (0xBD)-32 (0x20)
Формат : RLE
Формат/Информация : Run-length encoding
Режим смешивания : DVD-Video
Задержка видео : 4 с. 40 мс.
Меню
Общее
Полное имя : D:\ДВД\Фильмы\Приключения в изумрудном городе\VIDEO_TS\VTS_01_3.VOB
Формат : MPEG-PS
Размер файла : 1024 Мбайт
Режим общего битрейта : Переменный
Видео
Идентификатор : 224 (0xE0)
Формат : MPEG Video
Версия формата : Version 2
Профиль формата : Main@Main
Параметр BVOP формата : Да
Параметр матрицы формата : По умолчанию
Параметр GOP формата : M=5, N=26
Вид битрейта : Переменный
Максимальный битрейт : 8900 Кбит/сек
Ширина : 720 пикселей
Высота : 576 пикселей
Соотношение сторон : 4:3
Частота кадров : 25,000 кадров/сек
Стандарт вещания : PAL
Цветовое пространство : YUV
Субдискретизация насыщенности : 4:2:0
Битовая глубина : 8 бит
Тип развёртки : Чересстрочная
Порядок развёртки : Верхнее поле первое
Метод сжатия : С потерями
Основные цвета : BT.601 PAL
Характеристики трансфера : BT.470 System B, BT.470 System G
Коэффициенты матрицы : BT.601
Аудио
Идентификатор : 189 (0xBD)-128 (0x80)
Формат : AC-3
Формат/Информация : Audio Coding 3
Расширение режима : CM (complete main)
Параметр Endianness формата : Big
Режим смешивания : DVD-Video
Вид битрейта : Постоянный
Битрейт : 384 Кбит/сек
Каналы : 6 каналов
Расположение каналов : Front: L C R, Side: L R, LFE
Частота : 48,0 КГц
Битовая глубина : 16 бит
Метод сжатия : С потерями
Задержка видео : -248 мс.
Текст
Идентификатор : 189 (0xBD)-32 (0x20)
Формат : RLE
Формат/Информация : Run-length encoding
Режим смешивания : DVD-Video
Задержка видео : 3 с. 680 мс.
Меню
Общее
Полное имя : D:\ДВД\Фильмы\Приключения в изумрудном городе\VIDEO_TS\VTS_01_4.VOB
Формат : MPEG-PS
Размер файла : 1024 Мбайт
Продолжительность : 9 м. 58 с.
Режим общего битрейта : Переменный
Общий поток : 14,4 Мбит/сек
Видео
Идентификатор : 224 (0xE0)
Формат : MPEG Video
Версия формата : Version 2
Профиль формата : Main@Main
Параметр BVOP формата : Да
Параметр матрицы формата : По умолчанию
Параметр GOP формата : M=5, N=26
Продолжительность : 9 м. 57 с.
Вид битрейта : Переменный
Битрейт : 13,7 Мбит/сек
Максимальный битрейт : 8900 Кбит/сек
Ширина : 720 пикселей
Высота : 576 пикселей
Соотношение сторон : 4:3
Частота кадров : 25,000 кадров/сек
Стандарт вещания : PAL
Цветовое пространство : YUV
Субдискретизация насыщенности : 4:2:0
Битовая глубина : 8 бит
Тип развёртки : Чересстрочная
Порядок развёртки : Верхнее поле первое
Метод сжатия : С потерями
Бит/(Пиксели*Кадры) : 1.320
Размер потока : 975 Мбайт (95%)
Основные цвета : BT.601 PAL
Характеристики трансфера : BT.470 System B, BT.470 System G
Коэффициенты матрицы : BT.601
Аудио
Идентификатор : 189 (0xBD)-128 (0x80)
Формат : AC-3
Формат/Информация : Audio Coding 3
Расширение режима : CM (complete main)
Параметр Endianness формата : Big
Режим смешивания : DVD-Video
Продолжительность : 9 м. 58 с.
Вид битрейта : Постоянный
Битрейт : 384 Кбит/сек
Каналы : 5 каналов
Расположение каналов : Front: L C R, Side: L R
Частота : 48,0 КГц
Битовая глубина : 16 бит
Метод сжатия : С потерями
Задержка видео : -528 мс.
Размер потока : 27,4 Мбайт (3%)
Меню
Общее
Полное имя : D:\ДВД\Фильмы\Приключения в изумрудном городе\VIDEO_TS\VTS_01_5.VOB
Формат : MPEG-PS
Размер файла : 1024 Мбайт
Продолжительность : 1 ч. 51 м.
Режим общего битрейта : Переменный
Общий поток : 1280 Кбит/сек
Видео
Идентификатор : 224 (0xE0)
Формат : MPEG Video
Версия формата : Version 2
Профиль формата : Main@Main
Параметр BVOP формата : Да
Параметр матрицы формата : По умолчанию
Параметр GOP формата : Variable
Продолжительность : 1 ч. 51 м.
Вид битрейта : Переменный
Битрейт : 871 Кбит/сек
Максимальный битрейт : 8900 Кбит/сек
Ширина : 720 пикселей
Высота : 576 пикселей
Соотношение сторон : 4:3
Частота кадров : 25,000 кадров/сек
Стандарт вещания : PAL
Цветовое пространство : YUV
Субдискретизация насыщенности : 4:2:0
Битовая глубина : 8 бит
Тип развёртки : Чересстрочная
Порядок развёртки : Верхнее поле первое
Метод сжатия : С потерями
Бит/(Пиксели*Кадры) : 0.084
Размер потока : 696 Мбайт (68%)
Основные цвета : BT.601 PAL
Характеристики трансфера : BT.470 System B, BT.470 System G
Коэффициенты матрицы : BT.601
Аудио
Идентификатор : 189 (0xBD)-128 (0x80)
Формат : AC-3
Формат/Информация : Audio Coding 3
Расширение режима : CM (complete main)
Параметр Endianness формата : Big
Режим смешивания : DVD-Video
Продолжительность : 1 ч. 51 м.
Вид битрейта : Постоянный
Битрейт : 384 Кбит/сек
Каналы : 6 каналов
Расположение каналов : Front: L C R, Side: L R, LFE
Частота : 48,0 КГц
Битовая глубина : 16 бит
Метод сжатия : С потерями
Задержка видео : -264 мс.
Размер потока : 307 Мбайт (30%)
Текст
Идентификатор : 189 (0xBD)-32 (0x20)
Формат : RLE
Формат/Информация : Run-length encoding
Режим смешивания : DVD-Video
Меню
Общее
Полное имя : D:\ДВД\Фильмы\Приключения в изумрудном городе\VIDEO_TS\VTS_01_6.VOB
Формат : MPEG-PS
Размер файла : 1024 Мбайт
Продолжительность : 19 м.
Режим общего битрейта : Переменный
Общий поток : 7457 Кбит/сек
Видео
Идентификатор : 224 (0xE0)
Формат : MPEG Video
Версия формата : Version 2
Профиль формата : Main@Main
Параметр BVOP формата : Да
Параметр матрицы формата : По умолчанию
Параметр GOP формата : Variable
Продолжительность : 19 м.
Вид битрейта : Переменный
Битрейт : 6925 Кбит/сек
Максимальный битрейт : 8900 Кбит/сек
Ширина : 720 пикселей
Высота : 576 пикселей
Соотношение сторон : 4:3
Частота кадров : 25,000 кадров/сек
Стандарт вещания : PAL
Цветовое пространство : YUV
Субдискретизация насыщенности : 4:2:0
Битовая глубина : 8 бит
Тип развёртки : Чересстрочная
Порядок развёртки : Верхнее поле первое
Метод сжатия : С потерями
Бит/(Пиксели*Кадры) : 0.668
Размер потока : 951 Мбайт (93%)
Основные цвета : BT.601 PAL
Характеристики трансфера : BT.470 System B, BT.470 System G
Коэффициенты матрицы : BT.601
Аудио
Идентификатор : 189 (0xBD)-128 (0x80)
Формат : AC-3
Формат/Информация : Audio Coding 3
Расширение режима : CM (complete main)
Параметр Endianness формата : Big
Режим смешивания : DVD-Video
Продолжительность : 19 м.
Вид битрейта : Постоянный
Битрейт : 384 Кбит/сек
Каналы : 6 каналов
Расположение каналов : Front: L C R, Side: L R, LFE
Частота : 48,0 КГц
Битовая глубина : 16 бит
Метод сжатия : С потерями
Задержка видео : -464 мс.
Размер потока : 52,7 Мбайт (5%)
Меню
Общее
Полное имя : D:\ДВД\Фильмы\Приключения в изумрудном городе\VIDEO_TS\VTS_01_7.VOB
Формат : MPEG-PS
Размер файла : 265 Мбайт
Продолжительность : 4 м. 56 с.
Режим общего битрейта : Переменный
Общий поток : 7496 Кбит/сек
Видео
Идентификатор : 224 (0xE0)
Формат : MPEG Video
Версия формата : Version 2
Профиль формата : Main@Main
Параметр BVOP формата : Да
Параметр матрицы формата : По умолчанию
Параметр GOP формата : M=5, N=26
Продолжительность : 4 м. 56 с.
Вид битрейта : Переменный
Битрейт : 6963 Кбит/сек
Максимальный битрейт : 8900 Кбит/сек
Ширина : 720 пикселей
Высота : 576 пикселей
Соотношение сторон : 4:3
Частота кадров : 25,000 кадров/сек
Стандарт вещания : PAL
Цветовое пространство : YUV
Субдискретизация насыщенности : 4:2:0
Битовая глубина : 8 бит
Тип развёртки : Чересстрочная
Порядок развёртки : Верхнее поле первое
Метод сжатия : С потерями
Бит/(Пиксели*Кадры) : 0.672
Размер потока : 246 Мбайт (93%)
Основные цвета : BT.601 PAL
Характеристики трансфера : BT.470 System B, BT.470 System G
Коэффициенты матрицы : BT.601
Аудио
Идентификатор : 189 (0xBD)-128 (0x80)
Формат : AC-3
Формат/Информация : Audio Coding 3
Расширение режима : CM (complete main)
Параметр Endianness формата : Big
Режим смешивания : DVD-Video
Продолжительность : 4 м. 56 с.
Вид битрейта : Постоянный
Битрейт : 384 Кбит/сек
Каналы : 6 каналов
Расположение каналов : Front: L C R, Side: L R, LFE
Частота : 48,0 КГц
Битовая глубина : 16 бит
Метод сжатия : С потерями
Задержка видео : -392 мс.
Размер потока : 13,6 Мбайт (5%)
Текст
Идентификатор : 189 (0xBD)-32 (0x20)
Формат : RLE
Формат/Информация : Run-length encoding
Режим смешивания : DVD-Video
Продолжительность : 4 м. 50 с.
Задержка видео : 1 с. 520 мс.
Меню
Общее
Полное имя : D:\ДВД\Фильмы\Приключения в изумрудном городе\VIDEO_TS\VTS_02_0.BUP
Размер файла : 24,0 Кбайт
Общее
Полное имя : D:\ДВД\Фильмы\Приключения в изумрудном городе\VIDEO_TS\VTS_02_0.IFO
Формат : DVD Video
Профиль формата : Program
Размер файла : 24,0 Кбайт
Продолжительность : 400 мс.
Режим общего битрейта : Переменный
Общий поток : 492 Кбит/сек
Видео
Идентификатор : 224 (0xE0)
Формат : MPEG Video
Версия формата : Version 2
Продолжительность : 400 мс.
Вид битрейта : Переменный
Ширина : 720 пикселей
Высота : 576 пикселей
Соотношение сторон : 16:9
Частота кадров : 25,000 кадров/сек
Стандарт вещания : PAL
Метод сжатия : С потерями
Аудио
Формат : AC-3
Формат/Информация : Audio Coding 3
Каналы : 2 канала
Частота : 0 Гц
Метод сжатия : С потерями
Текст
Формат : RLE
Формат/Информация : Run-length encoding
Битовая глубина : 2 бит
Меню #1
Продолжительность : 400 мс.
00:00:00.000 : Chapter 1
Меню #2
Продолжительность : 400 мс.
00:00:00.000 : Chapter 1
Общее
Полное имя : D:\ДВД\Фильмы\Приключения в изумрудном городе\VIDEO_TS\VTS_02_0.VOB
Формат : MPEG-PS
Размер файла : 60,0 Кбайт
Продолжительность : 40 мс.
Общий поток : 12,3 Мбит/сек
Видео
Идентификатор : 224 (0xE0)
Формат : MPEG Video
Версия формата : Version 2
Профиль формата : Main@Main
Параметр BVOP формата : Нет
Параметр матрицы формата : Выборочная
Параметр GOP формата : N=1
Продолжительность : 40 мс.
Максимальный битрейт : 9000 Кбит/сек
Ширина : 720 пикселей
Высота : 576 пикселей
Соотношение сторон : 4:3
Частота кадров : 25,000 кадров/сек
Стандарт вещания : PAL
Цветовое пространство : YUV
Субдискретизация насыщенности : 4:2:0
Битовая глубина : 8 бит
Тип развёртки : Прогрессивная
Порядок развёртки : Верхнее поле первое
Метод сжатия : С потерями
Основные цвета : BT.601 NTSC
Характеристики трансфера : BT.601
Коэффициенты матрицы : BT.601
Текст
Идентификатор : 189 (0xBD)-32 (0x20)
Формат : RLE
Формат/Информация : Run-length encoding
Режим смешивания : DVD-Video
Меню
Общее
Полное имя : D:\ДВД\Фильмы\Приключения в изумрудном городе\VIDEO_TS\VTS_02_1.VOB
Формат : MPEG-PS
Размер файла : 270 Кбайт
Продолжительность : 40 мс.
Общий поток : 55,3 Мбит/сек
Видео
Идентификатор : 224 (0xE0)
Формат : MPEG Video
Версия формата : Version 2
Профиль формата : Main@Main
Параметр BVOP формата : Нет
Параметр матрицы формата : Выборочная
Параметр GOP формата : N=1
Продолжительность : 40 мс.
Максимальный битрейт : 9000 Кбит/сек
Ширина : 720 пикселей
Высота : 576 пикселей
Соотношение сторон : 2,40:1
Частота кадров : 25,000 кадров/сек
Стандарт вещания : PAL
Цветовое пространство : YUV
Субдискретизация насыщенности : 4:2:0
Битовая глубина : 8 бит
Тип развёртки : Прогрессивная
Порядок развёртки : Верхнее поле первое
Метод сжатия : С потерями
Основные цвета : BT.601 NTSC
Характеристики трансфера : BT.601
Коэффициенты матрицы : BT.601
Меню
Общее
Полное имя : D:\ДВД\Фильмы\Приключения в изумрудном городе\Приключения в изумрудном городе.torrent
Размер файла : 17,1 Кбайт

DVDInfo

Title: Приключения в изумрудном городе
Size: 6.41 Gb ( 6 718 334,00 KBytes ) - DVD-9
Enabled regions: 1, 2, 3, 4, 5, 6, 7, 8
VTS_01 :
Play Length: 00:03:05+00:26:00+00:26:01+00:02:17+00:09:30+00:26:01+00:01:10+00:26:01
Video: PAL 4:3 (720x576) VBR
Audio:
Russian, AC3, 2/0 (L,R) ch, 192 kbps, Delay 16 mSec
Subtitles:
English
VTS_02 :
Play Length: 00:00:00+00:00:00+00:00:00+00:00:00+00:00:00+00:00:00+00:00:00+00:00:00+00:00:00+00:00:00+00:00:00+00:00:00+00:00:00+00:00:00+00:00:00+00:00:00+00:00:00+00:00:00+00:00:00+00:00:00+00:00:00+00:00:00+00:00:00+00:00:00+00:00:00+00:00:00+00:00:00
Video: PAL 16:9 (720x576) VBR, Auto Pan&Scan, Auto Letterboxed
* Menus Information *
VIDEO_TS Menu
Video:
PAL 4:3 (720x576) VBR
Audio:
Not specified (Dolby AC3, 6 ch)
English Language Unit :
Title Menu
VTS_01 Menu
Video:
PAL 4:3 (720x576) VBR
Audio:
Not specified (Dolby AC3, 6 ch)
English Language Unit :
Root Menu
Subpicture Menu
Audio Menu
Angle menu
Chapter (PTT) Menu
VTS_02 Menu
Video:
PAL 4:3 (720x576) VBR
Audio:
Not specified (Dolby AC3, 2 ch)
English Language Unit :
Root Menu
Subpicture Menu
Audio Menu
Angle menu
Chapter (PTT) Menu

Скриншоты меню

Скриншоты:

[Цитировать]



Показать сообщения:    

Текущее время: 07-Дек 19:31

Часовой пояс: UTC + 3


Вы не можете начинать темы
Вы не можете отвечать на сообщения
Вы не можете редактировать свои сообщения
Вы не можете удалять свои сообщения
Вы не можете голосовать в опросах
Вы не можете прикреплять файлы к сообщениям
Вы не можете скачивать файлы

!ВНИМАНИЕ!
Сайт не предоставляет электронные версии произведений, а занимается лишь коллекционированием и каталогизацией ссылок, присылаемых и публикуемых на форуме нашими читателями. Если вы являетесь правообладателем какого-либо представленного материала и не желаете, чтобы ссылка на него находилась в нашем каталоге, свяжитесь с нами, и мы незамедлительно удалим ее. Файлы для обмена на трекере предоставлены пользователями сайта, и администрация не несет ответственности за их содержание. Просьба не заливать файлы, защищенные авторскими правами, а также файлы нелегального содержания!