[ Сегодня идет свободное скачивание без начисления Download ]


Статистика раздачи
Нет
 
   
 
Top  
 
 
Рокки. Антология / Rocky. Anthology- -Рокки / Rocky-«His whole life was a million-to-one shot.»- Страна: США
Жанр: боевик, драма, спорт
Год выпуска: 1976
Продолжительность: 01:59:35-Перевод: Профессиональный (многоголосый закадровый)
Перевод (2): Авторский (одноголосый закадровый)
Оригинальная аудиодорожка: английский-Режиссер: Джон Г. Эвилдсен /John G. Avildsen, Сильвестр Сталлоне / Sylvester Stallone-В ролях: Сильвестр Сталлоне, Талия Шайр, Берт Янг, Карл Уэверз, Бургесс Мередит, Тэйер Дэвид, Джо Спинелл, Аль Сильвани, Джордж Меммоли, Jodi Letizia, Диана Льюис, George O'Hanlon, Ларри Кэрролл, Стэн Шоу, Дон Шерман, Билли Сэндс, Педро Ловелл-Описание: Кто такой Рокки Бальбоа? — это человек легенда, застенчивый, но чрезвычайно упрямый и талантливый боксер, который не щадил себя и поднялся с самого дна на вершину славы.
Своим обаянием он завоевывает сердца миллионов, а кровавыми поединками шокирует даже профессионалов. Он изматывает себя изнурительными тренировками и мечтает о поясе чемпиона мира. Как бультерьер он набрасывается на своих противников, какими бы опасными они не были.
Ему наплевать, что его лицо превращается в кровавое месиво, он всегда идет до самого конца, и кажется, что он скорее умрет, чем покажет свою слабость.-Исходник: Рокки [Антология] / Rocky [Antology] 6 Blu-ray Discs 1920x1080 (16/9); 23,976 fps; ~18,3 Мбит/сек
Тип релиза: BDRip AVC (Blu-Ray disk)
Контейнер: MKV-Видео: MPEG4 AVC, 1024x554 at 23.976 fps, [email protected], 2pass, ~3500 kbps avg
Аудио (Russian): 48 kHz, AC3, 3/2 (L,C,R,l,r) + LFE ch, ~448 .00 kbps avg |MVO Киномания|
Аудио 2 (Russian): 48 kHz, AC3, 2/0 (L,R) ch, ~192.00 kbps avg |MVO R5 (20th Century Fox)| - отдельным файлом
Аудио 3 (Russian): 48 kHz, AC3, 3/2 (L,C,R,l,r) + LFE ch, ~384.00 kbps avg |MVO DDV| - отдельным файлом
Аудио 4 (Russian): 48 kHz, AC3, 2/0 (L,R) ch, ~192.00 kbps avg |MVO Варус Видео (VHS)| - отдельным файлом
Аудио 5 (Ukrainian): 48 kHz, AC3, 2/0 (L,R) ch, ~192.00 kbps avg |MVO Так Треба Продакшн (т/к Інтер)| - отдельным файлом
Аудио 6 (Russian): 48 kHz, AC3, 3/2 (L,C,R,l,r) + LFE ch, ~448.00 kbps avg |AVO А.Гаврилов| - отдельным файлом
Аудио 7 (Russian): 48 kHz, AC3, 3/2 (L,C,R,l,r) + LFE ch, ~448.00 kbps avg |AVO В.Горчаков| - отдельным файлом
Аудио 8 (Russian): 48 kHz, AC3, 2/0 (L,R) ch, ~192.00 kbps avg |AVO Л.Володарский| - отдельным файлом
Аудио 9 (Russian): 48 kHz, AC3, 3/2 (L,C,R,l,r) + LFE ch, ~448.00 kbps avg |AVO А.Багичев| - отдельным файлом
Аудио 10 (English): 48 kHz, AC3, 3/2 (L,C,R,l,r) + LFE ch, ~448.00 kbps avg-Субтитры: Russian, English (SDH)
Формат субтитров: softsub (SRT)
-

Скриншот с названием


-

Дополнительно

Сохранены и подписаны оригинальные чаптеры как на Blu-ray.

-

MediaInfo

Общее
Уникальный идентификатор : 184915251198795257255266532376638050849 (0x8B1D61C73298722B9A91EC5A34E2D221)
Полное имя : E:\раздача\Rokki.Antologija.1976-2006.x264.BDRip.(AVC).DenisNN\Rokki.1976.x264.BDRip.(AVC)\Rokki.1976.x264.BDRip.(AVC).DenisNN.mkv
Формат : Matroska
Версия формата : Version 2
Размер файла : 3,67 Гбайт
Продолжительность : 1 ч. 59 м.
Общий поток : 4397 Кбит/сек
Дата кодирования : UTC 2011-07-26 20:05:49
Программа кодирования : mkvmerge v4.0.0 ('The Stars were mine') сборка от Jun 6 2010 16:18:42
Библиотека кодирования : libebml v1.0.0 + libmatroska v1.0.0
Видео
Идентификатор : 1
Формат : AVC
Формат/Информация : Advanced Video Codec
Профиль формата : [email protected]
Параметр CABAC формата : Да
Параметр ReFrames формата : 8 кадров
Идентификатор кодека : V_MPEG4/ISO/AVC
Продолжительность : 1 ч. 59 м.
Битрейт : 3500 Кбит/сек
Ширина : 1024 пикс.
Высота : 554 пикс.
Соотношение сторон : 16:9
Частота кадров : 23,976 кадр/сек
Цветовое пространство : YUV
Подвыборка цветности : 4:2:0
Битовая глубина : 8 бит
Тип развёртки : Прогрессивная
Бит/(Пиксели*Кадры) : 0.257
Размер потока : 2,85 Гбайт (78%)
Заголовок : Rip by DenisNN
Библиотека кодирования : x264 core 115 r1995 c1e60b9
Настройки программы : cabac=1 / ref=8 / deblock=1:-2:-2 / analyse=0x3:0x133 / me=hex / subme=9 / psy=1 / psy_rd=1.00:0.00 / mixed_ref=1 / me_range=16 / chroma_me=1 / trellis=2 / 8x8dct=1 / cqm=0 / deadzone=21,11 / fast_pskip=0 / chroma_qp_offset=3 / threads=3 / sliced_threads=0 / nr=0 / decimate=1 / interlaced=0 / bluray_compat=0 / constrained_intra=0 / bframes=5 / b_pyramid=2 / b_adapt=2 / b_bias=0 / direct=3 / weightb=1 / open_gop=0 / weightp=2 / keyint=250 / keyint_min=23 / scenecut=40 / intra_refresh=0 / rc=2pass / mbtree=0 / bitrate=3500 / ratetol=1.0 / qcomp=0.60 / qpmin=10 / qpmax=51 / qpstep=4 / cplxblur=20.0 / qblur=0.5 / ip_ratio=1.40 / pb_ratio=1.30 / aq=2:1.00
Язык : English
Аудио #1
Идентификатор : 2
Формат : AC-3
Формат/Информация : Audio Coding 3
Расширение режима : CM (complete main)
Идентификатор кодека : A_AC3
Продолжительность : 1 ч. 59 м.
Вид битрейта : Постоянный
Битрейт : 448 Кбит/сек
Каналы : 6 каналов
Расположение каналов : Front: L C R, Side: L R, LFE
Частота : 48,0 КГц
Битовая глубина : 16 бит
Метод сжатия : С потерями
Размер потока : 383 Мбайт (10%)
Заголовок : Киномания
Язык : Russian
Аудио #2
Идентификатор : 3
Формат : AC-3
Формат/Информация : Audio Coding 3
Расширение режима : CM (complete main)
Идентификатор кодека : A_AC3
Продолжительность : 1 ч. 59 м.
Вид битрейта : Постоянный
Битрейт : 448 Кбит/сек
Каналы : 6 каналов
Расположение каналов : Front: L C R, Side: L R, LFE
Частота : 48,0 КГц
Битовая глубина : 16 бит
Метод сжатия : С потерями
Размер потока : 383 Мбайт (10%)
Заголовок : Английский
Язык : English
Текст #1
Идентификатор : 4
Формат : UTF-8
Идентификатор кодека : S_TEXT/UTF8
Идентификатор кодека/Информация : UTF-8 Plain Text
Заголовок : Русские
Язык : Russian
Текст #2
Идентификатор : 5
Формат : UTF-8
Идентификатор кодека : S_TEXT/UTF8
Идентификатор кодека/Информация : UTF-8 Plain Text
Заголовок : Английские
Язык : English
Меню
00:00:00.000 : :Chapter 01
00:07:18.271 : :Chapter 02
00:11:47.456 : :Chapter 03
00:16:21.730 : :Chapter 04
00:22:15.542 : :Chapter 05
00:26:00.016 : :Chapter 06
00:32:55.556 : :Chapter 07
00:33:57.535 : :Chapter 08
00:40:11.075 : :Chapter 09
00:47:33.809 : :Chapter 10
00:54:56.751 : :Chapter 11
00:57:23.189 : :Chapter 12
01:02:37.587 : :Chapter 13
01:10:41.695 : :Chapter 14
01:17:35.984 : :Chapter 15
01:19:15.417 : :Chapter 16
01:22:03.793 : :Chapter 17
01:25:22.992 : :Chapter 18
01:29:15.850 : :Chapter 19
01:34:18.402 : :Chapter 20
01:39:24.124 : :Chapter 21
01:47:10.674 : :Chapter 22
01:48:34.049 : :Chapter 23
01:54:39.581 : :Chapter 24
01:59:34.917 : :Chapter 25

-

Исходник


-

Скриншоты

-Рокки II / Rocky II-«Rocky shows he a champ, and wins!»- Страна: США
Жанр: боевик, драма, спорт
Год выпуска: 1979
Продолжительность: 01:59:10-Перевод: Профессиональный (многоголосый закадровый)
Перевод (2): Авторский (одноголосый закадровый)
Оригинальная аудиодорожка: английский-Режиссер: Джон Г. Эвилдсен /John G. Avildsen, Сильвестр Сталлоне / Sylvester Stallone-В ролях: Сильвестр Сталлоне, Талия Шайр, Берт Янг, Карл Уэзерс, Бёрджесс Мередит, Тони Бертон, Джо Спинелл, Леонард Гейнс, Сильвия Милс, Фрэнк МакРей-Описание: Проиграв по очкам в незабываемом поединке за звание чемпиона мира в первой части, Рокки Бальбоа пытается бросить спорт и начать новую спокойную жизнь. Однако, это у него не получается, ведь бокс - его призвание.
В итоге, несмотря на протесты молодой жены, Рокки принимает вызов своего старого соперника Апполо Крида на матч-реванш. Апполо пребывает в прекрасной физической форме и горит желанием отомстить за нанесенные ему в первом поединке побои. Так что у Рокки есть все шансы потерять не только жену, но и здоровье.-Исходник: Рокки [Антология] / Rocky [Antology] 6 Blu-ray Discs 1920x1080 (16/9); 23,976 fps; ~31 Мбит/сек
Тип релиза: BDRip AVC (Blu-Ray disk)
Контейнер: MKV-Видео: MPEG4 AVC, 1024x554 at 23.976 fps, [email protected], 2pass, ~3500 kbps avg
Аудио (Russian): 48 kHz, AC3, 3/2 (L,C,R,l,r) + LFE ch, ~448 .00 kbps avg |MVO Киномания|
Аудио 2 (Russian): 48 kHz, AC3, 2/0 (L,R) ch, ~384.00 kbps avg |MVO DDV| - отдельным файлом
Аудио 3 (Russian): 48 kHz, AC3, 2/0 (L,R) ch, ~192.00 kbps avg |MVO Варус Видео (VHS)| - отдельным файлом
Аудио 4 (Ukrainian): 48 kHz, AC3, 2/0 (L,R) ch, ~192.00 kbps avg |MVO Так Треба Продакшн (т/к Інтер)| - отдельным файлом
Аудио 5 (Russian): 48 kHz, AC3, 3/2 (L,C,R,l,r) + LFE ch, ~448.00 kbps avg |AVO А.Гаврилов| - отдельным файлом
Аудио 6 (Russian): 48 kHz, AC3, 2/0 (L,R) ch, ~192.00 kbps avg |AVO Л.Володарский| - отдельным файлом
Аудио 7 (English): 48 kHz, AC3, 3/2 (L,C,R,l,r) + LFE ch, ~448.00 kbps avg-Субтитры: Russian, English (SDH)
Формат субтитров: softsub (SRT)
-

Скриншот с названием


-

Дополнительно

Сохранены и подписаны оригинальные чаптеры как на Blu-ray.

-

MediaInfo

Общее
Уникальный идентификатор : 187994485076042841778378178840733321455 (0x8D6E6BBAC740232ABA11C80A830288EF)
Полное имя : E:\раздача\Rokki.Antologija.1976-2006.x264.BDRip.(AVC).DenisNN\Rokki.2.1979.x264.BDRip.(AVC).DenisNN\Rokki.2.1979.x264.BDRip.(AVC).DenisNN.mkv
Формат : Matroska
Версия формата : Version 2
Размер файла : 3,66 Гбайт
Продолжительность : 1 ч. 59 м.
Общий поток : 4395 Кбит/сек
Дата кодирования : UTC 2011-07-28 09:13:16
Программа кодирования : mkvmerge v4.0.0 ('The Stars were mine') сборка от Jun 6 2010 16:18:42
Библиотека кодирования : libebml v1.0.0 + libmatroska v1.0.0
Видео
Идентификатор : 1
Формат : AVC
Формат/Информация : Advanced Video Codec
Профиль формата : [email protected]
Параметр CABAC формата : Да
Параметр ReFrames формата : 8 кадров
Идентификатор кодека : V_MPEG4/ISO/AVC
Продолжительность : 1 ч. 59 м.
Битрейт : 3500 Кбит/сек
Ширина : 1024 пикс.
Высота : 554 пикс.
Соотношение сторон : 16:9
Частота кадров : 23,976 кадр/сек
Цветовое пространство : YUV
Подвыборка цветности : 4:2:0
Битовая глубина : 8 бит
Тип развёртки : Прогрессивная
Бит/(Пиксели*Кадры) : 0.257
Размер потока : 2,84 Гбайт (78%)
Заголовок : Rip by DenisNN
Библиотека кодирования : x264 core 115 r1995 c1e60b9
Настройки программы : cabac=1 / ref=8 / deblock=1:-2:-2 / analyse=0x3:0x133 / me=hex / subme=9 / psy=1 / psy_rd=1.00:0.00 / mixed_ref=1 / me_range=16 / chroma_me=1 / trellis=2 / 8x8dct=1 / cqm=0 / deadzone=21,11 / fast_pskip=0 / chroma_qp_offset=3 / threads=3 / sliced_threads=0 / nr=0 / decimate=1 / interlaced=0 / bluray_compat=0 / constrained_intra=0 / bframes=5 / b_pyramid=2 / b_adapt=2 / b_bias=0 / direct=3 / weightb=1 / open_gop=0 / weightp=2 / keyint=250 / keyint_min=23 / scenecut=40 / intra_refresh=0 / rc=2pass / mbtree=0 / bitrate=3500 / ratetol=1.0 / qcomp=0.60 / qpmin=10 / qpmax=51 / qpstep=4 / cplxblur=20.0 / qblur=0.5 / ip_ratio=1.40 / pb_ratio=1.30 / aq=2:1.00
Язык : English
Аудио #1
Идентификатор : 2
Формат : AC-3
Формат/Информация : Audio Coding 3
Расширение режима : CM (complete main)
Идентификатор кодека : A_AC3
Продолжительность : 1 ч. 59 м.
Вид битрейта : Постоянный
Битрейт : 448 Кбит/сек
Каналы : 6 каналов
Расположение каналов : Front: L C R, Side: L R, LFE
Частота : 48,0 КГц
Битовая глубина : 16 бит
Метод сжатия : С потерями
Размер потока : 382 Мбайт (10%)
Заголовок : Киномания
Язык : Russian
Аудио #2
Идентификатор : 3
Формат : AC-3
Формат/Информация : Audio Coding 3
Расширение режима : CM (complete main)
Идентификатор кодека : A_AC3
Продолжительность : 1 ч. 59 м.
Вид битрейта : Постоянный
Битрейт : 448 Кбит/сек
Каналы : 6 каналов
Расположение каналов : Front: L C R, Side: L R, LFE
Частота : 48,0 КГц
Битовая глубина : 16 бит
Метод сжатия : С потерями
Размер потока : 382 Мбайт (10%)
Заголовок : Английский
Язык : English
Текст #1
Идентификатор : 4
Формат : UTF-8
Идентификатор кодека : S_TEXT/UTF8
Идентификатор кодека/Информация : UTF-8 Plain Text
Заголовок : Русские
Язык : Russian
Текст #2
Идентификатор : 5
Формат : UTF-8
Идентификатор кодека : S_TEXT/UTF8
Идентификатор кодека/Информация : UTF-8 Plain Text
Заголовок : Английские SDH
Язык : English
Меню
00:00:00.000 : :Chapter 01
00:07:50.052 : :Chapter 02
00:14:07.012 : :Chapter 03
00:22:02.904 : :Chapter 04
00:29:24.512 : :Chapter 05
00:40:48.904 : :Chapter 06
00:49:56.451 : :Chapter 07
01:01:53.668 : :Chapter 08
01:04:21.524 : :Chapter 09
01:12:01.734 : :Chapter 10
01:17:00.574 : :Chapter 11
01:26:27.765 : :Chapter 12
01:32:41.097 : :Chapter 13
01:41:27.539 : :Chapter 14
01:51:54.541 : :Chapter 15
01:54:41.291 : :Chapter 16
01:59:10.726 : :Chapter 17

-

Исходник


-

Скриншоты


-
-Рокки III / Rocky III-«The greatest challenge.»- Страна: США
Жанр: боевик, драма, спорт
Год выпуска: 1982
Продолжительность: 01:39:38-Перевод: Профессиональный (многоголосый закадровый)
Перевод (2): Авторский (одноголосый закадровый)
Оригинальная аудиодорожка: английский-Режиссер: Джон Г. Эвилдсен /John G. Avildsen, Сильвестр Сталлоне / Sylvester Stallone-В ролях: Сильвестр Сталлоне, Талия Шайр, Берт Янг, Карл Уэзерс, Бёрджесс Мередит, Тони Бертон, Мистер Ти, Халк Хоган, Йен Фрид, Аль Сильвани-Описание: Одержав сокрушительную победу над Аполло Кридом, Рокки купается в лучах славы. Его окружает роскошь и престиж. Он с легкостью разделывается со всеми претендентами на его чемпионский пояс. Гонорары велики, а тренировки непродолжительны, и в результате Рокки начинает терять свою знаменитую скорость и точность.
Плюс ко всему сказываются старые травмы - все-таки он пропускал слишком много ударов по голове. В итоге, когда на ринге появляется молодой непробиваемый, подобный урагану, боксер по имени Клаббер, Рокки оказывается неспособным выдержать его сокрушительные удары и падает мертвым грузом.
После такого позора от него отворачиваются все, кроме бывшего врага, а теперь товарища по несчастью Аполло Крида.-Исходник: Рокки [Антология] / Rocky [Antology] 6 Blu-ray Discs 1920x1080 (16/9); 23,976 fps; ~30 Мбит/сек
Тип релиза: BDRip AVC (Blu-Ray disk)
Контейнер: MKV-Видео: MPEG4 AVC, 1024x556 at 23.976 fps, [email protected], 2pass, ~3500 kbps avg
Аудио (Russian): 48 kHz, AC3, 3/2 (L,C,R,l,r) + LFE ch, ~448 .00 kbps avg |MVO Киномания|
Аудио 2 (Russian): 48 kHz, AC3, 2/0 (L,R) ch, ~384.00 kbps avg |MVO DDV| - отдельным файлом
Аудио 3 (Russian): 48 kHz, AC3, 2/0 (L,R) ch, ~192.00 kbps avg |MVO Варус Видео (VHS)| - отдельным файлом
Аудио 4 (Ukrainian): 48 kHz, AC3, 2/0 (L,R) ch, ~192.00 kbps avg |MVO Так Треба Продакшн (т/к Інтер)| - отдельным файлом
Аудио 5 (Russian): 48 kHz, AC3, 3/2 (L,C,R,l,r) + LFE ch, ~384.00 kbps avg |AVO А.Гаврилов| - отдельным файлом
Аудио 6 (English): 48 kHz, AC3, 3/2 (L,C,R,l,r) + LFE ch, ~384.00 kbps avg-Субтитры: Russian, English (SDH)
Формат субтитров: softsub (SRT)-

Скриншот с названием


-

Дополнительно

Сохранены и подписаны оригинальные чаптеры как на Blu-ray.

-

MediaInfo

Общее
Уникальный идентификатор : 231784482348292039076815098280627160065 (0xAE601148FBBAA3AE949AE0FF71E04401)
Полное имя : E:\раздача\Rokki.Antologija.1976-2006.x264.BDRip.(AVC).DenisNN\Rokki.3.1982.x264.BDRip.(AVC).DenisNN\Rokki.3.1982.x264.BDRip.(AVC).DenisNN.mkv
Формат : Matroska
Версия формата : Version 2
Размер файла : 3,01 Гбайт
Продолжительность : 1 ч. 39 м.
Общий поток : 4331 Кбит/сек
Дата кодирования : UTC 2011-07-28 09:50:36
Программа кодирования : mkvmerge v4.0.0 ('The Stars were mine') сборка от Jun 6 2010 16:18:42
Библиотека кодирования : libebml v1.0.0 + libmatroska v1.0.0
Видео
Идентификатор : 1
Формат : AVC
Формат/Информация : Advanced Video Codec
Профиль формата : [email protected]
Параметр CABAC формата : Да
Параметр ReFrames формата : 8 кадров
Идентификатор кодека : V_MPEG4/ISO/AVC
Продолжительность : 1 ч. 39 м.
Битрейт : 3500 Кбит/сек
Ширина : 1024 пикс.
Высота : 556 пикс.
Соотношение сторон : 16:9
Частота кадров : 23,976 кадр/сек
Цветовое пространство : YUV
Подвыборка цветности : 4:2:0
Битовая глубина : 8 бит
Тип развёртки : Прогрессивная
Бит/(Пиксели*Кадры) : 0.256
Размер потока : 2,38 Гбайт (79%)
Заголовок : Rip by DenisNN
Библиотека кодирования : x264 core 115 r1995 c1e60b9
Настройки программы : cabac=1 / ref=8 / deblock=1:-2:-2 / analyse=0x3:0x133 / me=hex / subme=9 / psy=1 / psy_rd=1.00:0.00 / mixed_ref=1 / me_range=16 / chroma_me=1 / trellis=2 / 8x8dct=1 / cqm=0 / deadzone=21,11 / fast_pskip=0 / chroma_qp_offset=3 / threads=3 / sliced_threads=0 / nr=0 / decimate=1 / interlaced=0 / bluray_compat=0 / constrained_intra=0 / bframes=5 / b_pyramid=2 / b_adapt=2 / b_bias=0 / direct=3 / weightb=1 / open_gop=0 / weightp=2 / keyint=250 / keyint_min=23 / scenecut=40 / intra_refresh=0 / rc=2pass / mbtree=0 / bitrate=3500 / ratetol=1.0 / qcomp=0.60 / qpmin=10 / qpmax=51 / qpstep=4 / cplxblur=20.0 / qblur=0.5 / ip_ratio=1.40 / pb_ratio=1.30 / aq=2:1.00
Язык : English
Аудио #1
Идентификатор : 2
Формат : AC-3
Формат/Информация : Audio Coding 3
Расширение режима : CM (complete main)
Идентификатор кодека : A_AC3
Продолжительность : 1 ч. 39 м.
Вид битрейта : Постоянный
Битрейт : 448 Кбит/сек
Каналы : 6 каналов
Расположение каналов : Front: L C R, Side: L R, LFE
Частота : 48,0 КГц
Битовая глубина : 16 бит
Метод сжатия : С потерями
Размер потока : 319 Мбайт (10%)
Заголовок : Киномания
Язык : Russian
Аудио #2
Идентификатор : 3
Формат : AC-3
Формат/Информация : Audio Coding 3
Расширение режима : CM (complete main)
Идентификатор кодека : A_AC3
Продолжительность : 1 ч. 39 м.
Вид битрейта : Постоянный
Битрейт : 384 Кбит/сек
Каналы : 6 каналов
Расположение каналов : Front: L C R, Side: L R, LFE
Частота : 48,0 КГц
Битовая глубина : 16 бит
Метод сжатия : С потерями
Размер потока : 274 Мбайт (9%)
Заголовок : Английский
Язык : English
Текст #1
Идентификатор : 4
Формат : UTF-8
Идентификатор кодека : S_TEXT/UTF8
Идентификатор кодека/Информация : UTF-8 Plain Text
Заголовок : Русские
Язык : Russian
Текст #2
Идентификатор : 5
Формат : UTF-8
Идентификатор кодека : S_TEXT/UTF8
Идентификатор кодека/Информация : UTF-8 Plain Text
Заголовок : Английский SDH
Язык : English
Меню
00:00:00.000 : :Chapter 01
00:03:12.442 : :Chapter 02
00:06:51.953 : :Chapter 03
00:12:58.736 : :Chapter 04
00:23:07.636 : :Chapter 05
00:33:45.940 : :Chapter 06
00:37:56.816 : :Chapter 07
00:48:27.154 : :Chapter 08
00:54:41.695 : :Chapter 09
00:58:54.948 : :Chapter 10
01:03:39.482 : :Chapter 11
01:10:44.615 : :Chapter 12
01:15:28.690 : :Chapter 13
01:18:54.146 : :Chapter 14
01:34:32.958 : :Chapter 15
01:36:25.237 : :Chapter 16
01:39:37.763 : :Chapter 17

-

Исходник


-

Скриншоты

-Рокки IV / Rocky IV-«Get ready for the next world war.»- Страна: США
Жанр: боевик, драма, спорт
Год выпуска: 1985
Продолжительность: 01:31:31-Перевод: Профессиональный (многоголосый закадровый)
Перевод (2): Авторский (одноголосый закадровый)
Оригинальная аудиодорожка: английский-Режиссер: Джон Г. Эвилдсен /John G. Avildsen, Сильвестр Сталлоне / Sylvester Stallone-В ролях: Сильвестр Сталлоне, Талия Шайр, Берт Янг, Карл Уэзерс, Бриджитт, Нильсен, Тони Бертон, Майкл Патаки, Дольф Лундгрен, Стью Нэхен, Р.Дж. Адамс-Описание: Рокки Бальбоа счастлив в своей семейной жизни, и даже вечное напускное бурчанье Поли Пеннино, брата Адрианы, не способно испортить Рокки хорошее настроение. Но в жизнь Бальбоа все-таки врывается новая трагедия... Его друг и тренер Аполло Крид соглашается принять участие в показательном поединке с чемпионом мира среди боксеров-любителей Иваном Драго, капитаном Советской Армии. Организаторы матча назвали поединок показательным, но Иван Драго превратил бой боксерский в бой настоящий: русский гигант, словно кувалдой, уложил Крида на ринг смертельным ударом. Чтобы в честной спортивной схватке отомстить за гибель друга, Рокки Бальбоа возвращается в большой бокс. Для подготовки к поединку, который, по условиям контракта, состоится в Москве, Рокки едет в Россию, где начинает вновь набирать спортивную форму...-Исходник: Рокки [Антология] / Rocky [Antology] 6 Blu-ray Discs 1920x1080 (16/9); 23,976 fps; ~32,1 Мбит/сек
Тип релиза: BDRip AVC (Blu-Ray disk)
Контейнер: MKV-Видео: MPEG4 AVC, 1024x556 at 23.976 fps, [email protected], 2pass, ~3500 kbps avg
Аудио (Russian): 48 kHz, AC3, 3/2 (L,C,R,l,r) + LFE ch, ~448 .00 kbps avg |MVO Киномания|
Аудио 2 (Russian): 48 kHz, AC3, 3/2 (L,C,R,l,r) + LFE ch, ~384.00 kbps avg |MVO DDV| - отдельным файлом
Аудио 3 (Russian): 48 kHz, AC3, 2/0 (L,R) ch, ~192.00 kbps avg |MVO Варус Видео (VHS)| - отдельным файлом
Аудио 4 (Ukrainian): 48 kHz, AC3, 2/0 (L,R) ch, ~192.00 kbps avg |MVO Так Треба Продакшн (т/к Інтер)| - отдельным файлом
Аудио 5 (Russian): 48 kHz, AC3, 3/2 (L,C,R,l,r) + LFE ch, ~448.00 kbps avg |AVO В.Горчаков| - отдельным файлом
Аудио 6 (Russian): 48 kHz, AC3, 3/2 (L,C,R,l,r) + LFE ch, ~448.00 kbps avg |AVO Либергал| - отдельным файлом
Аудио 7 (English): 48 kHz, AC3, 3/2 (L,C,R,l,r) + LFE ch, ~448.00 kbps avg-Субтитры: Russian, English (SDH)
Формат субтитров: softsub (SRT)-

Скриншот с названием


-

Дополнительно

Сохранены и подписаны оригинальные чаптеры как на Blu-ray.

-

MediaInfo

Общее
Уникальный идентификатор : 249493408267998302701044926843858721563 (0xBBB2AEBE4999749C86CCC22794A81B1B)
Полное имя : E:\раздача\Rokki.Antologija.1976-2006.x264.BDRip.(AVC).DenisNN\Rokki.4.1985.x264.BDRip.(AVC).DenisNN\Rokki.4.1985.x264.BDRip.(AVC).DenisNN.mkv
Формат : Matroska
Версия формата : Version 2
Размер файла : 2,81 Гбайт
Продолжительность : 1 ч. 31 м.
Общий поток : 4394 Кбит/сек
Дата кодирования : UTC 2011-07-28 12:20:20
Программа кодирования : mkvmerge v4.0.0 ('The Stars were mine') сборка от Jun 6 2010 16:18:42
Библиотека кодирования : libebml v1.0.0 + libmatroska v1.0.0
Видео
Идентификатор : 1
Формат : AVC
Формат/Информация : Advanced Video Codec
Профиль формата : [email protected]
Параметр CABAC формата : Да
Параметр ReFrames формата : 8 кадров
Идентификатор кодека : V_MPEG4/ISO/AVC
Продолжительность : 1 ч. 31 м.
Битрейт : 3500 Кбит/сек
Ширина : 1024 пикс.
Высота : 556 пикс.
Соотношение сторон : 16:9
Частота кадров : 23,976 кадр/сек
Цветовое пространство : YUV
Подвыборка цветности : 4:2:0
Битовая глубина : 8 бит
Тип развёртки : Прогрессивная
Бит/(Пиксели*Кадры) : 0.256
Размер потока : 2,18 Гбайт (78%)
Заголовок : Rip by DenisNN
Библиотека кодирования : x264 core 115 r1995 c1e60b9
Настройки программы : cabac=1 / ref=8 / deblock=1:-2:-2 / analyse=0x3:0x133 / me=hex / subme=9 / psy=1 / psy_rd=1.00:0.00 / mixed_ref=1 / me_range=16 / chroma_me=1 / trellis=2 / 8x8dct=1 / cqm=0 / deadzone=21,11 / fast_pskip=0 / chroma_qp_offset=3 / threads=3 / sliced_threads=0 / nr=0 / decimate=1 / interlaced=0 / bluray_compat=0 / constrained_intra=0 / bframes=5 / b_pyramid=2 / b_adapt=2 / b_bias=0 / direct=3 / weightb=1 / open_gop=0 / weightp=2 / keyint=250 / keyint_min=23 / scenecut=40 / intra_refresh=0 / rc=2pass / mbtree=0 / bitrate=3500 / ratetol=1.0 / qcomp=0.60 / qpmin=10 / qpmax=51 / qpstep=4 / cplxblur=20.0 / qblur=0.5 / ip_ratio=1.40 / pb_ratio=1.30 / aq=2:1.00
Язык : English
Аудио #1
Идентификатор : 2
Формат : AC-3
Формат/Информация : Audio Coding 3
Расширение режима : CM (complete main)
Идентификатор кодека : A_AC3
Продолжительность : 1 ч. 31 м.
Вид битрейта : Постоянный
Битрейт : 448 Кбит/сек
Каналы : 6 каналов
Расположение каналов : Front: L C R, Side: L R, LFE
Частота : 48,0 КГц
Битовая глубина : 16 бит
Метод сжатия : С потерями
Размер потока : 293 Мбайт (10%)
Заголовок : Киномания
Язык : Russian
Аудио #2
Идентификатор : 3
Формат : AC-3
Формат/Информация : Audio Coding 3
Расширение режима : CM (complete main)
Идентификатор кодека : A_AC3
Продолжительность : 1 ч. 31 м.
Вид битрейта : Постоянный
Битрейт : 448 Кбит/сек
Каналы : 6 каналов
Расположение каналов : Front: L C R, Side: L R, LFE
Частота : 48,0 КГц
Битовая глубина : 16 бит
Метод сжатия : С потерями
Размер потока : 293 Мбайт (10%)
Заголовок : Английский
Язык : English
Текст #1
Идентификатор : 4
Формат : UTF-8
Идентификатор кодека : S_TEXT/UTF8
Идентификатор кодека/Информация : UTF-8 Plain Text
Заголовок : Русские
Язык : Russian
Текст #2
Идентификатор : 5
Формат : UTF-8
Идентификатор кодека : S_TEXT/UTF8
Идентификатор кодека/Информация : UTF-8 Plain Text
Заголовок : Английские SDH
Меню
00:00:00.000 : :Chapter 01
00:08:04.817 : :Chapter 02
00:12:33.586 : :Chapter 03
00:20:11.210 : :Chapter 04
00:26:20.036 : :Chapter 05
00:33:56.868 : :Chapter 06
00:41:20.769 : :Chapter 07
00:45:47.035 : :Chapter 08
00:48:22.900 : :Chapter 09
00:55:06.970 : :Chapter 10
00:59:57.760 : :Chapter 11
01:04:11.264 : :Chapter 12
01:09:59.486 : :Chapter 13
01:20:39.376 : :Chapter 14
01:24:51.211 : :Chapter 15
01:27:22.946 : :Chapter 16
01:31:31.486 : :Chapter 17

-

Исходник


-

Скриншоты

-Рокки V / Rocky V-«Go for it!»- Страна: США
Жанр: боевик, драма, спорт
Год выпуска: 1990
Продолжительность: 01:44:10-Перевод: Профессиональный (многоголосый закадровый)
Перевод (2): Авторский (одноголосый закадровый)
Оригинальная аудиодорожка: английский-Режиссер: Джон Г. Эвилдсен /John G. Avildsen, Сильвестр Сталлоне / Sylvester Stallone-В ролях: Сильвестр Сталлоне, Талия Шайр, Берт Янг, Сэйдж Сталлоне, Бёрджесс Мередит, Томми Моррисон, Ричард Гант, Тони Бертон, Джимми Гамбина, Делия Шеппард-Описание: После поединка с советским чемпионом Иваном Драго, боксерская карьера Рокки подходит к концу. Здоровье потеряно, да и возраст уже ветеранский. А все заработанные потом и кровью сбережения украдены или потрачены. Так что единственное, что ему остается - это перейти на тренерскую работу.
Но и там не все спокойно, его любимый, подающий надежды ученик, бросает Рокки и уходит к другому тренеру. Но никакие удары судьбы не смогут сломить стоический характер Рокки.
Даже в сложившейся ситуации он не теряет веры в свою счастливую звезду и находит в себе силы для новых достижений.-Исходник: Рокки [Антология] / Rocky [Antology] 6 Blu-ray Discs 1920x1080 (16/9); 23,976 fps; ~32,2 Мбит/сек
Тип релиза: BDRip AVC (Blu-Ray disk)
Контейнер: MKV-Видео: MPEG4 AVC, 1024x554 at 23.976 fps, [email protected], 2pass, ~3500 kbps avg
Аудио (Russian): 48 kHz, AC3, 3/2 (L,C,R,l,r) + LFE ch, ~448 .00 kbps avg |MVO Киномания|
Аудио 2 (Russian): 48 kHz, AC3, 2/0 (L,R) ch, ~384.00 kbps avg |MVO DDV| - отдельным файлом
Аудио 3 (Russian): 48 kHz, AC3, 2/0 (L,R) ch, ~192.00 kbps avg |MVO Варус Видео (VHS)| - отдельным файлом
Аудио 4 (Ukrainian): 48 kHz, AC3, 2/0 (L,R) ch, ~192.00 kbps avg |MVO Так Треба Продакшн (т/к Інтер)| - отдельным файлом
Аудио 5 (Russian): 48 kHz, AC3, 3/2 (L,C,R,l,r) + LFE ch, ~448.00 kbps avg |AVO Гаврилов| - отдельным файлом
Аудио 6 (English): 48 kHz, AC3, 3/2 (L,C,R,l,r) + LFE ch, ~448.00 kbps avg-Субтитры: Russian, English (SDH)
Формат субтитров: softsub (SRT)-

Скриншот с названием


-

Дополнительно

Сохранены и подписаны оригинальные чаптеры как на Blu-ray.

-

MediaInfo

Общее
Уникальный идентификатор : 214448568174100353633348727812892977773 (0xA1554AB9CF8C0BCD8418AD0097ACEA6D)
Полное имя : E:\раздача\Rokki.Antologija.1976-2006.x264.BDRip.(AVC).DenisNN\Rokki.5.1990.x264.BDRip.(AVC)\Rokki.5.1990.x264.BDRip.(AVC).DenisNN.mkv
Формат : Matroska
Версия формата : Version 2
Размер файла : 3,20 Гбайт
Продолжительность : 1 ч. 44 м.
Общий поток : 4397 Кбит/сек
Дата кодирования : UTC 2011-07-29 06:31:53
Программа кодирования : mkvmerge v4.0.0 ('The Stars were mine') сборка от Jun 6 2010 16:18:42
Библиотека кодирования : libebml v1.0.0 + libmatroska v1.0.0
Видео
Идентификатор : 1
Формат : AVC
Формат/Информация : Advanced Video Codec
Профиль формата : [email protected]
Параметр CABAC формата : Да
Параметр ReFrames формата : 8 кадров
Идентификатор кодека : V_MPEG4/ISO/AVC
Продолжительность : 1 ч. 44 м.
Битрейт : 3500 Кбит/сек
Ширина : 1024 пикс.
Высота : 554 пикс.
Соотношение сторон : 16:9
Частота кадров : 23,976 кадр/сек
Цветовое пространство : YUV
Подвыборка цветности : 4:2:0
Битовая глубина : 8 бит
Тип развёртки : Прогрессивная
Бит/(Пиксели*Кадры) : 0.257
Размер потока : 2,48 Гбайт (78%)
Заголовок : Rip by DenisNN
Библиотека кодирования : x264 core 115 r1995 c1e60b9
Настройки программы : cabac=1 / ref=8 / deblock=1:-2:-2 / analyse=0x3:0x133 / me=hex / subme=9 / psy=1 / psy_rd=1.00:0.00 / mixed_ref=1 / me_range=16 / chroma_me=1 / trellis=2 / 8x8dct=1 / cqm=0 / deadzone=21,11 / fast_pskip=0 / chroma_qp_offset=3 / threads=3 / sliced_threads=0 / nr=0 / decimate=1 / interlaced=0 / bluray_compat=0 / constrained_intra=0 / bframes=5 / b_pyramid=2 / b_adapt=2 / b_bias=0 / direct=3 / weightb=1 / open_gop=0 / weightp=2 / keyint=250 / keyint_min=23 / scenecut=40 / intra_refresh=0 / rc=2pass / mbtree=0 / bitrate=3500 / ratetol=1.0 / qcomp=0.60 / qpmin=10 / qpmax=51 / qpstep=4 / cplxblur=20.0 / qblur=0.5 / ip_ratio=1.40 / pb_ratio=1.30 / aq=2:1.00
Язык : English
Аудио #1
Идентификатор : 2
Формат : AC-3
Формат/Информация : Audio Coding 3
Расширение режима : CM (complete main)
Идентификатор кодека : A_AC3
Продолжительность : 1 ч. 44 м.
Вид битрейта : Постоянный
Битрейт : 448 Кбит/сек
Каналы : 6 каналов
Расположение каналов : Front: L C R, Side: L R, LFE
Частота : 48,0 КГц
Битовая глубина : 16 бит
Метод сжатия : С потерями
Размер потока : 334 Мбайт (10%)
Заголовок : Киномания
Язык : Russian
Аудио #2
Идентификатор : 3
Формат : AC-3
Формат/Информация : Audio Coding 3
Расширение режима : CM (complete main)
Идентификатор кодека : A_AC3
Продолжительность : 1 ч. 44 м.
Вид битрейта : Постоянный
Битрейт : 448 Кбит/сек
Каналы : 6 каналов
Расположение каналов : Front: L C R, Side: L R, LFE
Частота : 48,0 КГц
Битовая глубина : 16 бит
Метод сжатия : С потерями
Размер потока : 334 Мбайт (10%)
Заголовок : Английский
Язык : English
Текст #1
Идентификатор : 4
Формат : UTF-8
Идентификатор кодека : S_TEXT/UTF8
Идентификатор кодека/Информация : UTF-8 Plain Text
Заголовок : Русский
Язык : Russian
Текст #2
Идентификатор : 5
Формат : UTF-8
Идентификатор кодека : S_TEXT/UTF8
Идентификатор кодека/Информация : UTF-8 Plain Text
Заголовок : Английский SDH
Язык : English
Меню
00:00:00.000 : :Chapter 01
00:05:26.326 : :Chapter 02
00:09:31.570 : :Chapter 03
00:14:58.522 : :Chapter 04
00:20:10.375 : :Chapter 05
00:26:51.693 : :Chapter 06
00:32:25.401 : :Chapter 07
00:38:22.675 : :Chapter 08
00:43:52.129 : :Chapter 09
00:51:32.047 : :Chapter 10
00:58:16.951 : :Chapter 11
01:03:51.786 : :Chapter 12
01:15:59.513 : :Chapter 13
01:18:50.809 : :Chapter 14
01:24:31.816 : :Chapter 15
01:38:39.580 : :Chapter 16
01:44:10.035 : :Chapter 17

-

Исходник


-

Скриншоты

-Рокки Бальбоа / Rocky Balboa-«Пока он жив - бой не закончен!»- Страна: США
Жанр: боевик, драма, спорт
Год выпуска: 2006
Продолжительность: 01:41:46-Перевод: Профессиональный (полное дублирование)
Перевод (2): Авторский (одноголосый закадровый)
Перевод (3):Профессиональный (многоголосый закадровый)
Оригинальная аудиодорожка: английский-Режиссер: Джон Г. Эвилдсен /John G. Avildsen, Сильвестр Сталлоне / Sylvester Stallone-В ролях: Сильвестр Сталлоне, Талия Шайр, Берт Янг, Сэйдж Сталлоне, Бёрджесс Мередит, Томми Моррисон, Ричард Гант, Тони Бертон, Джимми Гамбина, Делия Шеппард-Описание: После поединка с советским чемпионом Иваном Драго, боксерская карьера Рокки подходит к концу. Здоровье потеряно, да и возраст уже ветеранский. А все заработанные потом и кровью сбережения украдены или потрачены. Так что единственное, что ему остается - это перейти на тренерскую работу.
Но и там не все спокойно, его любимый, подающий надежды ученик, бросает Рокки и уходит к другому тренеру. Но никакие удары судьбы не смогут сломить стоический характер Рокки.
Даже в сложившейся ситуации он не теряет веры в свою счастливую звезду и находит в себе силы для новых достижений.-Исходник: Рокки [Антология] / Rocky [Antology] 6 Blu-ray Discs 1920x1080 (16/9); 23,976 fps; ~28,9 Мбит/сек
Тип релиза: BDRip AVC (Blu-Ray disk)
Контейнер: MKV-Видео: MPEG4 AVC, 1024x554 at 23.976 fps, [email protected], 2pass, ~3500 kbps avg
Аудио (Russian): 48 kHz, AC3, 3/2 (L,C,R,l,r) + LFE ch, ~448 .00 kbps avg |Дублированный|
Аудио 2 (Russian): 48 kHz, AC3, 2/0 (L,R) ch, ~192.00 kbps avg |MVO DDV| - отдельным файлом
Аудио 3 (Ukrainian): 48 kHz, AC3, 2/0 (L,R) ch, ~192.00 kbps avg |MVO Так Треба Продакшн (т/к Інтер)| - отдельным файлом
Аудио 4 (Russian): 48 kHz, AC3, 3/2 (L,C,R,l,r) + LFE ch, ~448.00 kbps avg |AVO Рябов| - отдельным файлом
Аудио 5 (English): 48 kHz, AC3, 3/2 (L,C,R,l,r) + LFE ch, ~448.00 kbps avg-Субтитры: Russian, English (SDH)
Формат субтитров: softsub (SRT)-

Скриншот с названием


-

Дополнительно

Сохранены и подписаны оригинальные чаптеры как на Blu-ray.

-

MediaInfo

Общее
Уникальный идентификатор : 200862976249153819530021374585424770813 (0x971CCD544F074E3EAC12328D235EF6FD)
Полное имя : E:\раздача\Rokki.Antologija.1976-2006.x264.BDRip.(AVC).DenisNN\Rokki.Balboa.2006.x264.BDRip.(AVC)\Rokki.Balboa.2006.x264.BDRip.(AVC).DenisNN.mkv
Формат : Matroska
Версия формата : Version 2
Размер файла : 3,12 Гбайт
Продолжительность : 1 ч. 41 м.
Общий поток : 4394 Кбит/сек
Дата кодирования : UTC 2011-07-29 20:33:20
Программа кодирования : mkvmerge v4.0.0 ('The Stars were mine') сборка от Jun 6 2010 16:18:42
Библиотека кодирования : libebml v1.0.0 + libmatroska v1.0.0
Видео
Идентификатор : 1
Формат : AVC
Формат/Информация : Advanced Video Codec
Профиль формата : [email protected]
Параметр CABAC формата : Да
Параметр ReFrames формата : 8 кадров
Идентификатор кодека : V_MPEG4/ISO/AVC
Продолжительность : 1 ч. 41 м.
Битрейт : 3500 Кбит/сек
Ширина : 1024 пикс.
Высота : 554 пикс.
Соотношение сторон : 16:9
Частота кадров : 23,976 кадр/сек
Цветовое пространство : YUV
Подвыборка цветности : 4:2:0
Битовая глубина : 8 бит
Тип развёртки : Прогрессивная
Бит/(Пиксели*Кадры) : 0.257
Размер потока : 2,42 Гбайт (78%)
Заголовок : Rip by DenisNN
Библиотека кодирования : x264 core 115 r1995 c1e60b9
Настройки программы : cabac=1 / ref=8 / deblock=1:-2:-2 / analyse=0x3:0x133 / me=hex / subme=9 / psy=1 / psy_rd=1.00:0.00 / mixed_ref=1 / me_range=16 / chroma_me=1 / trellis=2 / 8x8dct=1 / cqm=0 / deadzone=21,11 / fast_pskip=0 / chroma_qp_offset=3 / threads=3 / sliced_threads=0 / nr=0 / decimate=1 / interlaced=0 / bluray_compat=0 / constrained_intra=0 / bframes=5 / b_pyramid=2 / b_adapt=2 / b_bias=0 / direct=3 / weightb=1 / open_gop=0 / weightp=2 / keyint=250 / keyint_min=23 / scenecut=40 / intra_refresh=0 / rc=2pass / mbtree=0 / bitrate=3500 / ratetol=1.0 / qcomp=0.60 / qpmin=10 / qpmax=51 / qpstep=4 / cplxblur=20.0 / qblur=0.5 / ip_ratio=1.40 / pb_ratio=1.30 / aq=2:1.00
Язык : English
Аудио #1
Идентификатор : 2
Формат : AC-3
Формат/Информация : Audio Coding 3
Расширение режима : CM (complete main)
Идентификатор кодека : A_AC3
Продолжительность : 1 ч. 41 м.
Вид битрейта : Постоянный
Битрейт : 448 Кбит/сек
Каналы : 6 каналов
Расположение каналов : Front: L C R, Side: L R, LFE
Частота : 48,0 КГц
Битовая глубина : 16 бит
Метод сжатия : С потерями
Размер потока : 326 Мбайт (10%)
Заголовок : Дубляж
Язык : Russian
Аудио #2
Идентификатор : 3
Формат : AC-3
Формат/Информация : Audio Coding 3
Расширение режима : CM (complete main)
Идентификатор кодека : A_AC3
Продолжительность : 1 ч. 41 м.
Вид битрейта : Постоянный
Битрейт : 448 Кбит/сек
Каналы : 6 каналов
Расположение каналов : Front: L C R, Side: L R, LFE
Частота : 48,0 КГц
Битовая глубина : 16 бит
Метод сжатия : С потерями
Размер потока : 326 Мбайт (10%)
Заголовок : Английский
Язык : English
Текст #1
Идентификатор : 4
Формат : UTF-8
Идентификатор кодека : S_TEXT/UTF8
Идентификатор кодека/Информация : UTF-8 Plain Text
Заголовок : Русские
Язык : Russian
Текст #2
Идентификатор : 5
Формат : UTF-8
Идентификатор кодека : S_TEXT/UTF8
Идентификатор кодека/Информация : UTF-8 Plain Text
Заголовок : Английские
Язык : English
Меню
00:00:00.000 : :Chapter 01
00:11:38.114 : :Chapter 02
00:16:42.876 : :Chapter 03
00:25:20.644 : :Chapter 04
00:30:46.678 : :Chapter 05
00:40:48.654 : :Chapter 06
00:43:18.429 : :Chapter 07
00:46:09.641 : :Chapter 08
00:51:22.579 : :Chapter 09
01:00:41.971 : :Chapter 10
01:05:03.649 : :Chapter 11
01:06:26.565 : :Chapter 12
01:13:23.857 : :Chapter 13
01:21:23.795 : :Chapter 14
01:29:49.008 : :Chapter 15
01:33:10.710 : :Chapter 16

-

Исходник


-

Скриншоты

-Рип от DenisNN

[Цитировать]



Показать сообщения:    

Текущее время: 05-Дек 05:33

Часовой пояс: UTC + 3


Вы не можете начинать темы
Вы не можете отвечать на сообщения
Вы не можете редактировать свои сообщения
Вы не можете удалять свои сообщения
Вы не можете голосовать в опросах
Вы не можете прикреплять файлы к сообщениям
Вы не можете скачивать файлы

!ВНИМАНИЕ!
Сайт не предоставляет электронные версии произведений, а занимается лишь коллекционированием и каталогизацией ссылок, присылаемых и публикуемых на форуме нашими читателями. Если вы являетесь правообладателем какого-либо представленного материала и не желаете, чтобы ссылка на него находилась в нашем каталоге, свяжитесь с нами, и мы незамедлительно удалим ее. Файлы для обмена на трекере предоставлены пользователями сайта, и администрация не несет ответственности за их содержание. Просьба не заливать файлы, защищенные авторскими правами, а также файлы нелегального содержания!