[ Сегодня идет свободное скачивание без начисления Download ]


Статистика раздачи
Нет
 
   
 
Top  
 
 
Фантазм. Квадрология / Phantasm. Quadrilogy -Фантазм / Phantasm
Год выпуска: 1978
Страна:
Жанр: Ужасы, мистика, фантастика, фэнтези
Продолжительность: 01:24:58
Перевод: Профессиональный (многоголосый, закадровый)
Русские субтитры: есть-Режиссер: Дон Коскарелли / Don Coscarelli
В ролях: Майкл Болдуин / Michael Baldwin, Билл Торнбери / Bill Thornbury, Реджи Баннистер / Reggie Bannister, Кати Лестер / Kathy Lester, Энгус Скримм /Angus Scrimm, Терри Калбас / Terrie Kalbus-Описание: Немногим дано встретиться с потусторонними силами. Выжить после такой встречи — еще труднее. Два брата, Майк и Джоди, становятся свидетелями необъяснимых, загадочных явлений на городском кладбище. Они видят призраков, которые бродят по ночам среди могил. На глазах братьев рождаются маленькие, но могущественные демоны; в запечатанных склепах слышится таинственный шорох.
Майку с Джоди удается выяснить, что причина этих явлений — Врата в загадочный, пугающий, чужой мир. У Врат есть Хранитель, «Верзила», вооруженный летающей серебряной сферой, которая буравит головы незваных гостей. Раскрывшим жуткую тайну кладбища братьям и их другу Реджи придется вступить в жестокую схватку с «Верзилой». Победа или мучительная смерть — у них нет иного выбора.
-Качество: DVDRip-AVC
Формат: MKV
Рип от: Exprise-Видео: AVC, 1905 Кбит/сек, 720x384, 25 кадр/сек, 0.276 бит/пиксель
Аудио #1: Русский, AC3, 384 Кбит/сек, 6 каналов, 48.0 КГц | Профессиональный (многоголосый, закадровый) - D2Lab
Аудио #2: Английский, AC3, 384 Кбит/сек, 6 каналов, 48.0 КГц | Оригинал
Аудио #3: Русский, AC3, 192 Кбит/сек, 2 канала, 48.0 КГц | Комментарии
Субтитры: Русские, Английские- -

MediaInfo

Полное имя                       : D:\Phantasm\Phantasm.mkv
Формат                           : Matroska
Размер файла                     : 1,70 Гбайт
Продолжительность                : 1 ч. 24 м.
Общий поток                      : 2870 Кбит/сек
Дата кодирования                 : UTC 2011-05-30 21:11:59
Программа кодирования            : mkvmerge v4.6.0 ('Still Crazy After All These Years') сборка от Mar 10 2011 02:50:32
Библиотека кодирования           : libebml v1.2.0 + libmatroska v1.1.0
Видео
Идентификатор                    : 1
Формат                           : AVC
Формат/Информация                : Advanced Video Codec
Профиль формата                  : [email protected]
Параметр CABAC формата           : Да
Параметр ReFrames формата        : 8 кадры
Идентификатор кодека             : V_MPEG4/ISO/AVC
Продолжительность                : 1 ч. 24 м.
Битрейт                          : 1905 Кбит/сек
Ширина                           : 720 пикс.
Высота                           : 384 пикс.
Соотношение сторон               : 1,875
Частота кадров                   : 25,000 кадр/сек
Цветовое пространство            : YUV
Подвыборка цветности             : 4:2:0
Битовая глубина                  : 8 бит
Тип развёртки                    : Прогрессивная
Бит/(Пиксели*Кадры)              : 0.276
Размер потока                    : 1,10 Гбайт (65%)
Библиотека кодирования           : x264 core 112 r1867 22bfd31
Настройки программы              : cabac=1 / ref=8 / deblock=1:0:0 / analyse=0x3:0x133 / me=umh / subme=7 / psy=1 / psy_rd=1.00:0.00 / mixed_ref=1 / me_range=32 / chroma_me=1 / trellis=1 / 8x8dct=1 / cqm=0 / deadzone=21,11 / fast_pskip=0 / chroma_qp_offset=-2 / threads=6 / sliced_threads=0 / nr=0 / decimate=1 / interlaced=0 / constrained_intra=0 / bframes=3 / b_pyramid=2 / b_adapt=2 / b_bias=0 / direct=3 / weightb=1 / open_gop=0 / weightp=2 / keyint=250 / keyint_min=25 / scenecut=40 / intra_refresh=0 / rc_lookahead=40 / rc=2pass / mbtree=1 / bitrate=1905 / ratetol=1.0 / qcomp=0.60 / qpmin=0 / qpmax=51 / qpstep=4 / cplxblur=20.0 / qblur=0.5 / ip_ratio=1.40 / aq=1:1.00
Язык                             : Russian
Аудио #1
Идентификатор                    : 2
Формат                           : AC-3
Формат/Информация                : Audio Coding 3
Расширение режима                : CM (complete main)
Идентификатор кодека             : A_AC3
Продолжительность                : 1 ч. 24 м.
Вид битрейта                     : Постоянный
Битрейт                          : 384 Кбит/сек
Канал(ы)                         : 6 канала(ов)
Расположение каналов             : Front: L C R, Side: L R, LFE
Частота                          : 48,0 КГц
Битовая глубина                  : 16 бит
Метод сжатия                     : С потерями
Размер потока                    : 233 Мбайт (13%)
Заголовок                        : MVO
Язык                             : Russian
Аудио #2
Идентификатор                    : 3
Формат                           : AC-3
Формат/Информация                : Audio Coding 3
Расширение режима                : CM (complete main)
Идентификатор кодека             : A_AC3
Продолжительность                : 1 ч. 24 м.
Вид битрейта                     : Постоянный
Битрейт                          : 384 Кбит/сек
Канал(ы)                         : 6 канала(ов)
Расположение каналов             : Front: L C R, Side: L R, LFE
Частота                          : 48,0 КГц
Битовая глубина                  : 16 бит
Метод сжатия                     : С потерями
Размер потока                    : 233 Мбайт (13%)
Заголовок                        : Original
Язык                             : English
Аудио #3
Идентификатор                    : 4
Формат                           : AC-3
Формат/Информация                : Audio Coding 3
Расширение режима                : CM (complete main)
Идентификатор кодека             : A_AC3
Продолжительность                : 1 ч. 24 м.
Вид битрейта                     : Постоянный
Битрейт                          : 192 Кбит/сек
Канал(ы)                         : 2 канала(ов)
Расположение каналов             : Front: L R
Частота                          : 48,0 КГц
Битовая глубина                  : 16 бит
Метод сжатия                     : С потерями
Размер потока                    : 117 Мбайт (7%)
Заголовок                        : Сomments
Язык                             : Russian
Текст #1
Идентификатор                    : 5
Формат                           : VobSub
Идентификатор кодека             : S_VOBSUB
Идентификатор кодека/Информация  : The same subtitle format used on DVDs
Язык                             : Russian
Текст #2
Идентификатор                    : 6
Формат                           : VobSub
Идентификатор кодека             : S_VOBSUB
Идентификатор кодека/Информация  : The same subtitle format used on DVDs
Язык                             : English

Скриншоты

Знаете ли вы, что...

- Дон Коскарелли в своем интервью сказал, что в Верзиле хотел воплотить саму смерть.
- Мать Дона Коскарелли занималась костюмами и гримом.
- На роль Майка первоначально проходил пробы Брэд Питт.
- Первоначальный хронометраж фильма составлял 3 часа.
- В фильме есть несколько отсылок к книге Фрэнка Герберта «Дюна», например — бар под названием «Дюна».
- В сцене похорон снимались родители Дона Коскарелли и Реджи Баннистера.
- Роли гномов исполняли дети.
- Сценарий фильма был написан за три недели Доном Коскарелли в уединении в собственном горном домике.
- Съёмки фильма осуществлялись на камеры Panavision. Чтобы сэкономить деньги, выделенные ему отцом для съёмок фильма (около 300 тысяч долларов), Коскарелли арендовывал дорогое оборудование по пятницам, использовал их на выходных, а возвращал в понедельник оплачивая аренду за один рабочий день.
- Интерьеры похоронного дома были выстроены в помещении старого склада вместе с Полом Пеперманом - со-продюсер фильма и давний приятель Коскарелли. Экстерьеры дома снимали в Окланде (Калифорния) со старинного викторианского особняка, который также снимали для фильма ужасов «Burnt Offerings» (1976) и для одной из серии фильмов про Джеймса Бонда - «Вид на убийство»(1985)
-Фантазм II / Phantasm II
Год выпуска: 1988
Страна:
Жанр: Ужасы, мистика, фантастика, фэнтези
Продолжительность: 01:32:34
Перевод: Профессиональный (многоголосый, закадровый)
Русские субтитры: есть-Режиссер: Дон Коскарелли / Don Coscarelli
В ролях: Джеймс Ле Грос / James Le Gros, Реджи Бэннистер / Reggie Bannister, Энгус Скримм / Angus Scrimm, Пола Ирвайн / Paula Irvine, Саманта Филлипс / Samantha Phillips-Описание: «Верзила» возвращается! Смертельным вихрем мчится он по Западу США, окруженный на сей раз целым легионом Серебряных Сфер и демонов, ставших еще быстрее и опаснее.
Только его противники, Майк и Реджи, способны сполна оценить угрозу, исходящую от зловещего мертвеца. Приняв в свою команду ясновидящую красавицу Лиз, друзья решают навеки покончить с «Верзилой». Если он не уничтожит их раньше…
-Качество: DVDRip-AVC
Формат: MKV
Рип от: Exprise-Видео: AVC, 1905 Кбит/сек, 720x384, 25 кадр/сек, 0.276 бит/пиксель
Аудио #1: Русский, AC3, 384 Кбит/сек, 6 каналов, 48.0 КГц | Профессиональный (многоголосый, закадровый) - D2Lab
Аудио #2: Английский, AC3, 384 Кбит/сек, 6 каналов, 48.0 КГц | Оригинал
Аудио #3: Русский, AC3, 192 Кбит/сек, 2 канала, 48.0 КГц | Комментарии
Субтитры: Русские, Английские
- -

MediaInfo

Полное имя                       : D:\Phantasm\Phantasm II.mkv
Формат                           : Matroska
Размер файла                     : 1,86 Гбайт
Продолжительность                : 1 ч. 32 м.
Общий поток                      : 2870 Кбит/сек
Дата кодирования                 : UTC 2011-05-31 09:47:57
Программа кодирования            : mkvmerge v4.6.0 ('Still Crazy After All These Years') сборка от Mar 10 2011 02:50:32
Библиотека кодирования           : libebml v1.2.0 + libmatroska v1.1.0
Видео
Идентификатор                    : 1
Формат                           : AVC
Формат/Информация                : Advanced Video Codec
Профиль формата                  : [email protected]
Параметр CABAC формата           : Да
Параметр ReFrames формата        : 8 кадры
Идентификатор кодека             : V_MPEG4/ISO/AVC
Продолжительность                : 1 ч. 32 м.
Битрейт                          : 1905 Кбит/сек
Ширина                           : 720 пикс.
Высота                           : 384 пикс.
Соотношение сторон               : 1,875
Частота кадров                   : 25,000 кадр/сек
Цветовое пространство            : YUV
Подвыборка цветности             : 4:2:0
Битовая глубина                  : 8 бит
Тип развёртки                    : Прогрессивная
Бит/(Пиксели*Кадры)              : 0.276
Размер потока                    : 1,20 Гбайт (65%)
Библиотека кодирования           : x264 core 112 r1867 22bfd31
Настройки программы              : cabac=1 / ref=8 / deblock=1:0:0 / analyse=0x3:0x133 / me=umh / subme=7 / psy=1 / psy_rd=1.00:0.00 / mixed_ref=1 / me_range=32 / chroma_me=1 / trellis=1 / 8x8dct=1 / cqm=0 / deadzone=21,11 / fast_pskip=0 / chroma_qp_offset=-2 / threads=6 / sliced_threads=0 / nr=0 / decimate=1 / interlaced=0 / constrained_intra=0 / bframes=3 / b_pyramid=2 / b_adapt=2 / b_bias=0 / direct=3 / weightb=1 / open_gop=0 / weightp=2 / keyint=250 / keyint_min=25 / scenecut=40 / intra_refresh=0 / rc_lookahead=40 / rc=2pass / mbtree=1 / bitrate=1905 / ratetol=1.0 / qcomp=0.60 / qpmin=0 / qpmax=51 / qpstep=4 / cplxblur=20.0 / qblur=0.5 / ip_ratio=1.40 / aq=1:1.00
Язык                             : Russian
Аудио #1
Идентификатор                    : 2
Формат                           : AC-3
Формат/Информация                : Audio Coding 3
Расширение режима                : CM (complete main)
Идентификатор кодека             : A_AC3
Продолжительность                : 1 ч. 32 м.
Вид битрейта                     : Постоянный
Битрейт                          : 384 Кбит/сек
Канал(ы)                         : 6 канала(ов)
Расположение каналов             : Front: L C R, Side: L R, LFE
Частота                          : 48,0 КГц
Битовая глубина                  : 16 бит
Метод сжатия                     : С потерями
Размер потока                    : 254 Мбайт (13%)
Заголовок                        : MVO
Язык                             : Russian
Аудио #2
Идентификатор                    : 3
Формат                           : AC-3
Формат/Информация                : Audio Coding 3
Расширение режима                : CM (complete main)
Идентификатор кодека             : A_AC3
Продолжительность                : 1 ч. 32 м.
Вид битрейта                     : Постоянный
Битрейт                          : 384 Кбит/сек
Канал(ы)                         : 6 канала(ов)
Расположение каналов             : Front: L C R, Side: L R, LFE
Частота                          : 48,0 КГц
Битовая глубина                  : 16 бит
Метод сжатия                     : С потерями
Размер потока                    : 254 Мбайт (13%)
Заголовок                        : Original
Язык                             : English
Аудио #3
Идентификатор                    : 4
Формат                           : AC-3
Формат/Информация                : Audio Coding 3
Расширение режима                : CM (complete main)
Идентификатор кодека             : A_AC3
Продолжительность                : 1 ч. 32 м.
Вид битрейта                     : Постоянный
Битрейт                          : 192 Кбит/сек
Канал(ы)                         : 2 канала(ов)
Расположение каналов             : Front: L R
Частота                          : 48,0 КГц
Битовая глубина                  : 16 бит
Метод сжатия                     : С потерями
Размер потока                    : 127 Мбайт (7%)
Заголовок                        : Сomments
Язык                             : Russian
Текст #1
Идентификатор                    : 5
Формат                           : VobSub
Идентификатор кодека             : S_VOBSUB
Идентификатор кодека/Информация  : The same subtitle format used on DVDs
Язык                             : Russian
Текст #2
Идентификатор                    : 6
Формат                           : VobSub
Идентификатор кодека             : S_VOBSUB
Идентификатор кодека/Информация  : The same subtitle format used on DVDs
Язык                             : English

Скриншоты

Знаете ли вы, что...

- В сцене в крематории, на мешках, в которые собирается пепел, есть имя Сэма Рэйми — режиссёра трилогии о зловещих мертвецах.
- На роль Майка пробовался Брэд Питт.
- На одном из могильных камней можно прочитать имя Алекса Мерфи (имя полицейского в фильме Робокоп)
.
-Фантазм III: Повелитель мертвых / Phantasm III: Lord of the Dead
Год выпуска: 1994
Страна:
Жанр: Ужасы, мистика, фантастика, фэнтези
Продолжительность: 01:27:19
Перевод: Профессиональный (многоголосый, закадровый)
Русские субтитры: есть-Режиссер: Дон Коскарелли / Don Coscarelli
В ролях: Реджи Бэннистер / Reggie Bannister, Майкл Болдуин / Michael Baldwin, Билл Торнбери / Bill Thornbury, Глория Линн Хенри / Gloria Lynne Henry, Кевин Коннорс / Kevin Connors, Синди Эмбюел / Cindy Ambuehl-Описание: Борьба Майка и Реджи с кошмарным `Верзилой`, сеющим смерть и разрушения на нашей планете, продолжается… Убийца и его ужасные зомби опустошают города, оставляя за собою смерть и мрак. Отважные друзья идут по следу этой нечисти, чтобы спасти цивилизацию от неминуемой гибели.-Качество: DVDRip-AVC
Формат: MKV
Рип от: Exprise-Видео: AVC, 1905 Кбит/сек, 720x384, 25 кадр/сек, 0.276 бит/пиксель
Аудио #1: Русский, AC3, 384 Кбит/сек, 6 каналов, 48.0 КГц | Профессиональный (многоголосый, закадровый) - D2Lab
Аудио #2: Английский, AC3, 384 Кбит/сек, 6 каналов, 48.0 КГц | Оригинал
Аудио #3: Русский, AC3, 192 Кбит/сек, 2 канала, 48.0 КГц | Комментарии
Субтитры: Русские, Английские- -

MediaInfo

Полное имя                       : D:\Phantasm\Phantasm III.mkv
Формат                           : Matroska
Размер файла                     : 1,75 Гбайт
Продолжительность                : 1 ч. 27 м.
Общий поток                      : 2872 Кбит/сек
Дата кодирования                 : UTC 2011-05-31 09:53:20
Программа кодирования            : mkvmerge v4.6.0 ('Still Crazy After All These Years') сборка от Mar 10 2011 02:50:32
Библиотека кодирования           : libebml v1.2.0 + libmatroska v1.1.0
Видео
Идентификатор                    : 1
Формат                           : AVC
Формат/Информация                : Advanced Video Codec
Профиль формата                  : [email protected]
Параметр CABAC формата           : Да
Параметр ReFrames формата        : 8 кадры
Идентификатор кодека             : V_MPEG4/ISO/AVC
Продолжительность                : 1 ч. 27 м.
Битрейт                          : 1905 Кбит/сек
Ширина                           : 720 пикс.
Высота                           : 384 пикс.
Соотношение сторон               : 1,875
Частота кадров                   : 25,000 кадр/сек
Цветовое пространство            : YUV
Подвыборка цветности             : 4:2:0
Битовая глубина                  : 8 бит
Тип развёртки                    : Прогрессивная
Бит/(Пиксели*Кадры)              : 0.276
Размер потока                    : 1,13 Гбайт (65%)
Библиотека кодирования           : x264 core 112 r1867 22bfd31
Настройки программы              : cabac=1 / ref=8 / deblock=1:0:0 / analyse=0x3:0x133 / me=umh / subme=7 / psy=1 / psy_rd=1.00:0.00 / mixed_ref=1 / me_range=32 / chroma_me=1 / trellis=1 / 8x8dct=1 / cqm=0 / deadzone=21,11 / fast_pskip=0 / chroma_qp_offset=-2 / threads=6 / sliced_threads=0 / nr=0 / decimate=1 / interlaced=0 / constrained_intra=0 / bframes=3 / b_pyramid=2 / b_adapt=2 / b_bias=0 / direct=3 / weightb=1 / open_gop=0 / weightp=2 / keyint=250 / keyint_min=25 / scenecut=40 / intra_refresh=0 / rc_lookahead=40 / rc=2pass / mbtree=1 / bitrate=1905 / ratetol=1.0 / qcomp=0.60 / qpmin=0 / qpmax=51 / qpstep=4 / cplxblur=20.0 / qblur=0.5 / ip_ratio=1.40 / aq=1:1.00
Язык                             : Russian
Аудио #1
Идентификатор                    : 2
Формат                           : AC-3
Формат/Информация                : Audio Coding 3
Расширение режима                : CM (complete main)
Идентификатор кодека             : A_AC3
Продолжительность                : 1 ч. 27 м.
Вид битрейта                     : Постоянный
Битрейт                          : 384 Кбит/сек
Канал(ы)                         : 6 канала(ов)
Расположение каналов             : Front: L C R, Side: L R, LFE
Частота                          : 48,0 КГц
Битовая глубина                  : 16 бит
Метод сжатия                     : С потерями
Размер потока                    : 240 Мбайт (13%)
Заголовок                        : MVO
Язык                             : Russian
Аудио #2
Идентификатор                    : 3
Формат                           : AC-3
Формат/Информация                : Audio Coding 3
Расширение режима                : CM (complete main)
Идентификатор кодека             : A_AC3
Продолжительность                : 1 ч. 27 м.
Вид битрейта                     : Постоянный
Битрейт                          : 384 Кбит/сек
Канал(ы)                         : 6 канала(ов)
Расположение каналов             : Front: L C R, Side: L R, LFE
Частота                          : 48,0 КГц
Битовая глубина                  : 16 бит
Метод сжатия                     : С потерями
Размер потока                    : 240 Мбайт (13%)
Заголовок                        : Original
Язык                             : English
Аудио #3
Идентификатор                    : 4
Формат                           : AC-3
Формат/Информация                : Audio Coding 3
Расширение режима                : CM (complete main)
Идентификатор кодека             : A_AC3
Продолжительность                : 1 ч. 27 м.
Вид битрейта                     : Постоянный
Битрейт                          : 192 Кбит/сек
Канал(ы)                         : 2 канала(ов)
Расположение каналов             : Front: L R
Частота                          : 48,0 КГц
Битовая глубина                  : 16 бит
Метод сжатия                     : С потерями
Размер потока                    : 120 Мбайт (7%)
Заголовок                        : Comments
Язык                             : Russian
Текст #1
Идентификатор                    : 5
Формат                           : VobSub
Идентификатор кодека             : S_VOBSUB
Идентификатор кодека/Информация  : The same subtitle format used on DVDs
Язык                             : Russian
Текст #2
Идентификатор                    : 6
Формат                           : VobSub
Идентификатор кодека             : S_VOBSUB
Идентификатор кодека/Информация  : The same subtitle format used on DVDs
Язык                             : English

Скриншоты

Знаете ли вы, что...

- Компания Universal отказалась участвовать в производстве третьего фильма после не очень хороших кассовых сборов второй части и больше не ограничивала режиссёра в выборе актёров. Дон Коскарелли отдал роль Майкла Пирсона Майклу Болдуину, который спустя 15 лет смог вернуться к своему персонажу, которого он играл в первом фильме.
- Кэти Лестер, игравшая в первом фильме, появилась в продолжении в камео медсестры.
- В конце фильма можно увидеть несколько изменённое стандартное предупреждение, в котором присутствуют слова: «Любое совпадение с реальными событиями и людьми, мёртвыми или живыми, является случайным». В дополнение к судебному разбирательству нарушители авторского права также попадают под «гнев Высокого Человека».
- Съёмки третьей части были начаты в конце 1992 года, а на экраны фильм вышел только в 1994
.
-Фантазм IV: Забвение / Phantasm IV: Oblivion
Год выпуска: 1998
Страна:
Жанр: Ужасы, мистика, фантастика, фэнтези
Продолжительность: 01:26:14
Перевод: Профессиональный (многоголосый, закадровый)
Русские субтитры: есть-Режиссер: Дон Коскарелли / Don Coscarelli
В ролях: Реджи Бэннистер / Reggie Bannister, Майкл Болдуин / Michael Baldwin, Билл Торнбери / Bill Thornbury, Энгус Скримм / Angus Scrim/, Эйди Мэрнаут / Heidi Marnhout, Боб Айви / Bob Ivy-Описание: В этой части выясняется, что Высокий человек раньше был хирургом и сконструировал непонятный аппарат для путешествия в параллельный мир, где ему имплантировали в голову сферу с некой мыслящей субстанцией, приказывавающей ездить по городам и делать из людей зомби…-Качество: DVDRip-AVC
Формат: MKV
Рип от: Exprise-Видео: AVC, 1905 Кбит/сек, 720x384, 25 кадр/сек, 0.276 бит/пиксель
Аудио #1: Русский, AC3, 384 Кбит/сек, 6 каналов, 48.0 КГц | Профессиональный (многоголосый, закадровый) - D2Lab
Аудио #2: Английский, AC3, 384 Кбит/сек, 6 каналов, 48.0 КГц | Оригинал
Аудио #3: Русский, AC3, 192 Кбит/сек, 2 канала, 48.0 КГц | Комментарии
Субтитры: Русские, Английские
- -

MediaInfo

Полное имя                       : D:\Phantasm\Phantasm IV.mkv
Формат                           : Matroska
Размер файла                     : 1,73 Гбайт
Продолжительность                : 1 ч. 26 м.
Общий поток                      : 2871 Кбит/сек
Дата кодирования                 : UTC 2011-05-31 09:55:41
Программа кодирования            : mkvmerge v4.6.0 ('Still Crazy After All These Years') сборка от Mar 10 2011 02:50:32
Библиотека кодирования           : libebml v1.2.0 + libmatroska v1.1.0
Видео
Идентификатор                    : 1
Формат                           : AVC
Формат/Информация                : Advanced Video Codec
Профиль формата                  : [email protected]
Параметр CABAC формата           : Да
Параметр ReFrames формата        : 8 кадры
Идентификатор кодека             : V_MPEG4/ISO/AVC
Продолжительность                : 1 ч. 26 м.
Битрейт                          : 1905 Кбит/сек
Ширина                           : 720 пикс.
Высота                           : 384 пикс.
Соотношение сторон               : 1,875
Частота кадров                   : 25,000 кадр/сек
Цветовое пространство            : YUV
Подвыборка цветности             : 4:2:0
Битовая глубина                  : 8 бит
Тип развёртки                    : Прогрессивная
Бит/(Пиксели*Кадры)              : 0.276
Размер потока                    : 1,12 Гбайт (65%)
Библиотека кодирования           : x264 core 112 r1867 22bfd31
Настройки программы              : cabac=1 / ref=8 / deblock=1:0:0 / analyse=0x3:0x133 / me=umh / subme=7 / psy=1 / psy_rd=1.00:0.00 / mixed_ref=1 / me_range=32 / chroma_me=1 / trellis=1 / 8x8dct=1 / cqm=0 / deadzone=21,11 / fast_pskip=0 / chroma_qp_offset=-2 / threads=6 / sliced_threads=0 / nr=0 / decimate=1 / interlaced=0 / constrained_intra=0 / bframes=3 / b_pyramid=2 / b_adapt=2 / b_bias=0 / direct=3 / weightb=1 / open_gop=0 / weightp=2 / keyint=250 / keyint_min=25 / scenecut=40 / intra_refresh=0 / rc_lookahead=40 / rc=2pass / mbtree=1 / bitrate=1905 / ratetol=1.0 / qcomp=0.60 / qpmin=0 / qpmax=51 / qpstep=4 / cplxblur=20.0 / qblur=0.5 / ip_ratio=1.40 / aq=1:1.00
Язык                             : Russian
Аудио #1
Идентификатор                    : 2
Формат                           : AC-3
Формат/Информация                : Audio Coding 3
Расширение режима                : CM (complete main)
Идентификатор кодека             : A_AC3
Продолжительность                : 1 ч. 26 м.
Вид битрейта                     : Постоянный
Битрейт                          : 384 Кбит/сек
Канал(ы)                         : 6 канала(ов)
Расположение каналов             : Front: L C R, Side: L R, LFE
Частота                          : 48,0 КГц
Битовая глубина                  : 16 бит
Метод сжатия                     : С потерями
Размер потока                    : 237 Мбайт (13%)
Заголовок                        : MVO
Язык                             : Russian
Аудио #2
Идентификатор                    : 3
Формат                           : AC-3
Формат/Информация                : Audio Coding 3
Расширение режима                : CM (complete main)
Идентификатор кодека             : A_AC3
Продолжительность                : 1 ч. 26 м.
Вид битрейта                     : Постоянный
Битрейт                          : 384 Кбит/сек
Канал(ы)                         : 6 канала(ов)
Расположение каналов             : Front: L C R, Side: L R, LFE
Частота                          : 48,0 КГц
Битовая глубина                  : 16 бит
Метод сжатия                     : С потерями
Размер потока                    : 237 Мбайт (13%)
Заголовок                        : Original
Язык                             : English
Аудио #3
Идентификатор                    : 4
Формат                           : AC-3
Формат/Информация                : Audio Coding 3
Расширение режима                : CM (complete main)
Идентификатор кодека             : A_AC3
Продолжительность                : 1 ч. 26 м.
Вид битрейта                     : Постоянный
Битрейт                          : 192 Кбит/сек
Канал(ы)                         : 2 канала(ов)
Расположение каналов             : Front: L R
Частота                          : 48,0 КГц
Битовая глубина                  : 16 бит
Метод сжатия                     : С потерями
Размер потока                    : 118 Мбайт (7%)
Заголовок                        : Comments
Язык                             : Russian
Текст #1
Идентификатор                    : 5
Формат                           : VobSub
Идентификатор кодека             : S_VOBSUB
Идентификатор кодека/Информация  : The same subtitle format used on DVDs
Язык                             : Russian
Текст #2
Идентификатор                    : 6
Формат                           : VobSub
Идентификатор кодека             : S_VOBSUB
Идентификатор кодека/Информация  : The same subtitle format used on DVDs
Язык                             : English

Скриншоты

Знаете ли вы, что...

- Фильм практически наполовину состоит из фрагментов предыдущих трех картин, поданных в виде воспоминаний Майка.
- Фильм был снят за 23 дня.
- Из-за низкого бюджета съёмочная группа не имела возможности перекрыть одну из самых широких улиц Лос-Анджелеса, которая по сюжету должна была быть пустынной. Вместо этого съёмки были назначены на раннее утро после Дня Благодарения, и улица действительна оказалась абсолютно пустынной в течение 10 минут
.

-

[Цитировать]



Показать сообщения:    

Текущее время: 06-Дек 11:20

Часовой пояс: UTC + 3


Вы не можете начинать темы
Вы не можете отвечать на сообщения
Вы не можете редактировать свои сообщения
Вы не можете удалять свои сообщения
Вы не можете голосовать в опросах
Вы не можете прикреплять файлы к сообщениям
Вы не можете скачивать файлы

!ВНИМАНИЕ!
Сайт не предоставляет электронные версии произведений, а занимается лишь коллекционированием и каталогизацией ссылок, присылаемых и публикуемых на форуме нашими читателями. Если вы являетесь правообладателем какого-либо представленного материала и не желаете, чтобы ссылка на него находилась в нашем каталоге, свяжитесь с нами, и мы незамедлительно удалим ее. Файлы для обмена на трекере предоставлены пользователями сайта, и администрация не несет ответственности за их содержание. Просьба не заливать файлы, защищенные авторскими правами, а также файлы нелегального содержания!