[ Сегодня идет свободное скачивание без начисления Download ]


Статистика раздачи
Нет
 
   
 
Top  
 
 
-Спаркл / Sparkle (2012) BDRip«Celebrate the Legend.»- Русское название: Спаркл
Оригинальное название: Sparkle
Год выпуска: 2012
Производство: США | Akil Production Company, Sony Pictures Entertainment (SPE)
Жанр: Драма, Музыка
Перевод: Профессиональный (Многоголосый закадровый) [Лицензия]
Субтитры: Нет.-Дата мировой премьеры: 17 августа 2012
Дата выхода DVD релиза: 4 декабря 2012, «Columbia/Sony»
Дата выхода Blu-Ray релиза: 4 декабря 2012, «Columbia/Sony»-Режиссер: Салим Акил-Продюсер: Дебра Мартин Чейз, T.D. Jakes, Кертис Уоллес-Актеры: Джордин Спаркс, Уитни Хьюстон, Дерек Люк, Майк Эппс, Кармен Эджого, Тика Самптер, Омари Хардвик, Си-Ло, Кертис Армстронг, Терренс Дженкинс-Описание фильма:
Действие разворачивается в 60-е годы, когда три сестры организовали девичью группу и вскоре стали звездами Мотауна. Но у славы есть и другая сторона — дружная семья постепенно начинает разваливаться.- -Продолжительность: 01:56:15
Качество видео: BDRip
Видеокодек: MPEG-4 AVC/H.264
Формат: MKV
Видео: 1280x528, 2309 Кбит/сек, 23,976 кадр/сек, AVC, x264, 2,40:1, 0.142 Бит/[Пиксели*Кадры], 2pass
Аудио: AC-3, 384 Кбит/сек, 6 канала(ов), 48,0 КГц Русский-

MediaInfo:

General
Unique ID : 231367799177025664975807956493226600720 (0xAE0FD137F6E9FB5EACE445CF3299E910)
Complete name : C:\Спаркл Sparkle (2012) [H.264. 720p-LQ].mkv
Format : Matroska
Format version : Version 2
File size : 2.19 GiB
Duration : 1h 56mn
Overall bit rate : 2 691 Kbps
Encoded date : UTC 2012-11-29 17:32:11
Writing application : mkvmerge v5.5.0 ('Healer') built on Apr 6 2012 21:43:24
Writing library : libebml v1.2.3 + libmatroska v1.3.0
Video
ID : 1
Format : AVC
Format/Info : Advanced Video Codec
Format profile : High@L3.1
Format settings, CABAC : Yes
Format settings, ReFrames : 4 frames
Codec ID : V_MPEG4/ISO/AVC
Duration : 1h 56mn
Bit rate : 2 309 Kbps
Width : 1 280 pixels
Height : 528 pixels
Display aspect ratio : 2.40:1
Original display aspect ratio : 2.40:1
Frame rate mode : Constant
Frame rate : 23.976 fps
Color space : YUV
Chroma subsampling : 4:2:0
Bit depth : 8 bits
Scan type : Progressive
Bits/(Pixel*Frame) : 0.142
Stream size : 1.83 GiB (84%)
Title : Спаркл
Writing library : x264 core 129 r2230 1cffe9f
Encoding settings : cabac=1 / ref=4 / deblock=1:0:0 / analyse=0x3:0x133 / me=hex / subme=7 / psy=1 / psy_rd=1.00:0.00 / mixed_ref=1 / me_range=16 / chroma_me=1 / trellis=1 / 8x8dct=1 / cqm=0 / deadzone=21,11 / fast_pskip=1 / chroma_qp_offset=-2 / threads=12 / lookahead_threads=2 / sliced_threads=0 / nr=0 / decimate=1 / interlaced=0 / bluray_compat=0 / constrained_intra=0 / bframes=3 / b_pyramid=2 / b_adapt=1 / b_bias=0 / direct=1 / weightb=1 / open_gop=0 / weightp=2 / keyint=240 / keyint_min=23 / scenecut=40 / intra_refresh=0 / rc_lookahead=40 / rc=2pass / mbtree=1 / bitrate=2309 / ratetol=1.0 / qcomp=0.60 / qpmin=10 / qpmax=51 / qpstep=4 / cplxblur=20.0 / qblur=0.5 / ip_ratio=1.40 / aq=1:1.00
Language : English
Default : Yes
Forced : No
Audio
ID : 2
Format : AC-3
Format/Info : Audio Coding 3
Mode extension : CM (complete main)
Format settings, Endianness : Big
Codec ID : A_AC3
Duration : 1h 56mn
Bit rate mode : Constant
Bit rate : 384 Kbps
Channel(s) : 6 channels
Channel positions : Front: L C R, Side: L R, LFE
Sampling rate : 48.0 KHz
Bit depth : 16 bits
Compression mode : Lossy
Stream size : 319 MiB (14%)
Title : Закадровый многоголосый
Language : Russian
Default : Yes
Forced : No
Скриншоты:
Время раздачи: С 23:00 до 8:30 (24/7 - круглосуточно)

[Цитировать]

Топик был перенесен из форума Новинки кинопроката в форум Драма
Henkok



Показать сообщения:    

Текущее время: 10-Дек 19:30

Часовой пояс: UTC + 3


Вы не можете начинать темы
Вы не можете отвечать на сообщения
Вы не можете редактировать свои сообщения
Вы не можете удалять свои сообщения
Вы не можете голосовать в опросах
Вы не можете прикреплять файлы к сообщениям
Вы не можете скачивать файлы

!ВНИМАНИЕ!
Сайт не предоставляет электронные версии произведений, а занимается лишь коллекционированием и каталогизацией ссылок, присылаемых и публикуемых на форуме нашими читателями. Если вы являетесь правообладателем какого-либо представленного материала и не желаете, чтобы ссылка на него находилась в нашем каталоге, свяжитесь с нами, и мы незамедлительно удалим ее. Файлы для обмена на трекере предоставлены пользователями сайта, и администрация не несет ответственности за их содержание. Просьба не заливать файлы, защищенные авторскими правами, а также файлы нелегального содержания!