[ Today is free to download without increasing Download ]

DL-List and Torrent activity
-Линкольн / Lincoln (2012) HDRip- Русское название: Линкольн
Оригинальное название: Lincoln
Год выпуска: 2012
Производство: США | DreamWorks SKG, Twentieth Century Fox Film Corporation
Жанр: Драма, Военный, Биография, История
Перевод: Профессиональный многоголосый [BaiBako]
Субтитры: Отсутствуют-Дата мировой премьеры: 8 октября 2012
Дата российской премьеры: 24 января 2013, «Двадцатый Век Фокс СНГ»
Дата выхода DVD релиза: 16 мая 2013, «Двадцатый Век Фокс СНГ»
Дата выхода Blu-Ray релиза: 16 мая 2013, «Двадцатый Век Фокс СНГ»-Режиссер: Стивен Спилберг
Продюсер: Стивен Спилберг, Кэтлин Кеннеди, Джонатан Кинг
Актеры: Дэниэл Дэй-Льюис, Салли Филд, Джозеф Гордон-Левитт, Джеймс Спэйдер, Хэл Холбрук, Томми Ли Джонс, Джон Хоукс, Джеки Эрл Хейли, Брюс МакГилл ...-Описание фильма:
Биографическая лента об Аврааме Линкольне, шестнадцатом президенте США, который внес неоценимый вклад в победу северян во времена гражданской войны.-
Российское возрастное ограничение: 16+ (зрителям, достигшим 16 лет)-Продолжительность: 02:29:57
Качество видео: HDRip
Видеокодек: XviD
Битрейт видео: ~1172 Кбит/сек
Размер кадра: 720x304
Аудиокодек: AC3, 2 ch
Битрейт аудио: 192 Кбит/сек


Complete name                  : E:\Фильмы\Lincoln.2012.MVO.HDRip.1400MB.NNM-Club.ru.avi
Format                         : AVI
Format/Info                    : Audio Video Interleave
File size                      : 1.44 GiB
Duration                       : 2h 29mn
Overall bit rate               : 1 374 Kbps
Movie name                     : Lincoln.2012.MVO.HDRip.1400MB.NNM-Club.ru
Director                       : Liones / NNM-Club.ru
Writing application            : VirtualDubMod | [url=http://www.virtualdub-fr.org]www.virtualdub-fr.org[/url] || (build 2550/release)
Writing library                : VirtualDubMod build 2550/release
Copyright                      : Liones / NNM-Club.ru
ID                             : 0
Format                         : MPEG-4 Visual
Format profile                 : Advanced Simple@L5
Format settings, BVOP          : 2
Format settings, QPel          : No
Format settings, GMC           : No warppoints
Format settings, Matrix        : Default (MPEG)
Muxing mode                    : Packed bitstream
Codec ID                       : XVID
Codec ID/Hint                  : XviD
Duration                       : 2h 29mn
Bit rate                       : 1 172 Kbps
Width                          : 720 pixels
Height                         : 304 pixels
Display aspect ratio           : 2.35:1
Frame rate                     : 23.976 fps
Color space                    : YUV
Chroma subsampling             : 4:2:0
Bit depth                      : 8 bits
Scan type                      : Progressive
Compression mode               : Lossy
Bits/(Pixel*Frame)             : 0.223
Stream size                    : 1.23 GiB (85%)
Writing library                : XviD 1.2.1 (UTC 2008-12-04)
ID                             : 1
Format                         : AC-3
Format/Info                    : Audio Coding 3
Mode extension                 : CM (complete main)
Format settings, Endianness    : Big
Codec ID                       : 2000
Duration                       : 2h 29mn
Bit rate mode                  : Constant
Bit rate                       : 192 Kbps
Channel(s)                     : 2 channels
Channel positions              : Front: L R
Sampling rate                  : 48.0 KHz
Bit depth                      : 16 bits
Compression mode               : Lossy
Stream size                    : 206 MiB (14%)
Alignment                      : Split accross interleaves
Interleave, duration           : 42 ms (1.00 video frame)
Interleave, preload duration   : 500 ms

-Время раздачи: 24/7 до 10 скачавших, далее по возможности


Топик был перенесен из форума Новинки кинопроката в форум Драма

Display posts:    

Current time is: 21-Oct 00:26

All times are UTC + 3

You cannot post new topics in this forum
You cannot reply to topics in this forum
You cannot edit your posts in this forum
You cannot delete your posts in this forum
You cannot vote in polls in this forum
You cannot attach files in this forum
You cannot download files in this forum

The site does not give electronic versions of products, and is engaged only in a collecting and cataloguing of the references sent and published at a forum by our readers. If you are the legal owner of any submitted material and do not wish that the reference to it was in our catalogue, contact us and we shall immediately remove her. Files for an exchange on tracker are given by users of a site, and the administration does not bear the responsibility for their maintenance. The request to not fill in the files protected by copyrights, and also files of the illegal maintenance!