[ Сегодня идет свободное скачивание без начисления Download ]


Статистика раздачи
Нет
 
   
 
Top  
 
 
-Линкольн / Lincoln (2012) HDRip- Русское название: Линкольн
Оригинальное название: Lincoln
Год выпуска: 2012
Производство: США | DreamWorks SKG, Twentieth Century Fox Film Corporation
Жанр: Драма, Военный, Биография, История
Перевод: Профессиональный многоголосый [BaiBako]
Субтитры: Отсутствуют-Дата мировой премьеры: 8 октября 2012
Дата российской премьеры: 24 января 2013, «Двадцатый Век Фокс СНГ»
Дата выхода DVD релиза: 16 мая 2013, «Двадцатый Век Фокс СНГ»
Дата выхода Blu-Ray релиза: 16 мая 2013, «Двадцатый Век Фокс СНГ»-Режиссер: Стивен Спилберг
Продюсер: Стивен Спилберг, Кэтлин Кеннеди, Джонатан Кинг
Актеры: Дэниэл Дэй-Льюис, Салли Филд, Джозеф Гордон-Левитт, Джеймс Спэйдер, Хэл Холбрук, Томми Ли Джонс, Джон Хоукс, Джеки Эрл Хейли, Брюс МакГилл ...-Описание фильма:
Биографическая лента об Аврааме Линкольне, шестнадцатом президенте США, который внес неоценимый вклад в победу северян во времена гражданской войны.-
Российское возрастное ограничение: 16+ (зрителям, достигшим 16 лет)-Продолжительность: 02:29:57
Качество видео: HDRip
Видеокодек: XviD
Битрейт видео: ~1172 Кбит/сек
Размер кадра: 720x304
Аудиокодек: AC3, 2 ch
Битрейт аудио: 192 Кбит/сек

MediaInfo

General
Complete name                  : E:\Фильмы\Lincoln.2012.MVO.HDRip.1400MB.NNM-Club.ru.avi
Format                         : AVI
Format/Info                    : Audio Video Interleave
File size                      : 1.44 GiB
Duration                       : 2h 29mn
Overall bit rate               : 1 374 Kbps
Movie name                     : Lincoln.2012.MVO.HDRip.1400MB.NNM-Club.ru
Director                       : Liones / NNM-Club.ru
Writing application            : VirtualDubMod 1.5.10.3 | [url=http://www.virtualdub-fr.org]www.virtualdub-fr.org[/url] || (build 2550/release)
Writing library                : VirtualDubMod build 2550/release
Copyright                      : Liones / NNM-Club.ru
Video
ID                             : 0
Format                         : MPEG-4 Visual
Format profile                 : Advanced [email protected]
Format settings, BVOP          : 2
Format settings, QPel          : No
Format settings, GMC           : No warppoints
Format settings, Matrix        : Default (MPEG)
Muxing mode                    : Packed bitstream
Codec ID                       : XVID
Codec ID/Hint                  : XviD
Duration                       : 2h 29mn
Bit rate                       : 1 172 Kbps
Width                          : 720 pixels
Height                         : 304 pixels
Display aspect ratio           : 2.35:1
Frame rate                     : 23.976 fps
Color space                    : YUV
Chroma subsampling             : 4:2:0
Bit depth                      : 8 bits
Scan type                      : Progressive
Compression mode               : Lossy
Bits/(Pixel*Frame)             : 0.223
Stream size                    : 1.23 GiB (85%)
Writing library                : XviD 1.2.1 (UTC 2008-12-04)
Audio
ID                             : 1
Format                         : AC-3
Format/Info                    : Audio Coding 3
Mode extension                 : CM (complete main)
Format settings, Endianness    : Big
Codec ID                       : 2000
Duration                       : 2h 29mn
Bit rate mode                  : Constant
Bit rate                       : 192 Kbps
Channel(s)                     : 2 channels
Channel positions              : Front: L R
Sampling rate                  : 48.0 KHz
Bit depth                      : 16 bits
Compression mode               : Lossy
Stream size                    : 206 MiB (14%)
Alignment                      : Split accross interleaves
Interleave, duration           : 42 ms (1.00 video frame)
Interleave, preload duration   : 500 ms
-Скриншоты:

-Время раздачи: 24/7 до 10 скачавших, далее по возможности

[Цитировать]

Топик был перенесен из форума Новинки кинопроката в форум Драма
Bootch



Показать сообщения:    

Текущее время: 06-Дек 23:00

Часовой пояс: UTC + 3


Вы не можете начинать темы
Вы не можете отвечать на сообщения
Вы не можете редактировать свои сообщения
Вы не можете удалять свои сообщения
Вы не можете голосовать в опросах
Вы не можете прикреплять файлы к сообщениям
Вы не можете скачивать файлы

!ВНИМАНИЕ!
Сайт не предоставляет электронные версии произведений, а занимается лишь коллекционированием и каталогизацией ссылок, присылаемых и публикуемых на форуме нашими читателями. Если вы являетесь правообладателем какого-либо представленного материала и не желаете, чтобы ссылка на него находилась в нашем каталоге, свяжитесь с нами, и мы незамедлительно удалим ее. Файлы для обмена на трекере предоставлены пользователями сайта, и администрация не несет ответственности за их содержание. Просьба не заливать файлы, защищенные авторскими правами, а также файлы нелегального содержания!