[ Сегодня идет свободное скачивание без начисления Download ]


Статистика раздачи
Нет
 
   
 
 
 
-Доспехи Бога 3: Миссия Зодиак / Chinese Zodiac (2012) ВDRip - Русское название: Доспехи Бога 3: Миссия Зодиак
Оригинальное название: Chinese Zodiac
Год выпуска: 2012
Производство: Гонконг, Китай, Emperor Classic Films, Emperor Dragon Movies, Emperor Motion Pictures
Жанр: Боевик, комедия, приключения
Перевод: Любительский одноголосый
Вид субтитров: вшитые отключаемые
Язык субтитров: Английский
Дата мировой премьеры: 12 декабря 2012
Дата российской премьеры: 31 января 2013, «UPI», «Премиум Фильм»
Дата выхода DVD релиза: 14 марта 2013, «CP Дистрибуция»
Режиссер: Джеки Чан
Продюсер: Джеки Чан, Стэнли Тонг, Барби Танг
Актеры: Джеки Чан, Квон Сан У, Ляо Фань, Синтхун Яо, Чжан Ланьсинь, Лаура Вейссбеккер, Оливер Платт, Эмили Гуйо, Кэйтлин Дешель, Кенни Джи
Описание фильма:
Главный герой истории — работающий по всему миру охотник за сокровищами Джей Си по кличке Ястреб. Известный антиквар предлагает ему отыскать шесть редких статуэток в виде голов животных. В свое время эти бронзовые скульптуры входили в набор из 12-ти предметов, олицетворявших знаки зодиака. Фигурки украшали фонтан легендарного Летнего дворца на окраине Пекина. В 1860 году величественное сооружение было разграблено и разрушено англо-французскими войсками на исходе Второй опиумной войны, а статуэтки безвозвратно утеряны.- -Продолжительность: 02:03:20
Качество видео: ВDRip
Видеокодек: MPEG-4 AVC/H.264
Битрейт видео: 5140 Кбит/сек
Размер кадра: 1280x536
Аудио: MP3, 128 kb/s (2 ch)
Сэмпл: Скачать

MediaInfo:

Общее
Уникальный идентификатор                 : 218051346899873621347584510275797767699 (0xA40B296E66CA31B7964E18F5EC29D613)
Полное имя                               : E:\Загрузка\chinese.zodiac.2012.720p.mkv
Формат                                   : Matroska
Версия формата                           : Version 4 / Version 2
Размер файла                             : 4,63 Гбайт
Продолжительность                        : 2 ч. 3 м.
Общий поток                              : 5375 Кбит/сек
Дата кодирования                         : UTC 2013-03-08 04:39:38
Программа кодирования                    : mkvmerge v6.1.0 ('Old Devil') built on Mar  2 2013 14:32:37
Библиотека кодирования                   : libebml v1.3.0 + libmatroska v1.4.0
Видео
Идентификатор                            : 1
Формат                                   : AVC
Формат/Информация                        : Advanced Video Codec
Профиль формата                          : [url=mailto:High@L4.1]High@L4.1[/url]
Параметр CABAC формата                   : Да
Параметр ReFrames формата                : 5 кадров
Идентификатор кодека                     : V_MPEG4/ISO/AVC
Продолжительность                        : 2 ч. 3 м.
Битрейт                                  : 5140 Кбит/сек
Номинальный битрейт                      : 5500 Кбит/сек
Ширина                                   : 1280 пикселей
Высота                                   : 536 пикселей
Соотношение сторон                       : 2,40:1
Частота кадров                           : 24,000 кадра/сек
Цветовое пространство                    : YUV
Субдискретизация насыщенности            : 4:2:0
Битовая глубина                          : 8 бит
Тип развёртки                            : Прогрессивная
Бит/(Пиксели*Кадры)                      : 0.312
Размер потока                            : 4,43 Гбайт (96%)
Библиотека кодирования                   : x264 core 129 r2230 1cffe9f
Настройки программы                      : cabac=1 / ref=5 / deblock=1:-3:-3 / analyse=0x3:0x113 / me=umh / subme=7 / psy=1 / psy_rd=1.00:0.00 / mixed_ref=1 / me_range=16 / chroma_me=1 / trellis=1 / 8x8dct=1 / cqm=0 / deadzone=21,11 / fast_pskip=1 / chroma_qp_offset=-2 / threads=16 / lookahead_threads=2 / sliced_threads=0 / nr=0 / decimate=1 / interlaced=0 / bluray_compat=0 / constrained_intra=0 / bframes=3 / b_pyramid=2 / b_adapt=2 / b_bias=0 / direct=3 / weightb=1 / open_gop=0 / weightp=2 / keyint=240 / keyint_min=24 / scenecut=40 / intra_refresh=0 / rc_lookahead=50 / rc=abr / mbtree=1 / bitrate=5500 / ratetol=1.0 / qcomp=0.60 / qpmin=0 / qpmax=69 / qpstep=4 / ip_ratio=1.40 / aq=1:1.00
Язык                                     : English
Default                                  : Да
Forced                                   : Нет
Аудио
Идентификатор                            : 2
Формат                                   : MPEG Audio
Версия формата                           : Version 1
Профиль формата                          : Layer 3
Идентификатор кодека                     : A_MPEG/L3
Идентификатор кодека/Подсказка           : MP3
Продолжительность                        : 2 ч. 3 м.
Вид битрейта                             : Постоянный
Битрейт                                  : 128 Кбит/сек
Каналы                                   : 2 канала
Частота                                  : 48,0 КГц
Метод сжатия                             : С потерями
Задержка видео                           : 57 с.
Размер потока                            : 113 Мбайт (2%)
Язык                                     : Russian
Default                                  : Да
Forced                                   : Нет
Текст
Идентификатор                            : 3
Формат                                   : VobSub
Режим смешивания                         : zlib
Идентификатор кодека                     : S_VOBSUB
Идентификатор кодека/Информация          : The same subtitle format used on DVDs
Язык                                     : English
Default                                  : Да
Forced                                   : Нет
Скриншоты:

-Приятного просмотра
и не забываем говорить СПАСИБО...
-Время раздачи: 24/7
до 15 скачавших..

[Цитировать]

Топик был перенесен из форума Новинки кинопроката в форум Сцен рипы


Xenon



Показать сообщения:    

Текущее время: 08-Дек 09:07

Часовой пояс: UTC + 3


Вы не можете начинать темы
Вы не можете отвечать на сообщения
Вы не можете редактировать свои сообщения
Вы не можете удалять свои сообщения
Вы не можете голосовать в опросах
Вы не можете прикреплять файлы к сообщениям
Вы не можете скачивать файлы

!ВНИМАНИЕ!
Сайт не предоставляет электронные версии произведений, а занимается лишь коллекционированием и каталогизацией ссылок, присылаемых и публикуемых на форуме нашими читателями. Если вы являетесь правообладателем какого-либо представленного материала и не желаете, чтобы ссылка на него находилась в нашем каталоге, свяжитесь с нами, и мы незамедлительно удалим ее. Файлы для обмена на трекере предоставлены пользователями сайта, и администрация не несет ответственности за их содержание. Просьба не заливать файлы, защищенные авторскими правами, а также файлы нелегального содержания!