[ Today is free to download without increasing Download ]

DL-List and Torrent activity
-Жена астронавта / The Astronaut's Wife«Witness the birth of pure evil»- Год выпуска: 1999
Страна: США
Производство: Mad Chance, New Line Cinema
Жанр: фантастика, триллер, драма-Режиссер: Рэнд Рэвич-В ролях: Джонни Депп, Шарлиз Терон, Джо Мортон, Клеа Дюваль, Донна Мерфи, Ник Кассаветис, Саманта Эггар, Гэри Граббс, Блэр Браун, Том Нунен-Перевод: Профессиональный (полное дублирование) -Субтитры: Отсутствуют-Описание: Находясь в открытом космосе, астронавт Спенсер Армакост (Джонни Депп) на несколько минут потерял связь с Землей. Но все обошлось, и экипажу удалось вернуться назад. Спенсер и его жена опять были вместе.
Но вскоре Джиллиан (Шарлиз Терон) начинает подозревать, что ее муж стал другим. И если прежде она тревожилась за его жизнь, то теперь стала бояться за свою. Она оказалась один на один с пугающей неизвестностью…
- -Качество: HDRip-Продолжительность: 01:49:09-Формат: AVI
Видео кодек: XviD
Аудио кодек: MPEG Audio
Видео: 656x368, 23.98 fps, 815 Kbps, 0.14 bit/pixel
Аудио: MPEG Audio Layer 3, 48000 Hz, 128Kbps-Премьера (мир): 27 августа 1999
Премьера (РФ): 20 июля 2000-

Media Info

Complete name                    : Жена астронавта.avi
Format                           : AVI
Format/Info                      : Audio Video Interleave
File size                        : 744 MiB
Duration                         : 1h 49mn
Overall bit rate                 : 953 Kbps
Writing application              : VirtualDubMod (build 2540/release)
Writing library                  : VirtualDubMod build 2540/release
ID                               : 0
Format                           : MPEG-4 Visual
Format profile                   : Advanced Simple@L5
Format settings, BVOP            : 1
Format settings, QPel            : No
Format settings, GMC             : No warppoints
Format settings, Matrix          : Default (H.263)
Codec ID                         : XVID
Codec ID/Hint                    : XviD
Duration                         : 1h 49mn
Bit rate                         : 816 Kbps
Width                            : 656 pixels
Height                           : 368 pixels
Display aspect ratio             : 16:9
Frame rate                       : 23.976 fps
Color space                      : YUV
Chroma subsampling               : 4:2:0
Bit depth                        : 8 bits
Scan type                        : Progressive
Compression mode                 : Lossy
Bits/(Pixel*Frame)               : 0.141
Stream size                      : 637 MiB (86%)
Writing library                  : XviD 1.2.1 (UTC 2008-12-04)
ID                               : 1
Format                           : MPEG Audio
Format version                   : Version 1
Format profile                   : Layer 3
Codec ID                         : 55
Codec ID/Hint                    : MP3
Duration                         : 1h 49mn
Bit rate mode                    : Constant
Bit rate                         : 128 Kbps
Channel(s)                       : 2 channels
Sampling rate                    : 48.0 KHz
Compression mode                 : Lossy
Stream size                      : 99.9 MiB (13%)
Alignment                        : Aligned on interleaves
Interleave, duration             : 42 ms (1.00 video frame)
Interleave, preload duration     : 504 ms
Writing library                  : LAME3.98r
Encoding settings                : -m s -V 4 -q 2 -lowpass 17 -b 128


Display posts:    

Current time is: 28-Oct 19:02

All times are UTC + 3

You cannot post new topics in this forum
You cannot reply to topics in this forum
You cannot edit your posts in this forum
You cannot delete your posts in this forum
You cannot vote in polls in this forum
You cannot attach files in this forum
You cannot download files in this forum

The site does not give electronic versions of products, and is engaged only in a collecting and cataloguing of the references sent and published at a forum by our readers. If you are the legal owner of any submitted material and do not wish that the reference to it was in our catalogue, contact us and we shall immediately remove her. Files for an exchange on tracker are given by users of a site, and the administration does not bear the responsibility for their maintenance. The request to not fill in the files protected by copyrights, and also files of the illegal maintenance!