[ Сегодня идет свободное скачивание без начисления Download ]


Статистика раздачи
Нет
 
   
 
Top  
 
 
-Метро (2013) BDRip- Русское название: Метро
Год выпуска: 2013
Производство: Россия, Профит
Жанр: Триллер, Драма
Перевод: оригинал
Режиссер: Антон Мегердичев
Продюсер: Игорь Толстунов, Сергей Козлов
Актеры: Сергей Пускепалис, Анатолий Белый, Анфиса Вистингаузен, Алексей Бардуков, Катерина Шпица, Елена Панова, Станислав Дужников, Светлана Ходченкова, Сергей Сосновский, Ярослав Жалнин, Александр Яковлев, Владимир Стержаков, Александр Фисенко, Иван Макаревич, Максим Линников, Иван Лапин
Описание фильма:
Широко развернувшееся в центре Москвы строительство новых зданий приводит к тому, что в одном из тоннелей метро между двумя станциями возникает трещина. Никто себе и представить не мог, что в результате нарушения герметичности перекрытия в тоннель хлынет вода из Москва-реки, и сотни пассажиров поезда окажутся во власти надвигающегося потопа. Бешеный поток воды грозит не только обрушением тоннелей метро, но и разрушением всего города.Среди попавших в беду людей — врач городской больницы Андрей Гарин и его дочь Ксюша. Гарин сражается с катастрофой, пытаясь спасти оставшихся в живых пассажиров, в том числе и …любовника своей жены. Гарину придется побороть обиду, гнев и страх. Он должен выжить, чтобы вернуть свою любовь, семью… свою прежнюю счастливую жизнь.-Рейтинг:
Дата мировой премьеры: 21 февраля 2013
Дата российской премьеры: 21 февраля 2013, «Наше Кино»
Дата выхода DVD релиза: 12 марта 2013, «Lizard Cinema Trade»
Дата выхода на Blu-Ray: 12 марта 2013, «Lizard Cinema Trade»-Релиз от:
Продолжительность: 02:11:44
Качество видео: BDRip (batonchik)
Видеокодек: MPEG-4 AVC/H.264
Битрейт видео: ~ 2045 Кбит/сек
Размер кадра: 1024x436
Аудио: Русский / AC3 5,1 / ~ 320 kbps / 48,0 КГц / 16 бит

MediaInfo 0.7.62

Общее
Уникальный идентификатор : 242462592707387600871683886034347147837 (0xB66898C5D89C22F191015608F758C23D)
Полное имя : R:\002\Метро.2012.BDRip.AVC.NNM-CLUB.mkv
Формат : Matroska
Версия формата : Version 4 / Version 2
Размер файла : 2,18 Гбайт
Продолжительность : 2 ч. 11 м.
Общий поток : 2367 Кбит/сек
Название фильма : Метро.2012.BDRip.AVC.NNM-CLUB
Дата кодирования : UTC 2013-03-08 12:32:49
Программа кодирования : mkvmerge v6.1.0 ('Old Devil') built on Mar 2 2013 14:32:37
Библиотека кодирования : libebml v1.3.0 + libmatroska v1.4.0
Видео
Идентификатор : 1
Формат : AVC
Формат/Информация : Advanced Video Codec
Профиль формата : High@L4.1
Параметр CABAC формата : Да
Параметр ReFrames формата : 9 кадров
Идентификатор кодека : V_MPEG4/ISO/AVC
Продолжительность : 2 ч. 11 м.
Битрейт : 2045 Кбит/сек
Ширина : 1024 пикселя
Высота : 436 пикселей
Соотношение сторон : 2,35:1
Режим частоты кадров : Постоянный
Частота кадров : 23,976 кадра/сек
Цветовое пространство : YUV
Субдискретизация насыщенности : 4:2:0
Битовая глубина : 8 бит
Тип развёртки : Прогрессивная
Бит/(Пиксели*Кадры) : 0.191
Размер потока : 1,84 Гбайт (84%)
Заголовок : Метро.2012.BDRip.AVC.NNM-CLUB
Библиотека кодирования : x264 core 129 r2245 bc13772
Настройки программы : cabac=1 / ref=9 / deblock=1:-3:-3 / analyse=0x3:0x133 / me=umh / subme=10 / psy=1 / psy_rd=1.00:0.15 / mixed_ref=1 / me_range=24 / chroma_me=1 / trellis=2 / 8x8dct=1 / cqm=0 / deadzone=21,11 / fast_pskip=0 / chroma_qp_offset=-3 / threads=12 / lookahead_threads=2 / sliced_threads=0 / nr=0 / decimate=1 / interlaced=0 / bluray_compat=0 / constrained_intra=0 / bframes=9 / b_pyramid=2 / b_adapt=2 / b_bias=0 / direct=3 / weightb=1 / open_gop=0 / weightp=2 / keyint=240 / keyint_min=22 / scenecut=40 / intra_refresh=0 / rc_lookahead=40 / rc=2pass / mbtree=1 / bitrate=2045 / ratetol=1.0 / qcomp=0.60 / qpmin=0 / qpmax=69 / qpstep=4 / cplxblur=20.0 / qblur=0.5 / ip_ratio=1.40 / aq=1:1.00
Язык : Russian
Default : Да
Forced : Нет
Аудио
Идентификатор : 2
Формат : AC-3
Формат/Информация : Audio Coding 3
Расширение режима : CM (complete main)
Параметр Endianness формата : Big
Идентификатор кодека : A_AC3
Продолжительность : 2 ч. 11 м.
Вид битрейта : Постоянный
Битрейт : 320 Кбит/сек
Каналы : 6 каналов
Расположение каналов : Front: L C R, Side: L R, LFE
Частота : 48,0 КГц
Битовая глубина : 16 бит
Метод сжатия : С потерями
Размер потока : 302 Мбайт (14%)
Язык : Russian
Default : Да
Forced : Нет
Меню
00:00:00.000 : ru:Chapter 00
00:06:11.120 : ru:Chapter 01
00:13:05.284 : ru:Chapter 02
00:19:35.757 : ru:Chapter 03
00:26:29.129 : ru:Chapter 04
00:33:53.406 : ru:Chapter 05
00:41:08.883 : ru:Chapter 06
00:50:48.712 : ru:Chapter 07
00:56:44.067 : ru:Chapter 08
01:04:35.913 : ru:Chapter 09
01:11:52.808 : ru:Chapter 10
01:19:04.114 : ru:Chapter 11
01:26:17.422 : ru:Chapter 12
01:34:31.791 : ru:Chapter 13
01:41:21.241 : ru:Chapter 14
01:48:46.186 : ru:Chapter 15
01:56:28.606 : ru:Chapter 16
02:06:42.553 : ru:Chapter 17

Знаете ли Вы, что...

Для съёмок фильма был сооружён 117-метровый туннель в натуральную величину, и использовались настоящие вагоны метро.
В октябре 2011 года съемки проходили в Самаре. Почти две недели Самарский метрополитен играл роль Московского. Съемки велись на строящейся станции «Алабинская», действующей «Московской» и в депо. Метрополитен Самары даже выделил съемочной группе специальный поезд, предназначенный именно для съемок картины.
В роли собаки Тявки снимался метис Петр, наполовину йорк, наполовину миниатюрный пинчер.
Скриншоты:




Время раздачи: круглогодичноИграю на аккордеоне за "Спасибо"

[Цитировать]

Топик был перенесен из форума Новинки кинопроката в форум Триллер
Bootch



Показать сообщения:    

Текущее время: 11-Дек 15:00

Часовой пояс: UTC + 3


Вы не можете начинать темы
Вы не можете отвечать на сообщения
Вы не можете редактировать свои сообщения
Вы не можете удалять свои сообщения
Вы не можете голосовать в опросах
Вы не можете прикреплять файлы к сообщениям
Вы не можете скачивать файлы

!ВНИМАНИЕ!
Сайт не предоставляет электронные версии произведений, а занимается лишь коллекционированием и каталогизацией ссылок, присылаемых и публикуемых на форуме нашими читателями. Если вы являетесь правообладателем какого-либо представленного материала и не желаете, чтобы ссылка на него находилась в нашем каталоге, свяжитесь с нами, и мы незамедлительно удалим ее. Файлы для обмена на трекере предоставлены пользователями сайта, и администрация не несет ответственности за их содержание. Просьба не заливать файлы, защищенные авторскими правами, а также файлы нелегального содержания!