[ Сегодня идет свободное скачивание без начисления Download ]


Статистика раздачи
Нет
 
   
 
Top  
 
 
Ромовый бульвар / Boulevard du Rhum
Страна: Франция, Италия, Испания
Студия: Films Internacionales, Gaumont International, Parme Production, Rizzoli Film S.p.a., S.N.E. Gaumont
Жанр: Приключения
Год выпуска: 1971
Продолжительность: 02:04:47
Перевод: Профессиональный (многоголосый закадровый)
Cубтитры: нет
Оригинальная аудиодорожка: французский
Режиссер: Робер Энрико / Robert Enrico
В ролях: Лино Вентура, Бриджит Бардо, Билл Треверс, Клайв Ревилл, Ла Полака, Джесс Хан, Антонио Касас, Андреас Вуцинас, Ги Маршан, Джек Беттс, Роджер Жаке, Марк Эйро, Стефан Фей, Джо Тернер, Робер Ломбар, Анри Черняк, Фридерик Сантайя, Хосе Хаспе, Хосе Мария Каффарель, Висенте Рока, Марк Дюдикур, Альбер Симоно, Филипп Руле
Описание: Во времена сухого закона "ромраннеры" незаконно ввозили спиртное в США со стороны Карибского моря, а местечко это называлось "Ромовый бульвар". Катер береговой охраны расстрелял и затопил небольшое судно с грузом алкоголя, и только одному человеку (Вентура) удалось добраться до берега. Спасаясь от пуль, он попадает в Мексику, где играет на крупные деньги в смертельную игру: в него стреляют в полной темноте 12 человек, и если он остается в живых, то за каждый раз получает 5 тысяч долларов. Ему повезло 12 раз. На эти деньги он покупает собственное судно и снова берется за контрабанду. Судьба знакомит его в Гаване со знаменитой киноактрисой (Бордо), которая, влюбившись, отправляется вместе с ним, а далее следуют романтические приключения с перестрелками и уймой смешных и милых ситуаций, местами даже трогательных. Сценарий Пьера Пелегри и Робера Энрико по роману Жака Пешераля.

Сэмпл: http://multi-up.com/839930
Тип релиза: BDRip 720p
Контейнер: MKV
Видео: x264, 1200x720 (1.667:1), 7970 Kbps, 24 fps
Аудио: Русский, AC3, 2 ch, 48 KHz, 192 Kbps
Аудио 2: Французский, DTS, 2 ch, 48 KHz, 755 Kbps

MediaInfo

Общее
Уникальный идентификатор : 240337622716449491915798294283892753759 (0xB4CF57A9D613265D8D75887EF9F3055F)
Полное имя : Romovij bulvar.1971.BDRip.720p.mkv
Формат : Matroska
Версия формата : Version 2
Размер файла : 7,87 Гбайт
Продолжительность : 2 ч. 4 м.
Режим общего битрейта : Переменный
Общий поток : 9030 Кбит/сек
Дата кодирования : UTC 2013-03-04 17:22:56
Программа кодирования : mkvmerge v3.4.0 ('Rapunzel') сборка от May 15 2010 09:38:20
Библиотека кодирования : libebml v0.8.0 + libmatroska v0.9.0
Видео
Идентификатор : 1
Формат : AVC
Формат/Информация : Advanced Video Codec
Профиль формата : [email protected]
Параметр CABAC формата : Да
Параметр ReFrames формата : 8 кадров
Идентификатор кодека : V_MPEG4/ISO/AVC
Продолжительность : 2 ч. 4 м.
Битрейт : 7970 Кбит/сек
Ширина : 1200 пикселей
Высота : 720 пикселей
Соотношение сторон : 1,667
Частота кадров : 24,000 кадра/сек
Цветовое пространство : YUV
Субдискретизация насыщенности : 4:2:0
Битовая глубина : 8 бит
Тип развёртки : Прогрессивная
Бит/(Пиксели*Кадры) : 0.384
Размер потока : 6,85 Гбайт (87%)
Библиотека кодирования : x264 core 120 r2164 da19765
Настройки программы : cabac=1 / ref=8 / deblock=1:0:0 / analyse=0x3:0x133 / me=umh / subme=9 / psy=1 / psy_rd=1.00:0.00 / mixed_ref=1 / me_range=16 / chroma_me=1 / trellis=2 / 8x8dct=1 / cqm=0 / deadzone=21,11 / fast_pskip=1 / chroma_qp_offset=-2 / threads=6 / sliced_threads=0 / nr=0 / decimate=1 / interlaced=0 / bluray_compat=0 / constrained_intra=0 / bframes=3 / b_pyramid=2 / b_adapt=2 / b_bias=0 / direct=3 / weightb=1 / open_gop=1 / weightp=2 / keyint=240 / keyint_min=24 / scenecut=40 / intra_refresh=0 / rc_lookahead=60 / rc=2pass / mbtree=1 / bitrate=7970 / ratetol=1.0 / qcomp=0.60 / qpmin=0 / qpmax=69 / qpstep=4 / cplxblur=20.0 / qblur=0.5 / ip_ratio=1.40 / aq=1:1.00
Язык : French
Default : Нет
Forced : Нет
Аудио #1
Идентификатор : 2
Формат : AC-3
Формат/Информация : Audio Coding 3
Профиль формата : Dolby Digital
Расширение режима : CM (complete main)
Параметр Endianness формата : Big
Идентификатор кодека : A_AC3
Продолжительность : 2 ч. 4 м.
Вид битрейта : Постоянный
Битрейт : 192 Кбит/сек
Каналы : 2 канала
Расположение каналов : Front: L R
Частота : 48,0 КГц
Битовая глубина : 16 бит
Метод сжатия : С потерями
Размер потока : 171 Мбайт (2%)
Язык : Russian
Default : Да
Forced : Нет
Аудио #2
Идентификатор : 3
Формат : DTS
Формат/Информация : Digital Theater Systems
Профиль формата : MA / Core
Идентификатор кодека : A_DTS
Продолжительность : 2 ч. 4 м.
Вид битрейта : Переменный
Битрейт : 803 Кбит/сек / 755 Кбит/сек
Каналы : 2 канала
Расположение каналов : Front: L R
Частота : 48,0 КГц
Битовая глубина : 16 бит
Метод сжатия : Без потерь / Lossy
Язык : French
Default : Нет
Forced : Нет

Скриншоты

[Цитировать]



Показать сообщения:    

Текущее время: 06-Дек 03:46

Часовой пояс: UTC + 3


Вы не можете начинать темы
Вы не можете отвечать на сообщения
Вы не можете редактировать свои сообщения
Вы не можете удалять свои сообщения
Вы не можете голосовать в опросах
Вы не можете прикреплять файлы к сообщениям
Вы не можете скачивать файлы

!ВНИМАНИЕ!
Сайт не предоставляет электронные версии произведений, а занимается лишь коллекционированием и каталогизацией ссылок, присылаемых и публикуемых на форуме нашими читателями. Если вы являетесь правообладателем какого-либо представленного материала и не желаете, чтобы ссылка на него находилась в нашем каталоге, свяжитесь с нами, и мы незамедлительно удалим ее. Файлы для обмена на трекере предоставлены пользователями сайта, и администрация не несет ответственности за их содержание. Просьба не заливать файлы, защищенные авторскими правами, а также файлы нелегального содержания!