[ Сегодня идет свободное скачивание без начисления Download ]


Статистика раздачи
Нет
 
   
 
Top  
 
 
[sh]Катерина. Другая жизнь // Сезон 4, Серии с 1 по 8 (из 8)[/sh][sh]Сезон 4, Эпизоды c 1 по 8 из (8)[/sh]-Год выпуска: 2012
Страна: Россия
Жанр: Мелодрама-Режиссер: Андрей Щербинин
В ролях: Ирина Розанова, Александр Блок, Алиса Седова, Сергей Маркеев, Сергей Лосев, Мария Валешная, Ирина Цветкова, Александр Кудренко, Светлана Смирнова, Сергей Уманов, Геннадий Смирнов, Виталий Салтыков, Владимир Крылов, Дарья Юргенс, Вадим Гущин, Юлия Морозова-Перевод: Не требуеться
Субтитры: Отсутствуют-Описание: Лидии Викторовне Гориной, ставшей матерью для двух приёмных детей, приходится столкнуться с новыми жизненными испытаниями. И на сей раз под ударом оказалась её главная надежда и опора - любимый супруг Борис Одинцов. Решив начать новое дело - строительство коттеджного посёлка на месте разрушенных бывшим мэром домов, Борис Сергеевич неожиданно разворошил осиное гнездо. Старый недоброжелатель Одинцова Щетинин с помощью своих высоких покровителей добивается смещения Бориса Сергеевича с поста директора и берёт контроль над фирмой в свои руки. Оказавшись на улице после ареста мужа, Горина начинает борьбу за свободу Одинцова и будущее свой семьи.- -Качество: DVB
Продолжительность: 0:43:00 серия-Формат: MPEG-PS
Видео кодек: MPEG2
Аудио кодек: MP2
Видео: MPEG 2, 720x576 (4:3), 25.000 fps, 5350 Kbps (0.516 bit/pixel)
Аудио: MP2, 48.0 KHz, 2 ch, 256 Kbps, CBR

MediaInfo

ОбщееПолное имя : L:\Раздачи\Катерина. Другая жизнь\Катерина. Другая жизнь.01.mpgФормат : MPEG-PSРазмер файла : 1,70 ГбайтПродолжительность : 42 м.Режим общего битрейта : ПеременныйОбщий поток : 5720 Кбит/секБиблиотека кодирования : (c) 1998-2012 Womble Multimedia, Inc. / MPEG Video Wizard DVD 5.0.1.100 (03/2011) / Sep 7 2012
ВидеоИдентификатор : 224 (0xE0)Формат : MPEG VideoВерсия формата : Version 2Профиль формата : Main@MainПараметр BVOP формата : ДаПараметр матрицы формата : ВыборочнаяПараметр GOP формата : M=3, N=15Продолжительность : 42 м.Вид битрейта : ПеременныйБитрейт : 5350 Кбит/секМаксимальный битрейт : 15,0 Мбит/секШирина : 720 пикселейВысота : 576 пикселейСоотношение сторон : 4:3Частота кадров : 25,000 кадров/секСтандарт вещания : PALЦветовое пространство : YUVСубдискретизация насыщенности : 4:2:0Битовая глубина : 8 битТип развёртки : ЧересстрочнаяПорядок развёртки : Верхнее поле первоеМетод сжатия : С потерямиБит/(Пиксели*Кадры) : 0.516TimeCode_FirstFrame : 00:00:00:00TimeCode_Source : Group of pictures headerРазмер потока : 1,59 Гбайт (94%)Библиотека кодирования : (c) 1998-2012 Womble Multimedia, Inc. / MPEG Video Wizard DVD 5.0.1.100 (03/2011) / Sep 7 2012
АудиоИдентификатор : 192 (0xC0)Формат : MPEG AudioВерсия формата : Version 1Профиль формата : Layer 2Продолжительность : 42 м.Вид битрейта : ПостоянныйБитрейт : 256 Кбит/секКаналы : 2 каналаЧастота : 48,0 КГцМетод сжатия : С потерямиРазмер потока : 77,7 Мбайт (4%)
Меню

Скриншоты


[Цитировать]



Показать сообщения:    

Текущее время: 11-Дек 11:01

Часовой пояс: UTC + 3


Вы не можете начинать темы
Вы не можете отвечать на сообщения
Вы не можете редактировать свои сообщения
Вы не можете удалять свои сообщения
Вы не можете голосовать в опросах
Вы не можете прикреплять файлы к сообщениям
Вы не можете скачивать файлы

!ВНИМАНИЕ!
Сайт не предоставляет электронные версии произведений, а занимается лишь коллекционированием и каталогизацией ссылок, присылаемых и публикуемых на форуме нашими читателями. Если вы являетесь правообладателем какого-либо представленного материала и не желаете, чтобы ссылка на него находилась в нашем каталоге, свяжитесь с нами, и мы незамедлительно удалим ее. Файлы для обмена на трекере предоставлены пользователями сайта, и администрация не несет ответственности за их содержание. Просьба не заливать файлы, защищенные авторскими правами, а также файлы нелегального содержания!