[ Сегодня идет свободное скачивание без начисления Download ]


Статистика раздачи
Нет
 
   
 
Top  
 
 
-Метро (2012) BDRip- Русское название: Метро
Год выпуска: 2012
Производство: Россия
Жанр: Триллер, Драма
Перевод: Не требуется (Русский)
Субтитры: Отсутствуют
Режиссер: Антон Мегердичев
Актеры: Сергей Пускепалис, Анатолий Белый, Анфиса Вистингаузен, Алексей Бардуков, Катерина Шпица, Елена Панова, Станислав Дужников, Светлана Ходченкова, Сергей Сосновский, Ярослав Жалнин, Александр Яковлев, Владимир Стержаков
Описание фильма:
Широко развернувшееся в центре Москвы строительство новых зданий приводит к тому, что в одном из тоннелей метро между двумя станциями возникает трещина. Никто себе и представить не мог, что в результате нарушения герметичности перекрытия в тоннель хлынет вода из Москва-реки, и сотни пассажиров поезда окажутся во власти надвигающегося потопа. Среди попавших в беду людей — врач городской больницы Андрей Гарин и его дочь Ксюша. Гарин сражается с катастрофой, пытаясь спасти оставшихся в живых пассажиров, в том числе и …любовника своей жены. Он должен выжить, чтобы вернуть свою любовь, семью… свою прежнюю счастливую жизнь.

Дата мировой премьеры: 21 февраля 2013
Дата российской премьеры: 21 февраля 2013, «Наше Кино»
Дата выхода DVD релиза: 12 марта 2013, «Lizard Cinema Trade»
Продолжительность: 02:11:44
Качество видео: BDRip [720p]
Видеокодек: MPEG-4 AVC/H.264
Видео: 1280x544, ~5828 Кбит/с
Аудио: DTS, 6 ch, 1510 Кбит/с (Русский)

MediaInfo:

Общее
Уникальный идентификатор : 193830598538589974101048860554900177847 (0x91D26A56C34ED87ABAAFA788FE8E83B7)
Полное имя : Metro.2013.BDRip.720p.mkv
Формат : Matroska
Версия формата : Version 2
Размер файла : 6,89 Гбайт
Продолжительность : 2 ч. 11 м.
Общий поток : 7487 Кбит/сек
Название фильма : IRONCLUB
Дата кодирования : UTC 2013-03-08 05:30:54
Программа кодирования : mkvmerge v5.2.0 ('I can't explain') built on Dec 18 2011 18:12:03
Библиотека кодирования : libebml v1.2.3 + libmatroska v1.3.0
Видео
Идентификатор : 1
Формат : AVC
Формат/Информация : Advanced Video Codec
Профиль формата : High@L4.1
Параметр CABAC формата : Да
Параметр ReFrames формата : 12 кадров
Идентификатор кодека : V_MPEG4/ISO/AVC
Продолжительность : 2 ч. 11 м.
Битрейт : 5828 Кбит/сек
Ширина : 1280 пикселей
Высота : 544 пикселя
Соотношение сторон : 2,35:1
Частота кадров : 23,976 кадра/сек
Цветовое пространство : YUV
Субдискретизация насыщенности : 4:2:0
Битовая глубина : 8 бит
Тип развёртки : Прогрессивная
Бит/(Пиксели*Кадры) : 0.349
Размер потока : 5,36 Гбайт (78%)
Заголовок : Metro 2012 720p BluRay DTS x264-IRONCLUB
Библиотека кодирования : x264 core 130 r2273kMod b3065e6
Настройки программы : cabac=1 / ref=12 / deblock=1:-3:-3 / analyse=0x3:0x113 / me=umh / subme=11 / psy=1 / fade_compensate=0.00 / psy_rd=1.10:0.00 / mixed_ref=1 / me_range=48 / chroma_me=1 / trellis=2 / 8x8dct=1 / cqm=0 / deadzone=21,11 / fast_pskip=0 / chroma_qp_offset=-2 / threads=12 / lookahead_threads=2 / sliced_threads=0 / nr=0 / decimate=1 / interlaced=0 / bluray_compat=0 / constrained_intra=0 / bframes=7 / b_pyramid=2 / b_adapt=2 / b_bias=0 / direct=3 / weightb=1 / open_gop=0 / weightp=2 / keyint=250 / keyint_min=23 / scenecut=40 / intra_refresh=0 / rc_lookahead=80 / rc=crf / mbtree=0 / crf=16.8000 / qcomp=0.70 / qpmin=0 / qpmax=69 / qpstep=4 / vbv_maxrate=50000 / vbv_bufsize=62500 / crf_max=0.0 / nal_hrd=none / ip_ratio=1.30 / pb_ratio=1.10 / aq=1:0.80
Язык : English
Default : Да
Forced : Да
Коэффициенты матрицы : BT.709-5, BT.1361, IEC 61966-2-4 709, SMPTE RP177
Аудио
Идентификатор : 2
Формат : DTS
Формат/Информация : Digital Theater Systems
Идентификатор кодека : A_DTS
Продолжительность : 2 ч. 11 м.
Вид битрейта : Постоянный
Битрейт : 1510 Кбит/сек
Каналы : 6 каналов
Расположение каналов : Front: L C R, Side: L R, LFE
Частота : 48,0 КГц
Битовая глубина : 24 бит
Метод сжатия : С потерями
Размер потока : 1,39 Гбайт (20%)
Заголовок : DTS 5.1 @ 1536 kbps
Язык : Russian
Default : Да
Forced : Да
Меню
00:00:00.000 : ru:00:00:00.000
00:06:11.120 : ru:00:06:11.120
00:13:05.284 : ru:00:13:05.284
00:19:35.757 : ru:00:19:35.757
00:26:29.129 : ru:00:26:29.129
00:33:53.406 : ru:00:33:53.406
00:41:08.883 : ru:00:41:08.883
00:50:48.712 : ru:00:50:48.712
00:56:44.067 : ru:00:56:44.067
01:04:35.913 : ru:01:04:35.913
01:11:52.808 : ru:01:11:52.808
01:19:04.114 : ru:01:19:04.114
01:26:17.422 : ru:01:26:17.422
01:34:31.791 : ru:01:34:31.791
01:41:21.241 : ru:01:41:21.241
01:48:46.186 : ru:01:48:46.186
01:56:28.606 : ru:01:56:28.606
02:06:42.553 : ru:02:06:42.553
Скриншоты:


Время раздачи: Обычно с 19:00 до 00:00

[Цитировать]

Топик был перенесен из форума Новинки кинопроката (HD Video) в форум Зарубежное кино (HD Video)
Bootch



Показать сообщения:    

Текущее время: 08-Дек 12:58

Часовой пояс: UTC + 3


Вы не можете начинать темы
Вы не можете отвечать на сообщения
Вы не можете редактировать свои сообщения
Вы не можете удалять свои сообщения
Вы не можете голосовать в опросах
Вы не можете прикреплять файлы к сообщениям
Вы не можете скачивать файлы

!ВНИМАНИЕ!
Сайт не предоставляет электронные версии произведений, а занимается лишь коллекционированием и каталогизацией ссылок, присылаемых и публикуемых на форуме нашими читателями. Если вы являетесь правообладателем какого-либо представленного материала и не желаете, чтобы ссылка на него находилась в нашем каталоге, свяжитесь с нами, и мы незамедлительно удалим ее. Файлы для обмена на трекере предоставлены пользователями сайта, и администрация не несет ответственности за их содержание. Просьба не заливать файлы, защищенные авторскими правами, а также файлы нелегального содержания!