[ Сегодня идет свободное скачивание без начисления Download ]


Статистика раздачи
Нет
 
   
 
Top  
 
 
-Ларго Винч 2: Заговор в Бирме / Largo Winch II (2011) BDRip- Русское название: Ларго Винч 2: Заговор в Бирме
Оригинальное название: Largo Winch II
Год выпуска: 2011
Жанр: Триллер, Приключения
Описание фильма:
После убийства приёмного отца Ларго Винч становится президентом группы компаний «W Group». Но роль управленца огромной корпорации не подходит Ларго. Он объявляет о продаже «W Group» и создании гуманитарного фонда, который возглавит старый друг его отца. В день, когда договор подписан, Ларго обвиняют в преступлениях против человечества и финансировании режима бирманского генерала Мина.
Чтобы узнать, кто стоит за ложными обвинениями, Ларго Винч отправляется в Бирму и встречает там свою бывшую возлюбленную Малунай, которая поможет раскрыть заговор.-Режиссер: Жером Салль
Актеры: Томер Сисле, Шэрон Стоун, Ульрих Тукур, Напакпапха Накпраситте, Оливье Бартелеми, Лоран Терзиефф, Николас Вод, Клеменс Шик, Нирут Сиричанья, Дмитрий Назаров
Роли дублировали: Виктор Раков, Любовь Германова, Константин Карасик, Вероника Саркисова, Денис Беспалый
Продолжительность: 01:58:17
Перевод: Дублированный- -Дата мировой премьеры: 16 февраля 2011
Дата российской премьеры: 10 марта 2011, «Люксор»
Дата выхода DVD релиза: 31 марта 2011, «Мистерия Звука»
Дата выхода BLU-RAY релиза: 31 марта 2011, «Мистерия Звука»-Видеокодек: MPEG-4 AVC/H.264
Битрейт видео: ~13,1 Мбит/сек
Размер кадра: 1920x1080
Качество видео: BDRip
Аудиокодек: AC3 5.1
Битрейт аудио: 640 Кбит/сек-

Media info:

Общее
Уникальный идентификатор : 238836275527985457774254522256201474073 (0xB3AE318833B2B447B23913E81149E019)
Полное имя : H:\my films\LARGO_W_3D.mkv
Формат : Matroska
Версия формата : Version 4 / Version 2
Размер файла : 12,1 Гбайт
Продолжительность : 1 ч. 58 м.
Общий поток : 14,6 Мбит/сек
Название фильма : LARGO_W_3D_crop_over/under
Дата кодирования : UTC 2010-02-22 21:41:31
Программа кодирования : mkvmerge v5.9.0 ('On The Loose') built on Dec 9 2012 15:37:01
Библиотека кодирования : libebml v1.3.0 + libmatroska v1.4.0
Видео
Идентификатор : 1
Формат : AVC
Формат/Информация : Advanced Video Codec
Профиль формата : [email protected]
Параметр CABAC формата : Да
Параметр ReFrames формата : 4 кадра
Режим смешивания : Header stripping
Идентификатор кодека : V_MPEG4/ISO/AVC
Продолжительность : 1 ч. 58 м.
Битрейт : 13,1 Мбит/сек
Ширина : 1920 пикселей
Высота : 1080 пикселей
Соотношение сторон : 16:9
Режим частоты кадров : Постоянный
Частота кадров : 23,976 кадра/сек
Цветовое пространство : YUV
Субдискретизация насыщенности : 4:2:0
Битовая глубина : 8 бит
Тип развёртки : Прогрессивная
Бит/(Пиксели*Кадры) : 0.263
Размер потока : 10,8 Гбайт (89%)
Заголовок : rip byI/N
Библиотека кодирования : x264 core 128 r2216M 198a7ea
Настройки программы : cabac=1 / ref=4 / deblock=1:-3:-3 / analyse=0x3:0x133 / me=umh / subme=7 / psy=1 / psy_rd=1.00:0.10 / mixed_ref=1 / me_range=32 / chroma_me=1 / trellis=2 / 8x8dct=1 / cqm=1 / deadzone=21,11 / fast_pskip=1 / chroma_qp_offset=-3 / threads=4 / lookahead_threads=1 / sliced_threads=0 / nr=0 / decimate=1 / interlaced=0 / bluray_compat=0 / constrained_intra=0 / bframes=4 / b_pyramid=2 / b_adapt=2 / b_bias=0 / direct=2 / weightb=1 / open_gop=0 / weightp=2 / keyint=12 / keyint_min=2 / scenecut=60 / intra_refresh=0 / rc_lookahead=17 / rc=crf / mbtree=1 / crf=16.0 / qcomp=0.60 / qpmin=10 / qpmax=60 / qpstep=6 / vbv_maxrate=40000 / vbv_bufsize=30000 / crf_max=30.0 / nal_hrd=none / ip_ratio=1.40 / aq=1:0.70
Default : Да
Forced : Нет
Аудио #1
Идентификатор : 2
Формат : AC-3
Формат/Информация : Audio Coding 3
Расширение режима : CM (complete main)
Параметр Endianness формата : Big
Режим смешивания : Header stripping
Идентификатор кодека : A_AC3
Продолжительность : 1 ч. 58 м.
Вид битрейта : Постоянный
Битрейт : 640 Кбит/сек
Каналы : 6 каналов
Расположение каналов : Front: L C R, Side: L R, LFE
Частота : 48,0 КГц
Битовая глубина : 16 бит
Метод сжатия : С потерями
Размер потока : 542 Мбайт (4%)
Язык : Russian
Default : Да
Forced : Нет
Аудио #2
Идентификатор : 3
Формат : AC-3
Формат/Информация : Audio Coding 3
Расширение режима : CM (complete main)
Параметр Endianness формата : Big
Режим смешивания : Header stripping
Идентификатор кодека : A_AC3
Продолжительность : 1 ч. 58 м.
Вид битрейта : Постоянный
Битрейт : 640 Кбит/сек
Каналы : 6 каналов
Расположение каналов : Front: L C R, Side: L R, LFE
Частота : 48,0 КГц
Битовая глубина : 16 бит
Метод сжатия : С потерями
Размер потока : 542 Мбайт (4%)
Язык : French
Default : Нет
Forced : Нет
Меню
00:00:00.000 : en:(01)00:00:00:000
00:13:26.388 : en:(02)00:13:26:388
00:32:06.799 : en:(03)00:32:06:799
00:48:13.682 : en:(04)00:48:13:682
01:03:28.012 : en:(05)01:03:28:012
01:17:02.451 : en:(06)01:17:02:451
01:27:50.974 : en:(07)01:27:50:974
01:40:22.057 : en:(08)01:40:22:057
Скриншоты:

Особенности релиза:

Справа и слева у видеоряда обрезано по 248р, что дает возможность просмотра на полный экран (без черных полос) на телевизорах с соотношением сторон 16:9 без изменения пропорций. На мой взгляд плюсы данных рипов- это более глубокое восприятие 3D-эффектов (конечно там где они есть) К минусам отнесу- вынужденное обрезание кадра по бокам. Так-что господа- выбор за вами! Всем приятного просмотра!
Проверено на встроенном плейере ТВ Samsung-D6500Время раздачи: 24/7 - круглосуточно до 15 скачавших

[Цитировать]



Показать сообщения:    

Текущее время: 05-Дек 19:40

Часовой пояс: UTC + 3


Вы не можете начинать темы
Вы не можете отвечать на сообщения
Вы не можете редактировать свои сообщения
Вы не можете удалять свои сообщения
Вы не можете голосовать в опросах
Вы не можете прикреплять файлы к сообщениям
Вы не можете скачивать файлы

!ВНИМАНИЕ!
Сайт не предоставляет электронные версии произведений, а занимается лишь коллекционированием и каталогизацией ссылок, присылаемых и публикуемых на форуме нашими читателями. Если вы являетесь правообладателем какого-либо представленного материала и не желаете, чтобы ссылка на него находилась в нашем каталоге, свяжитесь с нами, и мы незамедлительно удалим ее. Файлы для обмена на трекере предоставлены пользователями сайта, и администрация не несет ответственности за их содержание. Просьба не заливать файлы, защищенные авторскими правами, а также файлы нелегального содержания!