[ Сегодня идет свободное скачивание без начисления Download ]


Статистика раздачи
Нет
 
   
 
Top  
 
 
-Алиса в стране чудес / Alice in Wonderland (2010) BDRip [1080p] [3D-Вертикальная анаморфная стереопара]- Русское название: Алиса в стране чудес
Оригинальное название: Alice in Wonderland
Год выпуска: 2010
Жанр: Фэнтези, Приключения, Семейный
Описание фильма:
Жизнь 19-летней Алисы Кингсли принимает неожиданный оборот. На викторианской вечеринке, устроенной в её честь, Алисе делает предложение Хэмиш, богатый, но глупый сын лорда и леди Эскот. Не дав ответа, девушка убегает и идёт за кроликом, замеченным ею на лужайке. Кролик как кролик, вот только он одет в камзол и всё время смотрит на карманные часы.
Алиса гонится за Белым Кроликом через весь луг и видит, как он исчезает в кроличьей норе. Затем, неожиданно, Алиса падает туда сама, летит вниз по странному, сказочному туннелю и приземляется в круглом зале со множеством дверей. Выпив из бутылки с надписью «ВЫПЕЙ МЕНЯ», она уменьшается в размерах, а откусив от пирожного с надписью «СЪЕШЬ МЕНЯ» — вырастает. Наконец, миновав череду злоключений, Алиса попадает через одну из дверей в чудесный фантастический мир, который его обитатели называют Подземной страной.
Там её ждёт целый парад колоритных персонажей: хвастливая Соня, сумасшедший Шляпник, глумливый Чеширский Кот, накурившаяся кальяном гусеница по имени Абессалом, жутковатая Белая Королева и её злобная сестра, Королева Червей, вздорная и раздражительная правительница Подземной страны.
Режиссер: Тим Бёртон / Tim Burton
Актеры: (дублировали): Алиса - Mia Wasikowska (Ангелина Миримская), Шляпник - Johnny Depp (Александр Баргман), Красная королева - Helena Bonham Carter (Елена Морозова), Белая королева - Anne Hathaway, Стейн (Червовый Валет) - Crispin Glover, Твидлди / Твидлдам - Matt Lucas, Белый Кролик - Michael Sheen (Сергей Маковецкий), Чеширский Кот - Stephen Fry (Александр Ширвиндт), Синий Катерпиллар - Alan Rickman (Илья Любимов), Мышь - Barbara Windsor (Марина Неёлова), Мартовский Заяц - Paul Whitehouse (Владис Гольк)
Продолжительность: 01:48:33
Перевод: Дублированный

Дата мировой премьеры: 03.03.10
Дата российской премьеры: 04.03.10
Дата выхода DVD релиза: 01.07.10
Видеокодек: MPEG-4 AVC/H.264
Формат: MKV
Битрейт видео: ~13.9 Мбит/сек
Размер кадра: 1920 х 1080
Качество видео: BDRip
Аудиокодек: AC3, 6 ch.
Битрейт аудио: 640 Кбит/сек General
Complete name : Alice-in-Wonderland3Dstereopara1080.mkv
Format : Matroska
Format version : Version 1
File size : 11.0 GiB
Duration : 1h 48mn
Overall bit rate mode : Variable
Overall bit rate : 14.6 Mbps
Movie name :
Encoded date : UTC 2012-01-21 15:41:17
Writing application : mkvmerge v2.0.2 ('You're My Flame') built on Feb 21 2007 23:40:55
Writing library : libebml v0.7.7 + libmatroska v0.8.1
Video #1
ID : 1
Format : AVC
Format/Info : Advanced Video Codec
Format profile : High@L4.1
Format settings, CABAC : Yes
Format settings, ReFrames : 3 frames
Codec ID : V_MPEG4/ISO/AVC
Duration : 1h 48mn
Bit rate mode : Variable
Bit rate : 13.9 Mbps
Maximum bit rate : 35.0 Mbps
Width : 1 920 pixels
Height : 1 080 pixels
Display aspect ratio : 16:9
Frame rate : 23.976 fps
Color space : YUV
Chroma subsampling : 4:2:0
Bit depth : 8 bits
Scan type : Progressive
Bits/(Pixel*Frame) : 0.280
Stream size : 10.3 GiB (94%)
Title :
Writing library : x264 core 116 r2074 2641b9e
Encoding settings : cabac=1 / ref=4 / deblock=1:-3:-3 / analyse=0x3:0x113 / me=umh / subme=9 / psy=1 / psy_rd=1.00:0.15 / mixed_ref=1 / me_range=24 / chroma_me=1 / trellis=1 / 8x8dct=1 / cqm=0 / deadzone=21,11 / fast_pskip=1 / chroma_qp_offset=-3 / threads=4 / sliced_threads=0 / slices=4 / nr=0 / decimate=1 / interlaced=0 / bluray_compat=0 / constrained_intra=0 / bframes=3 / b_pyramid=1 / b_adapt=2 / b_bias=0 / direct=3 / weightb=1 / open_gop=0 / weightp=2 / keyint=240 / keyint_min=23 / scenecut=40 / intra_refresh=0 / rc_lookahead=40 / rc=2pass / mbtree=1 / bitrate=13917 / ratetol=1.0 / qcomp=0.60 / qpmin=0 / qpmax=69 / qpstep=4 / cplxblur=20.0 / qblur=0.5 / vbv_maxrate=35000 / vbv_bufsize=30000 / nal_hrd=vbr / ip_ratio=1.40 / aq=1:1.00
Language : English
Default : Yes
Forced : No
Audio #2
ID : 2
Format : AC-3
Format/Info : Audio Coding 3
Mode extension : CM (complete main)
Codec ID : A_AC3
Duration : 1h 48mn
Bit rate mode : Constant
Bit rate : 640 Kbps
Channel(s) : 6 channels
Channel positions : Front: L C R, Side: L R, LFE
Sampling rate : 48.0 KHz
Bit depth : 16 bits
Compression mode : Lossy
Stream size : 497 MiB (4%)
Default : Yes
Forced : Скриншоты:

Рецензия, отзыв о фильме

(проверено на встроенном плееере 3DTV Samsung8007серии. На этом форуме не найдено такого, чтобы не надо было перекодировать, а просто, скачать и смотреть - поэтому и добавляю.)
На таком кино не устаешь, потому, как действие захватывает и стремительно развивается, а простое повествование скрашено невероятной красоты спецэффектами, захватывающими дух. Полеты, сражения, схватки с драконами и прочим сказочным бестиарием, юмористические нотки, не дающие скучать, и даже пролог фильма, до попадания Алисы в сказочную страну, проносится моментально кратко, что и моргнуть не успеваешь, как сюжетное действие закрутилось в гамме ярких красок. Смотреть на такое великолепие и визуально-зрелищную сказочную историю стоит обязательно в кинотеатрах и обязательно в 3D, чтобы по полной ощутить всю насыщенность видеоряда и визуальную красоту. Шедевр Бёртона должен занять свое почетное место в числе самых удачных экранизаций сказки, или же вовсе стать лучшей в своем роде.
Время раздачи: С 23:00 до 8:30

[Цитировать]



Показать сообщения:    

Текущее время: 24-Мар 00:20

Часовой пояс: UTC + 6


Вы не можете начинать темы
Вы не можете отвечать на сообщения
Вы не можете редактировать свои сообщения
Вы не можете удалять свои сообщения
Вы не можете голосовать в опросах
Вы не можете прикреплять файлы к сообщениям
Вы не можете скачивать файлы

!ВНИМАНИЕ!
Сайт не предоставляет электронные версии произведений, а занимается лишь коллекционированием и каталогизацией ссылок, присылаемых и публикуемых на форуме нашими читателями. Если вы являетесь правообладателем какого-либо представленного материала и не желаете, чтобы ссылка на него находилась в нашем каталоге, свяжитесь с нами, и мы незамедлительно удалим ее. Файлы для обмена на трекере предоставлены пользователями сайта, и администрация не несет ответственности за их содержание. Просьба не заливать файлы, защищенные авторскими правами, а также файлы нелегального содержания!